#VERSION:0.83;
#TITLE:-Lost;
#SUBTITLE:;
#ARTIST:Quark;
#TITLETRANSLIT:;
#SUBTITLETRANSLIT:;
#ARTISTTRANSLIT:;
#GENRE:;
#ORIGIN:;
#CREDIT:;
#BANNER:AV.avi;
#BACKGROUND:BG.png;
#PREVIEWVID:;
#JACKET:jacket.jpg;
#CDIMAGE:;
#DISCIMAGE:;
#LYRICSPATH:;
#CDTITLE:;
#MUSIC:Lost.mp3;
#OFFSET:0.162000;
#SAMPLESTART:100.000000;
#SAMPLELENGTH:15.000000;
#SELECTABLE:YES;
#DISPLAYBPM:175.000000;
#BPMS:0.000=175.000,
129.000=87.500,
145.000=43.750,
145.750=218.750,
147.000=174.999,
275.000=87.499,
283.000=174.999;
#STOPS:;
#DELAYS:;
#WARPS:;
#TIMESIGNATURES:0.000=4=4;
#TICKCOUNTS:0.000=4;
#COMBOS:0.000=1;
#SPEEDS:0.000=1.000=0.000=0;
#SCROLLS:0.000=1.000;
#FAKES:;
#LABELS:0.000=Song Start;
#BGCHANGES:0.500=MV.avi=1.000=1=0=1===CrossFade==,
99999=-nosongbg-=1.000=0=0=0 // don't automatically add -songbackground-
;
#KEYSOUNDS:;
#ATTACKS:
;

//---------------dance-single - ----------------
#NOTEDATA:;
#CHARTNAME:;
#STEPSTYPE:dance-single;
#DESCRIPTION:;
#CHARTSTYLE:;
#DIFFICULTY:Challenge;
#METER:14;
#RADARVALUES:1.077356,1.263684,1.520221,0.581261,0.994851,1012.000000,808.000000,204.000000,78.000000,0.000000,37.000000,0.000000,0.000000,0.000000,1.077356,1.263684,1.520221,0.581261,0.994851,1012.000000,808.000000,204.000000,78.000000,0.000000,37.000000,0.000000,0.000000,0.000000;
#CREDIT:;
#DISPLAYBPM:175.000000;
#NOTES:
0000
1001
1010
0110
,
0101
1010
0110
1001
,
1010
0000
0001
0101
0000
0000
1010
0000
0000
0011
0000
0000
,
1100
1001
0011
1010
,
1001
0010
0100
0011
0000
0000
1100
0000
0000
0101
0000
0000
,
0011
1001
1010
0110
,
1001
0000
0100
0101
0000
0000
1010
0000
0000
0110
0000
0000
,
1001
0000
0000
0101
0000
0000
0110
0000
0000
1001
0000
0010
,
0101
0000
1000
0000
0001
0000
0110
0000
0000
2000
0000
0000
3011
0000
0000
0200
0000
0000
1301
0000
0000
0200
0000
0000
,
1310
0002
0113
2000
3101
0020
1031
0020
,
1130
0002
0113
2000
3011
0200
1301
0020
,
1130
0000
0000
0020
0000
0000
0131
0000
0000
2000
0000
0000
3011
0000
0000
0200
0000
0000
1310
0000
0001
0000
0100
0000
,
0010
0000
1000
0000
0100
0000
0011
0000
0000
0200
0000
0000
1301
0000
0000
0020
0000
0000
1130
0000
0000
0002
0000
0000
,
0113
0000
1000
0000
0100
0000
0011
0000
0000
0200
0000
0000
1301
0000
0000
0010
0000
0000
1100
0000
0000
0001
0000
0000
,
0110
1000
0001
0010
0100
1000
0010
0100
0010
0001
1000
0100
,
0010
0000
0000
0000
0001
0000
0000
0000
0100
0000
0000
0000
0010
0000
0000
0100
0000
0000
1000
0000
0000
0001
0000
0000
0010
0000
0000
0100
0000
0000
0010
0000
0000
1000
0000
0000
0200
0000
0000
0000
0000
0000
0000
0000
0000
0000
0000
0000
,
0000
0000
0000
0000
0311
1000
0100
0010
0001
0000
0100
0000
1001
0100
0010
0000
,
1000
0000
0000
0000
0011
0100
0000
0011
1000
0100
0010
0100
0001
0010
0100
0000
,
2000
0000
3000
0000
0210
0000
1300
0011
0000
0100
0011
0000
1100
0000
1000
0001
,
1100
0000
0000
0000
1002
0000
0000
0000
0123
0000
0000
0000
0031
0000
1000
0100
,
0020
0000
0030
0000
1001
0000
0010
0100
0010
0000
1100
0000
0010
0001
0010
0100
,
1000
0000
0011
0000
0011
0000
0100
1000
0101
0000
0010
0100
1000
0010
0001
0000
,
0200
0000
0000
0000
1302
0000
0003
0000
1002
0000
0003
0000
0110
0000
0110
1000
,
0001
0010
1000
0100
0012
0000
1000
0000
0023
0000
1000
0000
0032
0000
1000
0000
,
1023
0000
1000
0000
0131
0000
0010
0100
1001
0000
0010
1000
0101
0000
1000
0100
,
1010
0000
0100
0010
1001
0000
0010
0100
1000
0000
0001
0010
0100
1000
0011
0000
,
1200
0000
0000
0000
0301
1000
0001
1000
0011
0000
0100
0010
1001
0000
0010
1000
,
0101
0000
0010
0001
1100
0000
0001
0010
1000
0000
0001
0010
1100
0010
0001
0100
,
1020
0000
0000
0000
0131
0000
0010
0100
1001
0000
0010
0001
1100
0000
0010
0100
,
1001
0000
0100
1000
0011
0000
0100
0001
1000
0000
0001
0010
0100
0001
0010
1000
,
0010
1000
0001
0000
0120
0000
0030
0000
0120
0000
0030
0000
2001
0000
3201
0000
,
0310
0000
0001
0000
0010
0100
1000
0001
0010
0100
0010
1000
0100
0010
0001
0100
,
0010
1000
0100
0010
1002
0000
0000
0000
0000
0000
0000
0000
0000
0000
0000
0000
,
0000
0000
0200
0300
2000
3000
0000
0000
0000
0000
0023
0000
2130
0000
0000
0000
,
0000
0000
3110
0000
0020
0030
0000
0000
,
0000
0000
0002
0003
2020
0030
0000
0000
3200
0000
0000
0000
0320
0000
0000
0000
,
0032
0000
0000
0000
0003
0000
0000
0000
0000
0000
0000
0000
1001
0010
0100
1000
,
0100
1000
0100
0010
0001
0010
0100
1000
0100
1000
0100
0010
0001
0010
0100
1000
,
0100
1000
0100
0010
0001
0010
0100
1000
0100
0010
0001
0100
1000
0100
0010
0001
,
0010
0001
0010
0100
1000
0100
0010
0001
0010
1000
0100
0010
0001
0010
0100
1000
,
0100
1000
0100
0010
0001
0010
0100
1000
0100
0010
0001
0010
0001
0010
0100
0010
,
0100
1000
0100
0010
0001
0010
0100
1000
0100
1000
0100
0010
0001
0010
0100
1000
,
0010
0100
0001
0010
0100
1000
0010
1000
0100
0001
0010
0100
1001
0100
0010
0001
,
1100
0001
0010
0100
1001
0100
0010
0001
1100
0000
0110
0000
1001
0100
0010
0001
,
0100
0010
1000
0100
0010
0100
0010
0001
0010
0100
1000
0010
0201
0000
0300
0000
,
0001
0010
0100
1000
0001
0010
0100
1000
0001
0010
0100
1000
0001
0010
0100
1000
,
0001
0010
0100
1000
0001
0010
0100
1000
0012
0000
0000
0000
1203
0000
0300
0000
,
0010
0100
0001
1000
0010
0100
0001
1000
0010
0100
0001
1000
0010
0100
0001
1000
,
0010
0100
0001
1000
0120
0000
0000
0000
1032
0000
0000
0000
0123
0000
0030
0000
,
1000
0100
0010
0001
1000
0100
0010
0001
1000
0100
0010
0001
1200
0000
0300
0000
,
0001
0010
0100
1000
0001
0010
0100
1000
0001
0010
0100
1000
0012
0000
0003
0000
,
0010
1000
0001
0100
0011
0000
1000
0110
0000
0001
1010
0000
0200
0000
0000
0000
,
0320
0000
0000
0000
0032
0000
0000
0000
0003
0000
0000
0000
1001
0000
0000
0100
,
1010
0000
0100
0000
0011
0000
0100
0000
1010
0000
0001
0000
0110
0000
0000
1000
,
0000
0000
0001
0000
0100
0000
1001
0010
0000
0000
0100
0010
1001
0000
0000
0100
,
1010
0000
0100
0000
0011
0000
0000
0100
1001
0000
0010
0000
0101
0000
0000
1000
,
0000
0000
0010
0000
0200
0000
0010
0000
0302
0000
0000
0000
1013
0000
0000
0001
,
0110
0000
1000
0000
0101
0000
0000
0000
1001
0000
0010
1000
0101
0000
0000
0000
,
0010
0000
0000
0000
0100
0000
1001
0000
0100
0010
0001
0000
1100
0000
0000
0000
,
1001
0000
0000
0000
0110
0000
0000
1000
0011
0000
0100
0000
1002
0000
0000
0000
,
0000
0000
0000
0000
2003
0000
0010
0000
0100
0000
0000
0000
3001
0100
0001
0100
,
0011
0000
0100
0000
1000
0000
0010
0000
0101
0000
0010
0000
1000
0000
1000
0100
,
0011
0000
0100
0000
1000
0000
0001
1000
0110
0000
0010
0000
1000
0000
1000
0010
,
0101
0000
0010
0000
0100
0000
0000
0010
1001
0000
0010
0000
0100
0000
0000
0001
,
1010
0000
0100
0000
0010
0000
0001
0000
0110
0000
0100
0000
0001
0000
0000
1000
,
0110
0000
1000
0000
0001
0000
0000
0000
1010
0000
0100
0010
0001
0000
0000
0000
,
0110
0000
0000
0000
1000
0000
0010
1000
0101
0000
0001
0000
1000
0001
1000
0001
,
1100
0000
0000
0000
0010
0100
0010
0100
1001
0000
0000
0000
0110
0000
0000
1000
,
0011
0000
0100
0000
1000
0000
0000
0000
1000
0000
0001
0010
2000
0000
0000
0000
,
0000
3200
0000
0320
,
0000
0000
0032
0203
2300
3000
0110
0000
,
0001
0010
0100
0000
1001
0000
0010
0100
1001
0000
0100
0000
0011
0000
0000
0000
,
1100
0000
0000
0000
0001
0000
0010
0000
0100
0010
0100
0000
1001
0000
0100
0010
,
0001
0000
0110
0000
1000
0100
0010
0001
0010
0000
1000
0100
0011
0000
0100
0010
,
1001
0010
0100
0000
0010
0000
1000
0100
0020
0000
0000
0000
1031
0000
0100
0001
,
0010
0000
1000
0100
0001
0010
1100
0000
0001
0000
1000
0000
0110
0000
0000
0000
,
0001
1000
0001
1000
0002
0000
0000
0000
0100
0000
0000
0000
1013
0000
0100
0010
,
0101
0000
0010
0100
1001
0100
0010
0001
0010
0100
1000
0010
0102
0000
0000
0000
,
1023
0000
0000
0000
0132
0000
0000
0000
0000
0000
0000
0000
1013
0000
0001
0010
,
1100
0000
0010
0100
1001
0000
0010
1000
0101
0000
1000
0010
0101
1000
0010
0100
,
1000
0100
0010
0001
0010
1000
0100
0010
0001
0000
0010
0100
1000
0001
1000
0001
,
1100
0000
0010
0100
1001
0000
0110
0000
1010
0000
0101
0000
1001
0000
1010
0000
,
0100
0010
1000
0100
0010
0001
0010
0100
0010
1000
0100
0010
0001
1000
0001
1000
,
0011
0000
0000
0000
1001
0000
0000
0000
1010
0000
0000
0000
0001
1000
0001
1000
,
0011
0000
1100
0000
0010
0100
0010
0100
1001
0100
0010
0001
1100
0001
0010
0100
,
1001
0100
0010
0001
1100
0001
0010
0100
1001
0000
0110
0000
1001
0000
0110
0000
,
1001
0010
0100
1000
0010
0100
0001
0010
0200
0000
0000
0000
0322
0000
0000
0000
,
0000
0000
0000
0000
,
0030
0000
0000
0000
,
0000
0003
0000
0000
;

//---------------dance-single - ----------------
#NOTEDATA:;
#CHARTNAME:;
#STEPSTYPE:dance-single;
#DESCRIPTION:;
#CHARTSTYLE:;
#DIFFICULTY:Hard;
#METER:14;
#RADARVALUES:0.589778,0.713163,0.357699,0.663234,0.190028,554.000000,506.000000,48.000000,89.000000,0.000000,0.000000,0.000000,0.000000,0.000000,0.589778,0.713163,0.357699,0.663234,0.190028,554.000000,506.000000,48.000000,89.000000,0.000000,0.000000,0.000000,0.000000,0.000000;
#CREDIT:;
#DISPLAYBPM:175.000000;
#NOTES:
// measure 0
0000
0000
0000
0000
,  // measure 1
0000
0000
0000
0000
,  // measure 2
0000
0000
0000
0000
,  // measure 3
0000
0000
0000
0000
,  // measure 4
0000
0000
0000
0000
,  // measure 5
0000
0000
0000
0000
,  // measure 6
0000
0000
0000
0000
,  // measure 7
0000
0000
0000
0000
,  // measure 8
0000
0000
0001
0020
0130
0020
0031
0020
,  // measure 9
0130
0020
0031
0002
1003
0002
0103
0200
,  // measure 10
0310
0200
0301
2000
3100
2000
3001
0200
,  // measure 11
0310
0200
0301
0020
0031
0020
0031
0002
,  // measure 12
1003
0002
0013
0002
1003
0002
0103
0020
,  // measure 13
0130
0020
1030
0200
1300
0020
0130
0002
,  // measure 14
0103
0000
0000
0020
0000
0000
1030
0000
0001
0000
0100
0000
0010
0000
1000
0000
0100
0000
0010
0000
0001
0000
0010
0000
,  // measure 15
0001
0100
0001
0020
0000
0000
0000
0000
0000
0230
0000
0000
,  // measure 16
0000
0000
1300
0000
1000
0010
0100
0001
,  // measure 17
0010
0000
0000
0000
0100
0000
0000
0100
0000
0000
0100
0000
0010
0000
1000
0000
,  // measure 18
0001
0000
0000
0000
0010
0000
1000
0100
0000
0100
1000
0000
0001
0000
0100
0010
,  // measure 19
0100
0000
0000
0000
0002
0000
0000
0000
0023
0000
0000
0000
0130
0000
1000
0001
,  // measure 20
1000
0000
1010
0100
0010
0001
0000
0100
,  // measure 21
1000
0000
0010
0000
0110
0000
0000
0000
1001
0000
0000
0000
0001
0000
0010
0100
,  // measure 22
0020
0000
1030
0000
1000
0000
0010
0010
,  // measure 23
1000
0001
1000
0000
2010
0000
0000
0000
3200
0000
0000
0000
0320
0000
0000
0000
,  // measure 24
0031
0100
0010
1000
0010
0100
0010
1000
,  // measure 25
0100
0010
0100
0010
1001
0000
0010
0100
,  // measure 26
0010
0000
0000
0000
0001
1000
0001
1000
0001
0000
0000
0000
1000
0000
0001
0000
,  // measure 27
0100
0000
0010
0000
1000
0000
0010
0100
0010
0000
0001
1000
0001
0000
0010
0000
,  // measure 28
0200
0000
0301
1000
0010
0100
0001
1000
,  // measure 29
0001
0100
0010
0100
1001
0000
0001
0100
,  // measure 30
0010
1000
0010
0000
0100
0000
0001
0001
,  // measure 31
0010
0100
2000
0000
3200
0000
0320
0000
,  // measure 32
0000
0032
0000
0000
,  // measure 33
0000
0000
0020
0030
0200
0300
0000
0000
0000
0000
0000
0000
2003
0000
0000
0000
,  // measure 34
0000
0000
3010
0000
0002
0003
0000
0000
,  // measure 35
0000
0200
0302
0000
0023
0000
2030
0000
,  // measure 36
3020
0000
0030
0000
0000
0000
0010
1000
,  // measure 37
0010
0100
0010
1000
0010
0100
0010
1000
,  // measure 38
0010
0100
0010
1000
0001
0010
0001
1000
,  // measure 39
0001
0010
0001
1000
0001
0010
0100
1000
,  // measure 40
0010
0100
0001
0010
0001
1000
1001
0000
,  // measure 41
1001
0000
0110
0000
0110
0000
0001
1000
,  // measure 42
0001
0000
1000
0000
0001
0000
1000
0000
0001
0000
1000
0000
0100
0010
0100
0000
,  // measure 43
0001
0100
0001
0000
1000
0010
1000
0000
1000
0000
0001
0000
0010
0000
0100
0000
,  // measure 44
1000
0010
0100
0001
0010
0100
0101
0000
,  // measure 45
0010
1000
0010
1000
0010
1000
0010
1000
,  // measure 46
0010
1000
0010
1000
1001
0000
0101
0000
,  // measure 47
0010
0001
0010
0001
0010
0001
0010
0001
,  // measure 48
0010
0001
0101
0000
1010
0000
0101
0000
,  // measure 49
0100
0001
0100
0001
0100
0001
0101
0000
,  // measure 50
0010
1000
0010
1000
0010
1000
1001
0000
,  // measure 51
0010
0000
0100
0000
1001
0000
0001
0100
0000
0100
0001
0000
2000
0000
0000
0000
,  // measure 52
3200
0000
0000
0000
0320
0000
0000
0000
0030
0000
0000
0000
0002
0000
0000
0023
,  // measure 53
0000
0000
0130
0000
0010
0000
0100
0000
1000
0000
0010
0000
0002
0000
0000
0203
,  // measure 54
0000
0000
0310
0000
0020
0000
0000
2030
0000
0000
3010
0000
0200
0000
0000
0320
,  // measure 55
0000
0000
0130
0000
2000
0000
0000
3200
0000
0000
0310
0000
0002
0000
0000
0023
,  // measure 56
0000
0000
0031
0000
2000
0000
0000
0000
3200
0000
0000
0000
0302
0000
0000
0003
,  // measure 57
0200
0000
0310
0000
0020
0000
0000
0000
1030
0000
0100
0010
0200
0000
0000
0000
,  // measure 58
0302
0000
0000
0000
2003
0000
0000
3020
0000
0000
0130
0000
0200
0000
0000
0000
,  // measure 59
0302
0000
0000
0000
0023
0000
0000
0230
0000
0000
1300
0000
0020
0000
0000
0000
,  // measure 60
0000
0000
0000
0000
0032
0000
0100
0000
0010
0000
0000
0000
1003
0010
1000
0010
,  // measure 61
1000
0000
0001
0000
0110
0000
1000
1000
,  // measure 62
0110
0000
0000
0100
0101
0001
0010
0010
,  // measure 63
1001
0100
1010
0001
,  // measure 64
0110
0000
0000
1000
1001
0001
0100
0000
,  // measure 65
1100
0010
0101
0010
,  // measure 66
1001
0000
0000
0000
0000
0000
0100
0000
0101
0000
0001
0000
0010
1000
0010
1000
,  // measure 67
0010
0000
0000
0000
0100
0001
0100
0001
0100
0000
0000
0000
1010
0000
0000
0000
,  // measure 68
0101
0110
0010
0020
,  // measure 69
0000
0230
0000
2300
,  // measure 70
0000
0000
3200
0320
0032
0003
1010
0000
,  // measure 71
0100
0001
0100
0000
0010
0000
1000
0000
0001
0000
1000
0000
0110
0000
0000
0000
,  // measure 72
0110
0000
0001
0010
0100
1000
0010
0100
,  // measure 73
0010
1000
0001
0100
0010
0100
1001
0000
,  // measure 74
0101
0000
0000
0000
0100
0000
0001
1000
0002
0000
0000
0000
0103
0000
0000
0000
,  // measure 75
0100
0010
1000
0001
0100
0000
1010
0000
,  // measure 76
0010
0100
0010
0100
0020
0000
0000
0000
1030
0000
0000
0000
0101
0000
0000
0000
,  // measure 77
0101
0000
0001
1000
0010
0100
0101
0000
,  // measure 78
0101
0000
2010
0000
0000
0000
3010
0100
,  // measure 79
0010
1000
0010
0100
0010
0100
1001
0000
,  // measure 80
1001
0000
0000
0000
0010
0000
0100
0000
0010
0000
0000
0000
0001
1000
0001
1000
,  // measure 81
0001
0000
0001
0010
0100
1000
0100
0010
,  // measure 82
0200
0000
0000
0000
0310
0000
0100
0000
2000
0000
0000
0000
3001
0100
0001
0100
,  // measure 83
0001
0000
0000
0000
0110
0000
0000
0000
1100
0000
0000
0000
0010
0100
0010
0100
,  // measure 84
0010
0000
1000
0000
0010
0100
0010
0100
0010
0000
1000
0000
0001
0000
0010
0000
,  // measure 85
0100
1000
0001
1000
0100
0010
0100
0010
,  // measure 86
0001
0100
0010
1000
0200
0000
0320
0000
,  // measure 87
0030
0000
0000
0000
;

//---------------dance-single - ----------------
#NOTEDATA:;
#CHARTNAME:;
#STEPSTYPE:dance-single;
#DESCRIPTION:;
#CHARTSTYLE:;
#DIFFICULTY:Medium;
#METER:6;
#RADARVALUES:0.456705,0.615913,0.089425,0.350247,0.115507,429.000000,417.000000,12.000000,47.000000,0.000000,0.000000,0.000000,0.000000,0.000000,0.456705,0.615913,0.089425,0.350247,0.115507,429.000000,417.000000,12.000000,47.000000,0.000000,0.000000,0.000000,0.000000,0.000000;
#CREDIT:;
#DISPLAYBPM:175.000000;
#NOTES:
0000
0100
0010
1000
,
0001
0010
1000
0100
,
0010
0100
0001
1000
,
0010
0001
0100
0010
,
1000
0001
1000
0001
0000
0000
0100
0000
0000
0010
0000
0000
,
1000
0001
0010
1000
,
0010
0000
0100
0001
0000
0000
1000
0000
0000
0010
0000
0000
,
0100
0000
0000
0001
0000
0000
0010
0000
0000
0100
0000
0001
,
1000
0001
1000
0001
0000
0000
0100
0000
0000
0010
0000
0000
,
1000
0001
0100
0010
,
1000
0000
0001
0100
0000
0000
0010
0000
0000
1000
0000
0000
,
0010
0100
0001
0020
,
1000
0130
0001
1000
,
0010
0100
0010
0100
0000
0000
0001
0000
0000
1000
0000
0000
,
0010
1000
0010
1000
0001
0100
0001
1000
0010
1000
0010
0100
,
0010
0100
0001
0200
0000
0000
0000
0000
0000
0320
0000
0000
,
0000
0000
1030
0000
0010
1000
0010
0100
,
0001
0000
0000
0000
0000
0000
0010
0000
0000
0000
0010
0000
0000
0000
0000
0000
0000
0000
1000
0000
0000
0010
0000
0000
,
0200
0000
0000
0000
0301
0000
0000
0001
0000
0000
0001
0000
1000
0000
0010
0000
,
1000
0020
0230
0302
,
0003
0000
0110
0000
1000
0001
0000
0000
,
0100
0010
0100
0000
0110
0000
0001
1000
,
0001
0000
0100
0000
0100
0000
0010
0010
,
1000
0001
0200
0000
0320
0000
0032
0000
,
1003
1010
0100
0010
,
0001
0000
0100
0000
0010
0000
1000
0001
,
1000
0000
0010
0100
0010
0000
1000
0000
,
0001
0000
0100
0010
0100
0001
0100
0010
,
0200
0301
1000
0100
,
0010
0000
0001
0000
0100
0000
0010
1000
,
0010
0100
0001
0000
0001
0000
1000
1000
,
0010
0100
0002
0000
0023
0000
0230
0000
,
0000
0310
0000
0000
,
0000
0020
0230
0000
0000
0000
0302
0000
,
0000
0013
0000
0000
,
0000
2000
3020
0000
0230
0000
0302
0000
,
0023
0030
0000
1001
,
0010
1000
0010
0001
,
0010
1000
0010
0001
,
0100
1000
0100
0001
,
1000
0001
0100
0001
,
1000
0000
0001
0000
1000
0000
0001
1000
,
0001
1000
0001
1000
0001
1000
0001
0100
,
0010
1000
0100
1000
0010
0100
0010
1000
,
0001
0100
0001
1000
0010
1000
0200
0000
,
0310
0001
0010
0001
,
0010
0001
1001
1010
,
0100
0010
0100
0010
,
0100
1010
0110
0101
,
1000
0001
1000
0110
,
0010
1000
0010
1010
,
0000
0101
0000
0020
,
0230
0000
0000
0000
2300
0000
0000
0000
3000
0000
0000
0000
0010
0000
0000
0100
,
0000
0000
0001
0000
1000
0000
0010
0000
0100
0000
0001
0000
0010
0000
0000
1000
,
0000
0000
0010
0000
0100
0000
0000
0001
0000
0000
0100
0000
0010
0000
0000
1000
,
0000
0000
0010
0000
0100
0000
0000
0010
0000
0000
1000
0000
0001
0000
0000
0100
,
0000
0000
0010
0000
2000
0000
0000
0000
3200
0000
0000
0000
0310
0000
0000
0001
,
0000
0010
2000
0000
0000
0000
3200
0000
,
0320
0000
0000
0000
0031
0000
0000
0100
0000
0000
0010
0000
2000
0000
0000
0000
,
3002
0000
0000
0000
0103
0000
0000
0010
0000
0000
0001
0000
0200
0000
0000
0000
,
0000
2300
0000
3020
,
0130
0000
0001
0000
0010
0000
1000
1000
,
0001
0000
0000
0100
0010
0010
1000
1000
,
0001
0100
0010
1000
,
0010
0000
0000
0100
0001
0001
1000
0000
,
0100
0010
0100
0001
,
0100
0000
0000
1000
0001
0001
0100
0010
,
0100
0000
0001
1000
0001
0000
0100
0000
,
0100
0200
0000
0320
,
0000
0032
0000
0203
,
0000
0300
0000
0010
,
1000
0001
1000
0010
0100
0010
0001
0000
,
0001
0000
0100
0100
0010
1000
0100
0000
,
0010
0100
0000
0000
0001
1000
0001
0000
,
0001
0000
0100
0010
0200
0000
0310
0000
,
1000
0000
0010
0100
0001
0010
1000
0000
,
1000
0001
2000
0000
0010
0000
3001
0000
,
0001
0000
0100
0010
1000
0010
0200
0000
,
0320
0032
0000
0103
,
0010
1000
0100
0010
,
0001
0000
0000
0000
0100
0000
0000
0010
0000
0000
0000
0000
1000
0000
0001
0000
,
0100
0000
0010
1000
0010
1000
0010
1000
,
0001
0000
0100
0010
1000
0000
0001
0100
,
0001
0000
0010
0000
0010
0000
1000
0001
,
1000
0000
0010
0100
0001
0100
0010
0100
,
0001
0100
0010
0100
0001
1000
0001
1000
,
0001
1000
0001
1000
0020
0000
0230
0000
,
0300
0000
0000
0000
;

//---------------dance-single - ----------------
#NOTEDATA:;
#CHARTNAME:;
#STEPSTYPE:dance-single;
#DESCRIPTION:;
#CHARTSTYLE:;
#DIFFICULTY:Easy;
#METER:4;
#RADARVALUES:0.336407,0.356581,0.029808,0.238466,0.003726,316.000000,312.000000,4.000000,32.000000,0.000000,0.000000,0.000000,0.000000,0.000000,0.336407,0.356581,0.029808,0.238466,0.003726,316.000000,312.000000,4.000000,32.000000,0.000000,0.000000,0.000000,0.000000,0.000000;
#CREDIT:;
#DISPLAYBPM:175.000000;
#NOTES:
0000
0010
0100
0001
,
1000
0010
0001
0100
,
0010
1000
0001
0100
,
0010
1000
0010
0100
,
0001
0010
0001
1000
,
0010
0100
0001
1000
,
0010
0100
0010
0001
,
0010
0100
0010
0001
,
1000
0010
0100
0001
,
1000
0001
0100
0010
,
1000
0001
0100
0001
,
0010
0001
1000
0001
,
1000
0001
0100
0010
,
1000
0010
0100
0010
,
1000
0001
0100
0010
,
1000
0002
0000
0203
,
0000
0310
0000
1000
,
0001
0100
0100
0001
,
0020
1030
0000
1000
,
0000
0010
0100
0000
,
0000
0000
0001
0000
0000
0100
0000
0000
,
0000
0010
0010
0000
1000
0000
0100
0000
,
0001
0010
0010
0100
,
0010
0002
2003
3020
,
0230
0301
1000
0001
,
1000
0010
0100
0000
,
0001
0010
0010
1000
,
0001
0010
0100
0010
,
0100
0001
0010
1000
,
0100
0010
0001
0000
,
0100
0010
1000
0001
,
0010
0100
0010
1000
,
0001
0010
0000
0000
,
0000
0002
2003
3000
0000
0000
0010
0000
,
0000
1001
0000
0000
,
0000
0200
0302
0003
0000
0000
0020
0000
,
0230
0300
0000
1001
,
0001
0000
0000
0100
0010
0000
1000
0000
,
0100
0000
0000
0010
0100
0000
0001
0000
,
1000
0000
0000
0100
0010
0000
1000
0000
,
0010
0100
0000
1000
,
0001
0100
0010
1000
,
0010
0100
0010
0001
,
0100
0001
0100
0010
,
1000
0010
0100
0001
,
0010
0001
0010
0001
,
0010
0001
0010
0100
,
0010
1000
0010
1000
,
0010
0001
1000
0001
,
0100
0010
1000
0001
,
0100
0010
1000
0100
,
1000
0010
0100
0002
,
0023
2030
3000
0001
,
0100
1000
0010
0001
,
0000
0000
0000
0010
,
1000
0001
0100
0010
,
0000
0000
0000
0010
,
0100
0010
1000
0100
,
0000
0000
0000
0001
,
1000
0100
0010
0002
,
0000
0203
0000
0310
,
1000
0001
0010
0001
,
0100
0010
0100
1000
,
0100
0010
0001
1000
,
0010
0100
0001
0010
,
1000
0100
0010
0001
,
1000
0100
0010
0001
,
1000
0001
0100
0010
,
1000
0001
0100
0020
,
0000
0032
0000
0203
,
0000
0300
0000
0010
,
1000
0100
0001
0010
,
0010
0000
1000
0100
0000
0000
1001
0000
,
0000
1001
0000
0000
0000
0000
0100
0000
,
0010
0000
1000
0001
2000
0000
3010
0000
,
0100
0001
0010
0001
,
0100
0010
0200
0000
0000
0000
0310
0000
,
1000
0020
0100
2030
,
3200
0320
0000
0031
,
0100
0010
1000
0100
,
0010
0000
0000
0000
0001
0000
0000
0100
0000
0000
0000
0000
0010
0000
1000
0000
,
0010
0100
0100
0010
,
0001
0000
1000
0000
0010
0000
0100
0010
,
0100
0000
0001
0000
0001
0000
1000
0010
,
1000
0100
0010
0100
,
0001
0000
0100
0000
0001
1000
0002
0000
,
0023
0230
2300
3002
,
0003
0000
0000
0000
;

//---------------dance-single - Copied from----------------
#NOTEDATA:;
#CHARTNAME:Copied from;
#STEPSTYPE:dance-single;
#DESCRIPTION:Copied from;
#CHARTSTYLE:;
#DIFFICULTY:Beginner;
#METER:2;
#RADARVALUES:0.185237,0.291748,0.000000,0.178850,0.000000,174.000000,174.000000,0.000000,24.000000,0.000000,0.000000,0.000000,0.000000,0.000000,0.185237,0.291748,0.000000,0.178850,0.000000,174.000000,174.000000,0.000000,24.000000,0.000000,0.000000,0.000000,0.000000,0.000000;
#CREDIT:Copied from;
#DISPLAYBPM:175.000000;
#NOTES:
0000
0010
0000
0000
,
0000
0100
0000
0000
,
0000
0001
0000
0000
,
0000
1000
0000
0010
,
0000
0100
0000
0000
,
0000
0001
0000
0000
,
0000
0010
0000
0000
,
0000
0001
0000
0000
,
0000
1000
0000
0010
,
0000
0100
0000
0001
,
0000
0010
0000
0001
,
0000
1000
0000
0010
,
0000
0100
0000
0010
,
0000
1000
0000
0001
,
0000
0100
0000
0010
,
0000
2000
0000
3002
,
0000
0103
0000
0000
,
0000
0010
0000
0000
,
1000
0000
0000
0000
,
0000
0010
0000
0000
,
0000
0100
0000
0001
,
0000
1000
0000
0000
,
0000
0010
0000
0010
,
0000
1000
0001
0100
,
0000
0010
0000
0100
,
0000
0010
0100
0000
,
0000
1000
0000
0010
,
0000
0100
0001
0100
,
0001
1000
0000
0010
,
0000
0100
0010
0000
,
0000
0001
0001
1000
,
0000
0200
0302
0203
,
0000
0300
0000
0000
,
0000
0000
0000
0002
,
0000
0103
0000
0000
,
0000
2000
3020
0230
,
0302
0003
0000
0100
,
0000
0010
0000
0001
,
0000
1000
0000
0010
,
0000
0100
0000
0001
,
0000
1000
0000
0010
,
0100
0010
0100
0001
,
1000
0001
1000
0020
,
0000
0230
0000
0302
,
0000
2003
0000
3010
,
0100
0000
0100
0000
,
0100
0000
0100
0000
,
0001
0000
0001
0000
,
0001
0000
0000
0000
,
0010
0000
0010
0000
,
1000
0000
1000
0000
,
0010
0000
0000
0002
,
2003
3020
0030
0100
,
0000
0001
0000
0010
,
0000
1000
0000
0010
,
0000
0100
0000
0001
,
0000
1000
0000
0010
,
0000
0001
0000
0100
,
0000
1000
0000
0010
,
0000
0100
0001
0100
,
0000
0010
0000
1000
,
0000
0010
0000
0001
,
0000
0100
0000
1000
,
0000
0010
0000
0001
,
0000
0010
0000
0100
,
0000
0001
0000
1000
,
0000
0000
0000
0010
,
0000
0100
0000
0001
,
1000
0001
0000
0200
,
0000
0320
0000
2030
,
0000
3000
0000
0010
,
0000
1000
0000
0001
,
0001
0000
0000
0100
,
0000
0010
0000
1000
,
0000
0010
0000
0100
,
0000
0001
0000
1000
,
0010
0100
0000
0001
,
0001
1000
0000
0010
,
0010
0010
0000
0100
,
0000
0001
0000
0010
,
0000
0100
0000
1000
,
0000
0010
0010
0010
,
0001
0000
0100
0010
,
0000
1000
0000
0001
,
0000
0100
0000
0010
,
0000
1000
0000
0002
,
0203
0320
0030
2000
,
3000
0000
0000
0000
;
