#TITLE:Light of Harmony;
#SUBTITLE:;
#ARTIST:NeLiME;
#TITLETRANSLIT:;
#SUBTITLETRANSLIT:;
#ARTISTTRANSLIT:;
#GENRE:;
#CREDIT:;
#BANNER:AV.avi;
#BACKGROUND:bg.png;
#LYRICSPATH:;
#CDTITLE:;
#MUSIC:LIGHT OF HARMONY.mp3;
#OFFSET:0.100000;
#SAMPLESTART:80.599998;
#SAMPLELENGTH:15.000000;
#SELECTABLE:YES;
#DISPLAYBPM:188.000000;
#BPMS:0.000000=188.000000
,24.000000=375.998993
,25.000000=188.000000
,43.000000=375.998993
,43.375000=75.199997
,43.500000=375.998993
,44.375000=37.599998
,44.500000=376.000000
,44.875000=75.199997
,45.000000=375.998993
,45.875000=37.599998
,46.000000=375.998993
,46.875000=47.000000
,47.000000=375.998993
,47.875000=47.000000
,48.000000=375.998993
,49.000000=188.000000
,55.000000=94.000000
,55.500000=188.001999
,56.000000=94.000999
,56.500000=188.001007
,57.000000=94.000999
,57.500000=188.001007
,59.000000=188.001999
,77.000000=94.001999
,77.500000=188.001999
,78.000000=94.000999
,78.500000=188.001999
,79.000000=94.000999
,79.500000=188.001999
,140.000000=376.000000
,141.000000=188.001999
,189.000000=376.000000
,189.375000=74.202003
,189.500000=376.001007
,190.375000=37.602001
,190.500000=376.000000
,190.875000=74.200996
,191.000000=188.001999
,192.000000=376.001007
,192.875000=47.001999
,193.000000=188.001999
,195.000000=376.000000
,195.375000=74.200996
,195.500000=376.000000
,196.375000=37.601002
,196.500000=376.001007
,196.875000=74.200996
,197.000000=376.000000
,197.875000=47.000999
,198.000000=188.001999
,199.000000=376.000000
,199.500000=188.001999
,200.000000=376.000000
,201.000000=188.001999
,213.000000=376.001007
,213.375000=74.200996
,213.500000=376.001007
,214.375000=37.601002
,214.500000=376.000000
,214.875000=74.200996
,215.000000=188.001999
,216.000000=376.001007
,216.875000=47.000999
,217.000000=188.001999
,219.000000=376.001007
,219.375000=74.200996
,219.500000=376.001007
,220.375000=37.602001
,220.500000=376.001007
,220.875000=74.200996
,221.000000=376.001007
,221.875000=47.001999
,222.000000=188.001999
,223.000000=376.000000
,223.500000=188.001999
,224.000000=376.001007
,225.000000=188.001999
,235.000000=376.000000
,235.500000=188.001999
,247.000000=376.001007
,247.500000=188.001999
,248.000000=376.001007
,249.000000=188.001999
,294.500000=376.000000
,295.000000=188.001999
,295.500000=376.000000
,296.000000=188.001999
,297.000000=94.000999
,306.000000=188.001999
,334.000000=376.001007
,334.500000=188.001999
,335.000000=376.000000
,336.375000=75.200996
,336.500000=376.000000
,337.375000=37.601002
,337.500000=376.001007
,337.875000=75.202003
,338.000000=376.001007
,338.875000=47.000999
,339.000000=376.000000
,339.875000=37.601002
,340.000000=376.000000
,340.875000=47.000999
,341.000000=376.000000
,341.875000=47.000999
,342.000000=376.001007
,342.375000=74.200996
,342.500000=376.001007
,343.375000=34.602001
,343.500000=376.000000
,343.875000=74.202003
,344.000000=376.000000
,344.875000=47.000999
,345.000000=376.000000
,345.875000=47.001999
,346.000000=188.001999
,348.000000=376.001007
,348.375000=74.202003
,348.500000=376.001007
,349.375000=37.602001
,349.500000=376.000000
,349.875000=74.202003
,350.000000=376.000000
,350.875000=47.001999
,351.000000=376.000000
,351.875000=37.601002
,352.000000=376.000000
,352.875000=47.000999
,353.000000=188.001999
,354.000000=376.001007
,354.375000=74.202003
,354.500000=188.001999
,355.500000=376.000000
,355.875000=74.202003
,356.000000=180.001999
,356.500000=376.000000
,357.000000=188.001999
,357.500000=376.000000
,358.000000=188.001999
,359.000000=376.000000
,360.000000=188.001999
;
#STOPS:24.000000=0.040000,
24.250000=0.040000,
24.500000=0.040000,
24.750000=0.040000,
48.000000=0.040000,
48.250000=0.040000,
48.500000=0.040000,
48.750000=0.040000,
58.500000=0.040000,
58.625000=0.040000,
58.750000=0.040000,
58.875000=0.040000,
59.000000=0.020000,
80.500000=0.040000,
80.625000=0.040000,
80.750000=0.040000,
80.875000=0.040000,
140.000000=0.040000,
140.250000=0.040000,
140.500000=0.040000,
140.750000=0.040000,
199.000000=0.040000,
199.250000=0.040000,
200.000000=0.040000,
200.250000=0.040000,
200.500000=0.040000,
200.750000=0.040000,
223.000000=0.040000,
223.250000=0.040000,
224.000000=0.040000,
224.250000=0.040000,
224.500000=0.040000,
224.750000=0.040000,
235.000000=0.040000,
235.250000=0.040000,
247.000000=0.040000,
247.250000=0.040000,
248.000000=0.040000,
248.250000=0.040000,
248.500000=0.040000,
248.750000=0.040000,
294.500000=0.040000,
294.750000=0.040000,
295.500000=0.040000,
295.750000=0.040000,
334.000000=0.040000,
334.250000=0.040000,
335.000000=0.040000,
335.250000=0.040000,
335.500000=0.040000,
335.750000=0.040000,
356.500000=0.040000,
356.750000=0.040000,
357.500000=0.040000,
357.750000=0.040000,
359.000000=0.040000,
359.250000=0.040000,
359.500000=0.040000,
359.750000=0.040000
;
#BGCHANGES:0.000=MV.avi=1.000=1=1=1=StretchRewind==CrossFade==,
99999=-nosongbg-=1.000=0=0=0 // don't automatically add -songbackground-
;
#KEYSOUNDS:;
#ATTACKS:;

//---------------dance-single - ----------------
#NOTES:
     dance-single:
     :
     Challenge:
     17:
     1.163996,1.269342,2.304965,0.636686,0.511767,1011.000000,723.000000,286.000000,79.000000,0.000000,64.000000,1.163996,1.269342,2.304965,0.636686,0.511767,1011.000000,723.000000,286.000000,79.000000,0.000000,64.000000:
0000
0000
0100
1000
0020
0130
0020
0031
,
0001
0010
0200
0301
2000
3100
0100
0010
,
0002
1003
0020
0031
0101
0010
1000
0110
,
0001
1010
1010
0001
0200
0301
0020
1030
,
1000
0010
0002
1003
0200
0301
0001
1000
,
0020
0000
0000
0000
0130
0000
0000
0000
0002
0000
0000
0000
0103
0000
0000
0000
1100
0000
0000
0000
0011
0000
0000
0000
1000
0100
0001
0010
0100
0000
0000
0000
,
1000
0001
1000
0001
1100
0000
0010
0000
0101
0000
0010
0000
0101
0000
1000
0000
,
0110
0001
1100
0010
1100
0010
0101
1000
,
0011
0100
0011
0100
1010
0001
0110
1000
,
0110
0001
1100
0010
1001
0100
1001
0010
,
1100
0010
0101
1000
0101
0000
1100
1100
,
0000
0011
0011
0000
1002
0000
1203
0000
,
1300
0001
1000
0001
1200
0000
0000
0000
0010
0000
0301
0000
1010
0100
0001
1000
,
0120
0000
0001
0130
1001
0100
0021
1031
,
1200
0000
0000
0000
0311
0000
0000
0000
1002
0000
0000
0000
0113
0000
1000
0000
0101
0000
0010
0000
1000
0001
1000
0001
1100
0000
0000
0000
0010
0000
0000
0000
,
1001
0000
0010
0000
1100
0000
0000
0000
0011
0000
0100
0000
1001
0000
0010
0001
,
1100
0000
0010
0000
1002
0000
0000
0000
0113
0000
0001
0010
1100
0000
0010
0000
,
2001
0000
0000
0000
0000
0000
0000
0000
0001
0000
0000
0000
3110
0000
0000
0000
0110
0000
0000
0000
1000
0000
0001
0010
2100
0000
0000
0000
0000
0000
0000
0000
,
0001
0000
3010
0100
1001
0010
0100
1000
0012
0000
0000
0000
1000
0000
0013
0000
,
1001
0110
1002
1103
0021
1031
0210
1301
,
0110
0000
0000
0000
0001
1000
0001
1000
0012
0000
0000
0000
0000
0000
0000
0000
1000
0000
0000
0000
0000
0000
0000
0000
0100
0000
0000
0000
1003
0000
0000
0000
,
0110
0000
1000
0000
0110
0000
0001
0000
1100
0010
0001
0010
2100
0000
0000
0000
,
0000
0000
0000
0000
0000
0000
0001
0010
0200
0000
0000
0000
0000
0000
0000
0000
,
0000
0000
3311
0000
1001
0010
0101
1000
,
0110
0000
0011
0000
1001
0000
1100
0001
,
0011
0100
1001
0010
1100
0000
1001
0100
,
0011
0000
0100
0000
1001
0000
0000
0000
0110
0000
0001
0010
1100
0000
0010
0000
,
0101
1000
0011
0100
1001
0010
1100
0001
,
0101
0000
1000
0000
0101
0000
0010
0000
1100
0000
0000
0000
1001
0010
0100
0000
,
0011
0100
1010
0000
0011
0100
1001
0010
,
1100
0000
1100
0010
1001
0010
0101
0000
,
0011
1000
0110
0001
1100
0000
1010
0100
,
1001
0000
0010
0000
0101
0000
0000
0000
1100
0000
0010
0100
1001
0000
0100
0000
,
0011
0000
0101
0010
1100
0001
1010
0000
,
1100
0001
0110
1000
0011
0000
1001
0110
,
0001
1000
0001
1000
0021
0000
0000
0000
1000
0000
0031
0000
0110
0000
1000
0000
,
0120
2031
3120
0132
,
2000
0000
3200
0000
0320
0003
1000
0100
,
0001
0000
0100
0000
2031
0000
0000
0000
0010
0000
3001
0010
1100
0000
0010
0000
,
1001
0100
0011
1000
0110
0001
2010
0000
,
0002
0000
0000
0000
0023
0000
0000
0000
3230
0000
0000
0000
0001
0010
1000
0000
,
0010
0001
1320
0000
0100
1030
0011
0100
,
1020
0000
0131
0000
1100
0001
0120
0000
,
0002
0000
0203
0000
2300
0000
3200
0000
0332
0000
0000
0000
1000
0100
0010
0100
,
1000
0010
1203
0000
0001
1300
0110
0001
,
1010
0000
0100
0001
1010
0000
0100
0000
0011
0000
0100
0000
2001
0000
0000
0000
,
0100
0000
0000
0000
0000
0000
0000
0000
0010
0000
0000
0000
3001
0000
0010
0000
1100
0000
0000
0000
0011
0000
0000
0000
1000
0100
0001
0010
0100
0000
1000
0000
,
0010
0001
0100
0010
1001
0000
1001
0000
0000
0000
0110
0000
0110
0000
1000
0000
,
0011
0000
1100
0000
0010
0000
1001
1001
,
0000
0000
0101
0000
0101
0000
0000
0000
1001
0000
0110
0000
0001
1000
0001
0000
,
1000
0001
1000
0001
1100
0000
0000
0000
1001
0000
0100
0000
1001
0000
0010
0000
,
1100
0000
0110
0000
0011
0100
1010
0000
,
1001
0000
0100
1000
0011
0000
0100
0000
1001
0000
0000
0000
1100
0000
0000
0000
,
1001
0010
0100
1000
0011
0000
0011
0000
0000
0000
0110
0000
0110
0000
1000
0000
,
0011
0000
0000
0000
1001
0000
0000
0000
0010
0100
0010
0100
1001
0000
1001
0000
,
0000
0000
0110
0000
0110
0000
0000
0000
1100
0000
1100
0000
0001
1000
0001
0000
,
1000
0001
1000
0001
1100
0000
0000
0000
1001
0000
0010
0000
1100
0000
0001
0000
,
0110
0000
0000
0000
1001
0100
0010
0000
0101
0000
1000
0000
0011
0000
0100
0010
,
1001
0000
0000
0000
1010
0000
0000
0000
0110
0000
1001
0000
0010
0100
0010
0000
,
0001
0010
0100
1000
0001
0000
0010
0000
0200
0000
0000
0000
0000
0000
0000
0000
0000
0000
0000
0000
0000
0000
0000
0000
0000
0000
0000
0000
0000
0000
0000
0000
,
0000
0000
0000
0000
0310
0001
2020
0000
,
0000
0000
0000
0000
0000
0000
0000
0000
3131
0000
0110
0000
0001
1000
0001
0000
,
0200
0010
0001
1000
0312
0000
0000
0000
1000
0000
0013
0000
1100
0000
0001
0000
,
0120
2130
3210
0321
,
1130
0000
0001
0000
1010
0000
0100
0000
0012
0000
0000
0000
1013
0100
1000
0100
,
0010
0001
0010
0100
1000
0001
0010
0000
2100
0000
0000
0000
3021
0000
0000
0000
,
1230
0000
0000
0000
0311
0000
1000
0000
0101
0000
0010
0000
1100
0010
0001
0000
,
0210
0000
0311
1000
0120
0001
1000
0100
,
0001
0000
0000
0000
1230
0000
0000
0000
1301
0000
0010
0001
1100
0000
0010
0000
,
0101
0000
1000
0000
0011
0000
0100
0010
1001
0000
0010
1000
0102
0000
0000
0000
,
0113
0000
1000
0000
0011
0000
0100
0000
1002
0000
0000
0000
1013
0100
1000
0100
,
0010
0001
0010
0100
2001
0000
0000
0000
3110
0000
0002
0000
1000
0000
0103
0000
,
0021
0000
1000
0000
0130
0000
0001
0000
1100
0000
0010
0000
0101
0010
1000
0100
,
0012
0000
0000
0000
1103
0000
0010
0000
1100
0000
0001
1000
0001
0000
1000
0001
,
1000
0001
0100
1000
0010
0000
0100
1000
0100
0010
0001
0000
0010
1000
0100
0000
,
1000
0000
0000
0000
0001
0000
0010
0000
0100
0000
1000
0000
0010
0000
0000
0000
0001
0010
0100
1000
0010
0100
1000
0100
0010
0001
0010
0000
0100
0000
0010
0000
,
2001
0000
0100
0000
0010
0100
0001
0100
3011
0100
1000
0010
0001
0000
0110
0000
,
1000
0000
0000
0000
0001
0000
0000
0000
0110
0000
0000
0000
1000
0000
0000
0000
0011
0000
0000
0000
1000
0000
0000
0000
0101
0000
0000
0000
1000
0000
0001
0010
,
1100
0000
0001
0010
1100
0000
0010
0000
1001
0000
0100
0000
1010
0000
0001
0000
,
0110
0000
0001
0000
1100
0000
0001
0000
0110
0000
1000
0100
0011
0000
0100
0000
,
1001
0000
0010
0000
1200
0000
0000
0000
1301
0010
0100
0000
1010
0000
0100
0000
,
0011
0000
0100
0010
1001
0100
0010
0001
0010
0100
1000
0100
0011
0000
1000
0000
,
0110
0000
1000
0000
0011
0000
1000
0000
0101
0000
0010
0000
1100
0001
0010
0000
,
0101
0000
0010
0000
1100
0000
0011
0000
1000
0001
1000
0000
0001
1000
0001
1000
,
0211
0011
0000
0011
0011
0000
0011
0000
,
0011
0000
0011
0000
2311
0011
0000
0011
,
0011
0000
0000
0000
0011
0000
0000
0000
0011
0000
0100
0000
3011
0100
1000
0100
,
0012
0110
0000
0110
0110
0000
0110
0000
,
0110
0000
0000
0000
0113
1000
0100
0010
1001
0000
1001
0000
0010
0000
1001
0000
,
1001
0000
0000
0000
0100
0000
0010
0000
0100
0000
0000
0000
0001
0000
1000
0000
0001
0010
0100
1000
0001
0000
0000
0000
1000
0000
0001
0000
1000
0000
0001
0000
,
1100
0000
0000
0000
;

//---------------dance-single - ----------------
#NOTES:
     dance-single:
     :
     Hard:
     16:
     0.708068,0.979207,0.193424,0.556093,0.350580,615.000000,591.000000,24.000000,69.000000,0.000000,0.000000,0.708068,0.979207,0.193424,0.556093,0.350580,615.000000,591.000000,24.000000,69.000000,0.000000,0.000000:
// measure 0
0000
0000
0000
0000
,  // measure 1
0000
0000
0000
0000
,  // measure 2
0000
0000
0000
0000
,  // measure 3
0000
0000
0000
0000
,  // measure 4
0000
0000
0000
0000
,  // measure 5
0000
0000
0000
0000
,  // measure 6
0000
0000
1000
0010
1010
0000
1010
1000
,  // measure 7
0001
1000
1001
0000
1001
0001
0100
0010
,  // measure 8
0101
0000
0101
0100
0001
0100
1010
0000
,  // measure 9
1010
0010
0100
0010
1001
0000
1001
0001
,  // measure 10
0100
0001
1010
0000
1010
0000
1000
0001
,  // measure 11
0000
0001
0100
0000
0200
0000
0320
0000
,  // measure 12
1030
0001
1000
0001
2000
0000
0000
0000
0001
0000
3100
0000
0001
1000
0001
1000
,  // measure 13
0002
0000
0013
1000
0010
0100
0001
1000
,  // measure 14
0010
0000
0000
0000
1000
0000
0000
0000
0010
0000
0000
0000
0001
0000
0000
0000
0100
0000
0000
0000
0001
1000
0001
1000
0001
0000
0000
0000
0010
0000
0000
0000
,  // measure 15
0100
0000
0001
0000
0100
0000
0000
0000
1000
0000
0010
0000
0100
0000
0001
0100
,  // measure 16
0001
0000
0100
0000
0020
0000
0000
0000
0031
0000
1000
0001
1000
0000
0010
0000
,  // measure 17
0200
0000
0000
0000
1300
0000
0001
0000
0010
1000
0001
1000
0020
0000
0000
0000
,  // measure 18
0001
0000
0130
0001
1000
0010
0100
0001
1000
0000
0010
0000
0100
0000
0001
0000
,  // measure 19
1000
0001
0100
0100
0001
0001
0100
0010
,  // measure 20
1000
0000
0000
0000
0100
0001
0100
0001
0200
0000
0000
0000
0000
0000
0000
0000
0001
0000
0000
0000
0000
0000
0000
0000
0001
0000
0300
0000
0100
0000
0000
0000
,  // measure 21
0010
0000
1000
0000
0010
0000
0100
0000
0001
0100
0001
1000
0020
0000
0000
0000
,  // measure 22
0000
0000
0200
0000
,  // measure 23
0000
0330
2001
0000
3010
1000
0010
0100
,  // measure 24
0002
0000
2003
0000
3002
0000
0103
0010
,  // measure 25
0010
1000
0001
0100
0010
0000
1000
0100
,  // measure 26
0010
0000
0001
0000
0200
0000
0000
0000
0301
0000
1000
0010
1000
0000
0010
0000
,  // measure 27
0100
0001
0001
0100
0010
1000
0010
1000
,  // measure 28
1000
0000
0010
0000
0010
0000
0100
0000
0001
0000
0000
0000
1000
0010
1000
0000
,  // measure 29
0001
0100
0020
0000
1030
0001
0010
0100
,  // measure 30
2000
0000
3001
0100
0001
0010
0200
0000
,  // measure 31
1300
0010
1000
0010
0100
0000
0010
0100
,  // measure 32
0001
0000
0100
0000
0020
0000
0000
0000
0130
0000
0001
1000
0001
0000
1000
0000
,  // measure 33
0020
0000
0031
0100
0001
0100
0020
0000
,  // measure 34
1030
0001
1000
0010
2000
0000
0000
0000
,  // measure 35
3010
0100
0010
0100
0020
0000
0000
0000
0130
0000
0010
0000
1000
0000
0001
0000
,  // measure 36
0200
0320
0230
0302
,  // measure 37
1000
0000
0100
0000
0010
0003
0100
1000
,  // measure 38
0010
0000
0100
0000
0002
0000
0000
0000
0103
0000
0010
1000
0010
0000
0010
0000
,  // measure 39
0100
0001
0100
0010
1000
0010
2000
0000
,  // measure 40
0010
0000
0000
0000
0001
0000
0000
0000
3010
0000
0000
0000
0100
0010
0100
0000
,  // measure 41
0001
1000
0020
0000
0031
1000
0001
1000
,  // measure 42
0002
0000
0013
0100
0001
0100
0020
0000
,  // measure 43
1000
0000
0000
0000
0100
0000
0000
0000
1000
0000
0030
0000
1000
0001
1000
0010
,  // measure 44
0100
0100
0020
0000
0130
0001
0100
0010
,  // measure 45
0100
0000
0001
1000
0001
0000
0100
0000
0001
0000
0100
0000
0002
0000
0000
0000
,  // measure 46
1000
0000
0000
0000
0103
0000
1000
0010
1000
0000
0001
0000
0100
0000
0001
0000
,  // measure 47
1000
0010
1000
0010
1000
0000
0001
0000
0000
0000
0001
0000
0100
0000
0000
0000
,  // measure 48
1010
0000
0110
0000
0000
0000
0001
1000
,  // measure 49
0000
0000
1000
0000
0010
0000
0000
0000
0001
0000
0100
0000
0001
1000
0001
0000
,  // measure 50
0100
0010
0100
0010
0200
0000
0000
0000
0310
0000
1000
0000
0010
0000
0100
0000
,  // measure 51
0020
0030
2000
3000
0001
1000
0002
0100
,  // measure 52
0013
0000
1000
0001
1000
0000
0010
0000
0110
0000
0000
0000
1010
0000
0000
0000
,  // measure 53
0001
0100
0100
0001
0000
0001
0100
0000
,  // measure 54
1010
0000
1001
0000
0000
0000
0001
0100
,  // measure 55
0000
0000
0100
0000
0001
0000
0000
0000
0001
0000
0100
0000
0010
1000
0010
0000
,  // measure 56
0100
0001
0100
0001
0200
0000
0000
0000
1300
0000
0001
0000
0100
0000
0001
0000
,  // measure 57
0200
0000
0310
0000
0010
1000
0010
0000
1000
0000
0001
0000
0002
0000
0003
0000
,  // measure 58
0200
0000
0300
0000
0020
0000
0030
0000
0100
0000
0010
0000
0001
1000
0001
0000
,  // measure 59
0200
0320
0000
0000
,  // measure 60
0000
0000
0000
0000
0130
0010
2000
0000
,  // measure 61
0000
0000
0000
0000
0000
0000
0000
0000
3010
0000
0100
0000
0001
1000
0001
0000
,  // measure 62
1000
0001
1000
0001
2000
0000
0000
0000
0100
0000
3100
0000
0001
0000
0100
0000
,  // measure 63
0002
0203
0320
2030
,  // measure 64
3010
0000
0100
0000
0001
0000
0100
0000
0020
0000
0000
0000
1030
0001
1000
0010
,  // measure 65
0100
0001
0100
0010
1000
0010
0100
0000
0020
0000
0000
0000
2030
0000
0000
0000
,  // measure 66
3020
0000
0000
0000
1030
0000
0001
0000
0100
0000
0001
0000
1000
0010
1000
0000
,  // measure 67
0002
0000
0103
0010
2000
0000
0001
0000
,  // measure 68
3010
0000
0000
0000
0002
0000
0000
0000
1003
0000
0010
0100
0010
0000
0010
0000
,  // measure 69
1000
0000
0001
0000
1000
0000
0010
0100
0010
0000
0100
0010
0200
0000
0000
0000
,  // measure 70
0301
0000
1000
0000
0010
0000
0100
0000
0002
0000
0000
0000
1003
0010
0100
0010
,  // measure 71
1000
0001
1000
0010
0200
0000
0000
0000
0301
0000
0100
0000
0010
0000
1000
0000
,  // measure 72
0020
0000
0000
0000
0130
0000
0001
0000
1000
0000
0010
0000
0100
0000
0010
1000
,  // measure 73
0020
0000
0000
0000
0130
0000
0010
0000
1000
0000
0001
1000
0001
0000
0100
0000
,  // measure 74
0001
1000
0001
1000
0001
0000
0100
0010
0100
0001
0100
0000
0010
1000
0010
0000
,  // measure 75
0010
0000
0001
0100
0010
0100
0001
0000
1000
0100
0010
0001
0010
0100
1000
0000
,  // measure 76
0100
0000
0010
0000
0001
1000
0010
0100
1010
0000
0000
0000
0000
0000
0101
0000
,  // measure 77
0000
0000
1010
0000
0110
0000
0101
0002
,  // measure 78
1003
0000
0010
0100
0010
0000
1000
0000
0001
0000
0001
0000
1000
0000
0001
0000
,  // measure 79
0100
0000
0010
0000
1000
0000
0010
0000
0100
0000
0010
0100
0010
0000
0001
0000
,  // measure 80
0100
0000
0010
0000
2000
0000
0000
0000
3010
0100
0010
0000
1000
0000
0001
0000
,  // measure 81
0010
0000
1000
0001
0100
0001
1000
0001
0100
0001
0100
0010
0100
0000
0010
0000
,  // measure 82
1000
0000
0010
0000
0100
0000
0001
0000
0100
0000
0010
0000
1000
0001
1000
0000
,  // measure 83
0010
0000
0010
0000
1000
0000
0001
0000
1000
0001
1000
0000
0001
1000
0001
1000
,  // measure 84
0002
0000
0000
0000
,  // measure 85
0000
0000
0203
0000
,  // measure 86
0000
0000
0000
0000
,  // measure 87
0302
0000
0000
0000
,  // measure 88
0000
0000
0000
0000
1003
1000
0010
0100
,  // measure 89
0100
0000
0001
1000
0001
0000
0100
0010
0200
0000
0310
0000
1000
0001
1000
0001
,  // measure 90
1000
0000
0000
0000
;

//---------------dance-single - ----------------
#NOTES:
     dance-single:
     :
     Medium:
     10:
     0.528461,0.725338,0.088652,0.515796,0.012089,459.000000,448.000000,11.000000,64.000000,0.000000,0.000000,0.528461,0.725338,0.088652,0.515796,0.012089,459.000000,448.000000,11.000000,64.000000,0.000000,0.000000:
0000
0000
1000
0000
0010
0100
0010
0000
,
1000
0000
0001
0100
0001
0000
0010
0000
,
1000
0010
1000
0000
1010
0000
0000
0110
,
0000
0000
0101
0000
0010
1000
0010
0000
,
0100
0000
1000
0001
1000
0000
0010
0000
,
0100
0001
0100
0000
0010
1000
0020
0000
,
0230
0000
0310
0000
1000
0010
1000
0010
,
0100
0000
0001
0100
0001
0100
0010
0000
,
1000
0001
1000
0001
0100
0000
0010
1000
,
0010
1000
0001
0000
0100
0010
0100
0010
,
1000
0000
0001
0100
0001
0100
0010
0010
,
0000
0010
0010
0000
2000
0000
3002
0000
,
0203
0000
0310
0000
1000
0000
0100
0001
,
0100
0000
0010
0100
0001
1000
0010
0100
,
0001
0100
0010
0100
0001
2000
3010
0100
,
0010
1000
0010
0000
0001
0000
1000
0000
,
0010
0100
0001
0000
1000
0000
0100
0010
,
0100
0000
0001
0000
1000
0010
0100
0000
,
0010
0000
1000
0001
0100
0010
0100
0001
,
0100
0010
1000
0001
1000
0010
1000
0010
,
0100
0020
0130
0000
0010
0000
1000
0000
,
0001
0010
0100
1000
0100
0010
0002
0000
,
0000
0000
2000
0000
,
0000
3003
1001
0000
0010
0000
1000
0010
,
0100
1000
0001
0100
,
0010
1000
0010
1000
0010
0000
0100
0000
,
0001
1000
0010
0000
0001
0000
1000
0000
,
0100
0010
0001
0010
,
0100
0001
0100
0001
0100
0000
0010
0000
,
1000
0010
0100
0000
0010
0000
1000
0000
,
0001
0010
0100
0001
,
0010
1000
0010
1000
0010
0000
0100
0000
,
0001
1000
0001
0000
0100
0000
0010
0000
,
1000
0000
0001
0100
0010
1000
0100
0000
,
0010
1000
0010
0100
0020
0000
0130
0100
,
0200
0000
0320
0000
0100
0000
1030
0001
,
0200
0320
0032
2003
,
0010
0001
3010
0100
,
0010
1000
0200
0000
0010
0000
0301
1000
,
0010
0000
0010
0000
0010
1000
0002
0000
,
0100
0000
1000
0000
0103
0000
0010
1000
,
0010
0100
0020
0000
0100
0000
1030
0001
,
0200
0000
0310
1000
0010
1000
0002
0000
,
0010
0000
0100
0000
1003
0000
0010
0100
,
0001
0100
0020
0000
1000
0000
0130
0010
,
1000
0000
0001
0000
1000
0010
0200
0000
,
0001
0000
0310
0000
1000
0001
2000
0000
,
3020
0000
0130
0100
0000
0001
0001
0000
,
0010
0000
0010
0000
0000
0000
0100
0100
,
0000
0010
0010
0000
1000
0010
0200
0300
,
0002
0000
0103
0000
0100
0000
0010
0100
,
0010
0000
0001
0000
0100
0010
1000
0000
,
0100
0000
1000
0001
0010
0000
0100
0000
,
0001
0000
1000
1000
0000
0010
0010
0000
,
0100
0000
0100
0000
0000
0000
0010
0010
,
0000
1000
1000
0000
0001
0100
0020
0030
,
2000
0000
3010
0000
0100
0001
1000
0000
,
0010
0000
0100
0010
0100
0000
1000
0000
,
0100
0010
0200
0302
,
2003
3020
0000
0000
,
0000
0000
0000
0000
1030
0100
0002
0000
,
0000
0000
0000
0000
0103
0010
0200
0300
,
0002
0000
1003
0000
0100
1000
0010
0100
,
0002
2003
3020
0230
,
0310
0000
1000
0001
0100
0000
1000
0000
,
0010
0000
0100
0010
0002
0000
2003
0000
,
3020
0000
0230
0000
0301
0000
0100
0010
,
2000
0000
3010
0100
0002
0000
0100
0000
,
1000
0000
0103
0000
0010
0000
0100
0010
,
1000
0020
0230
0302
,
0103
0010
1000
0010
0200
0000
0301
0000
,
0010
0100
2000
0000
3001
0000
0100
0000
,
0010
0000
0100
0000
0001
0000
0010
1000
,
0100
0000
0010
0000
0001
0200
0310
1000
,
0002
0000
0000
0000
0103
0000
0010
1000
0010
0000
0100
0000
0001
0000
1000
0000
,
0010
0000
0100
0000
0001
1000
0010
0000
0100
0000
0010
0000
1000
0001
1000
0000
,
0010
0100
0010
1000
1001
0000
0000
0110
,
0000
1001
0010
0100
,
0001
0100
0010
1000
0010
1000
0001
0000
,
1000
0000
0010
0000
0100
0001
0100
0010
,
1000
0001
0100
0000
1000
0010
0100
0001
,
0010
0000
0200
0000
0302
0000
1003
0010
,
1000
0001
1000
0010
0100
0001
1000
0001
,
0100
0010
0200
0000
0000
0000
0301
0000
,
0220
0000
0000
0000
,
0000
0330
2002
0000
,
0000
0000
0000
3003
,
2200
0000
0000
0000
,
0000
3300
0022
0000
,
0000
0000
0000
0000
,
0033
0000
0000
0000
;

//---------------dance-single - ----------------
#NOTES:
     dance-single:
     :
     Easy:
     6:
     0.172700,0.253868,0.016119,0.128949,0.000000,150.000000,148.000000,2.000000,16.000000,0.000000,0.000000,0.172700,0.253868,0.016119,0.128949,0.000000,150.000000,148.000000,2.000000,16.000000,0.000000,0.000000:
0000
0000
0000
0000
,
0000
0000
0000
0000
,
0000
0000
0000
0000
,
0000
0000
0000
0000
,
0000
0000
0000
0000
,
0000
0000
0000
0000
,
0000
0000
1000
1000
,
0000
0100
0100
0000
,
0010
0010
0000
0001
,
0001
0000
0010
0010
,
0000
0100
0100
0020
,
0000
0000
0000
0000
,
0000
0030
0000
0100
,
0010
0000
0001
2000
,
0000
0000
0000
3000
,
0010
0000
0100
0000
,
0001
1000
0000
0010
,
0100
0000
1000
0010
,
0000
0001
0100
0000
,
0001
2000
0000
0000
,
0000
3000
0000
0000
,
0010
0100
0001
2000
,
0000
0000
0200
0000
,
0000
3300
0000
0010
,
0100
0000
0001
1000
,
0000
0010
1000
0000
,
0100
0010
0000
0001
,
0100
0000
0010
1000
,
0000
0100
0010
0000
,
0001
0110
0000
1000
,
0010
0000
0001
0100
,
0000
1000
0010
0000
,
0001
1000
0000
0100
,
0010
0000
0001
1000
,
0000
0010
0100
0000
,
0000
1001
0000
0000
,
0100
0010
1000
0002
,
0000
0000
0103
0000
,
0000
0010
0000
0000
,
1000
0001
0100
0002
,
0000
0000
1003
0000
,
0000
0010
0000
0000
,
0100
0010
1000
0020
,
0000
0000
0130
0000
,
0000
0001
0000
0000
,
1000
0010
0100
0002
,
0000
0000
2000
0000
,
3003
0000
0000
0000
,
0000
0000
0000
0000
,
0000
0000
0000
0000
,
0000
0100
0000
0000
,
0010
0000
0000
1000
,
0000
0001
0100
0000
,
0000
1000
0000
0000
,
0000
0000
0000
0000
,
0000
0000
0000
0000
,
0000
0001
0000
0000
,
0100
0000
0000
0010
,
0000
0000
0010
0000
,
0000
2000
0000
0000
,
0000
3000
0000
0002
,
0000
0000
0003
0000
,
0000
0100
0000
0010
,
1000
0000
0010
0100
,
0000
0001
1000
0000
,
0010
0100
0000
1000
,
0001
0000
0010
0100
,
0000
1000
0010
0000
,
0001
0100
0000
0010
,
1000
0000
0010
0001
,
0000
0010
0100
0000
,
1000
0010
0000
0001
,
0100
0000
1000
0010
,
0000
0100
0010
0000
,
0000
1000
0000
0000
,
0010
0000
0000
0100
,
0000
0000
0001
0000
,
0000
0100
0000
0000
,
1000
0000
0000
0100
,
0000
0000
0010
0000
,
0000
0001
0000
0000
,
0010
0000
0000
0100
,
0000
0000
0001
0000
,
0000
1000
0000
0000
,
0020
0000
0000
0000
,
0000
0000
0230
0000
,
0000
0000
0000
0000
,
0302
0000
0000
0000
,
0000
0000
2003
0000
,
0000
0000
0000
0000
,
3000
0000
0000
0000
;

//---------------dance-single - ----------------
#NOTES:
     dance-single:
     :
     Beginner:
     3:
     0.088652,0.108801,0.000000,0.008059,0.000000,77.000000,77.000000,0.000000,1.000000,0.000000,0.000000,0.088652,0.108801,0.000000,0.008059,0.000000,77.000000,77.000000,0.000000,1.000000,0.000000,0.000000:
0000
0000
0000
0000
,
0000
0000
0000
0000
,
0000
0000
0000
0000
,
0000
0000
0000
0000
,
0000
0000
0000
0000
,
0000
0000
0000
0000
,
0000
1000
0000
0000
,
0001
0000
0000
0010
,
0000
0000
0100
0000
,
0000
0010
0000
0000
,
1000
0000
0000
0000
,
0000
0000
0000
0000
,
0000
0001
0000
0000
,
0100
0000
0000
0010
,
0000
0000
0000
1000
,
0000
0000
0000
0000
,
0000
0010
0000
0000
,
0100
0000
0000
0001
,
0000
0000
1000
0000
,
0000
0010
0000
0000
,
0000
0010
0000
0000
,
0000
0000
0000
0001
,
0000
0000
0000
0000
,
0000
1000
0000
0000
,
0100
0000
0000
0010
,
0000
0000
1000
0000
,
0000
0001
0000
0000
,
0100
0000
0000
0010
,
0000
0000
1000
0000
,
0000
0010
0000
0000
,
0100
0000
0000
0001
,
0000
0000
1000
0000
,
0000
0010
0000
0000
,
1000
0000
0000
0010
,
0000
0000
0100
0000
,
0000
0100
0000
0000
,
0010
0000
0000
0001
,
0000
0000
0000
0000
,
0000
1000
0000
0000
,
0010
0000
0000
0010
,
0000
0000
0000
0000
,
0000
0001
0000
0000
,
0100
0000
0000
0100
,
0000
0000
0000
0000
,
0000
1000
0000
0000
,
1000
0000
0000
0001
,
0000
0000
0000
0000
,
0000
0000
0000
0000
,
0000
0000
0000
0000
,
0000
0000
0000
0000
,
0000
1000
0000
0000
,
0100
0000
0000
0010
,
0000
0000
0001
0000
,
0000
0010
0000
0000
,
0000
0000
0000
0000
,
0000
0000
0000
0000
,
0000
0010
0000
0000
,
0100
0000
0000
0010
,
0000
0000
1000
0000
,
0000
0010
0000
0000
,
0000
0000
0000
0100
,
0000
0000
0000
0000
,
0000
0010
0000
0000
,
0000
0000
0000
1000
,
0000
0000
0000
0000
,
0000
0010
0000
0000
,
0000
0000
0000
0001
,
0000
0000
0000
0000
,
0000
0010
0000
0000
,
0000
0000
0000
0100
,
0000
0000
0000
0000
,
0000
0010
0000
0000
,
0000
0000
0000
0001
,
0000
0000
0000
0000
,
0000
0010
0000
0000
,
1000
0000
0000
0010
,
0000
0000
0001
0000
,
0000
0000
0000
0000
,
0100
0000
0000
1000
,
0000
0000
0010
0000
,
0000
0100
0000
0000
,
0001
0000
0000
0010
,
0000
0000
1000
0000
,
0000
0010
0000
0000
,
0200
0000
0000
0000
,
0000
0000
0000
0000
,
0000
0000
0000
0000
,
0000
0000
0000
0000
,
0000
0000
0000
0000
,
0000
0000
0000
0000
,
0300
0000
0000
0000
;
