#VERSION:0.83;
#TITLE:Kun Anta;
#SUBTITLE:;
#ARTIST:Humood Alkhuder;
#TITLETRANSLIT:;
#SUBTITLETRANSLIT:;
#ARTISTTRANSLIT:;
#GENRE:;
#ORIGIN:;
#CREDIT:;
#BANNER:AV.avi;
#BACKGROUND:BG.jpg;
#PREVIEWVID:;
#JACKET:;
#CDIMAGE:;
#DISCIMAGE:;
#LYRICSPATH:;
#CDTITLE:;
#MUSIC:audio.mp3;
#OFFSET:0.204000;
#SAMPLESTART:31.903999;
#SAMPLELENGTH:16.000000;
#SELECTABLE:YES;
#BPMS:0.000=92.010,
76.000=46.005,
78.000=92.010,
110.000=46.005,
114.000=92.010,
142.000=46.005,
148.000=23.003,
149.000=92.005,
161.000=46.010,
163.000=92.010;
#STOPS:47.000=0.330,
47.500=0.330;
#DELAYS:;
#WARPS:;
#TIMESIGNATURES:0.000=4=4;
#TICKCOUNTS:0.000=4;
#COMBOS:0.000=1;
#SPEEDS:0.000=1.000=0.000=0;
#SCROLLS:0.000=1.000;
#FAKES:;
#LABELS:0.000=Song Start;
#BGCHANGES:0.000=MV.avi=1.000=1=1=1=StretchRewind==CrossFade==,
2.250=MV.avi=1.000=0=0=1=====,
99999=-nosongbg-=1.000=0=0=0 // don't automatically add -songbackground-
;
#KEYSOUNDS:;
#ATTACKS:
;

//---------------dance-single - ----------------
#NOTEDATA:;
#CHARTNAME:;
#STEPSTYPE:dance-single;
#DESCRIPTION:;
#CHARTSTYLE:;
#DIFFICULTY:Challenge;
#METER:15;
#RADARVALUES:0.853327,1.088453,1.644920,0.592450,1.028075,857.000000,621.000000,236.000000,85.000000,0.000000,45.000000,0.000000,0.000000,0.000000,0.853327,1.088453,1.644920,0.592450,1.028075,857.000000,621.000000,236.000000,85.000000,0.000000,45.000000,0.000000,0.000000,0.000000;
#CREDIT:;
#NOTES:
// measure 0
0000
0000
0000
0000
,  // measure 1
0000
0000
0000
0000
,  // measure 2
0000
0000
0000
0000
,  // measure 3
0000
0000
0000
0000
,  // measure 4
0000
0000
0010
0100
0002
0000
0100
0000
0010
0000
0000
1000
0000
0010
0000
0010
,  // measure 5
0100
0000
1000
0010
0203
0000
0010
0000
0001
0000
0000
1000
0010
0001
1000
0010
,  // measure 6
1000
0000
0010
0000
2300
0000
0000
0001
0000
0100
0000
0000
0000
0000
0000
0000
,  // measure 7
0100
0000
0010
0100
3002
0000
0000
0010
0000
0100
0000
0000
0000
0000
0000
0000
,  // measure 8
0000
0000
1000
0100
1013
0000
0001
0110
0001
0000
1010
0000
0100
0010
0001
1000
,  // measure 9
0010
0000
0100
0010
1001
0000
0100
0011
1000
0000
0110
0000
1000
0010
0100
0001
,  // measure 10
0000
0001
0010
0000
1001
0000
0010
1100
0000
0000
1001
0000
0110
0001
1010
0000
,  // measure 11
0100
0001
1000
0000
0210
0000
0000
1001
0000
0000
1001
0000
1310
0000
1001
0000
,  // measure 12
0110
0001
0002
1103
0011
0000
0200
0300
1010
0001
0200
1301
0110
0000
0020
0030
,  // measure 13
1001
0010
0200
0311
1100
0000
0020
0030
1001
0010
0200
0311
1100
0000
0020
0030
,  // measure 14
1001
0010
0200
0311
1100
0000
0020
0030
1001
0010
0200
1301
0110
0000
2000
3000
,  // measure 15
0101
0000
0010
0000
0200
0000
1310
0000
0101
0000
0000
0000
2000
0000
3000
0000
0110
0000
1000
0000
0020
0000
0130
0000
0001
0000
1000
0010
0200
0000
0301
0000
,  // measure 16
1010
0001
0200
0311
1100
0000
0020
0030
0110
0001
0200
1301
0110
0000
0002
0003
,  // measure 17
0110
0001
2000
3101
1010
0000
0002
0003
1010
0001
0200
1301
0110
0000
2000
3000
,  // measure 18
0110
0001
0020
1130
0011
0000
2000
3000
1010
0001
0200
1310
0101
0000
0020
0030
,  // measure 19
0102
0000
0000
0000
0000
0000
0000
0000
0000
0000
0000
0000
0000
0000
0000
0000
0000
0000
1000
0100
0010
0000
0100
0000
0013
0000
0000
0000
1000
0000
0100
0000
0110
0000
0000
0000
0001
0000
0000
0000
1000
0000
0000
0000
0011
0000
0000
0000
1100
0000
0000
0000
0010
0000
0000
0000
1100
0000
0000
0000
0001
0000
0000
0000
,  // measure 20
0110
1000
0001
1100
0011
0100
1001
0100
1010
0001
1000
0101
1010
0100
1001
0100
,  // measure 21
0011
1000
0100
1010
0101
0010
1100
0010
1001
0010
1000
0110
1001
0100
1010
0001
,  // measure 22
1010
0100
1000
0011
1100
0001
1010
0100
1001
0010
0100
0010
1000
0010
0001
0100
,  // measure 23
0010
0000
1000
0000
0001
0000
0010
0000
0100
0000
0001
0100
1000
0000
0010
0000
0011
0000
1000
0000
0100
0000
1010
0000
0101
0000
0010
0000
0101
0000
1000
0000
,  // measure 24
0011
0100
1000
0101
1010
0001
1100
0001
0110
1000
0100
1001
0110
0001
1100
0001
,  // measure 25
1010
0100
0001
0110
1001
0010
0101
0010
1100
0010
0100
0011
1100
0001
0110
1000
,  // measure 26
0110
0001
0100
1010
0101
1000
0011
0100
2100
0010
0100
0011
0101
0010
0101
0010
,  // measure 27
0100
0000
3010
0000
1000
0000
0011
0000
0100
0000
0010
0001
1000
0000
0001
0000
1100
0000
0010
1001
0200
0000
0000
0000
0311
0000
0000
0000
0210
0000
1000
0000
,  // measure 28
1301
0000
0010
1100
0020
0000
0000
0000
1031
0000
0000
0000
0110
0000
1000
0000
0110
0000
0001
0000
0010
0000
1000
0000
0102
0000
1000
0000
0100
0000
1000
0000
,  // measure 29
0110
1000
0100
1003
0210
0000
0301
0000
1010
0001
0100
0010
1001
0000
0010
0101
,  // measure 30
1000
0010
0001
0100
0021
0000
1030
0000
1010
0001
0100
0010
1100
0010
0001
1100
,  // measure 31
0010
0001
0100
0010
1200
0001
0310
1000
0011
0100
0010
1000
0101
1000
0010
1100
,  // measure 32
0010
0001
1000
0001
2100
0010
3100
0001
1010
0100
0010
0100
1001
0100
0010
1100
,  // measure 33
0001
1000
0010
1000
0021
0000
0031
0100
1010
0100
0001
1000
0011
0100
0001
0110
,  // measure 34
1000
0001
0100
0010
1002
0100
0013
0100
1001
0010
1000
0001
0100
0010
1000
0001
,  // measure 35
2010
0000
0000
0000
0000
0000
0000
0000
3000
0000
0000
0000
0000
0000
0000
0000
0110
0000
2000
3110
0000
0000
0002
0003
1001
0000
0002
1103
0000
0100
2001
3000
,  // measure 36
1001
0000
0002
1013
0000
0000
2000
3000
0110
0000
0002
1103
0000
0100
2010
3000
0011
0000
0002
0113
0000
0000
2000
3000
1001
0000
0002
1103
0000
0100
0012
0003
,  // measure 37
1010
0000
0000
0000
0000
0000
0000
0000
0000
0000
0000
0000
0000
0000
0000
0000
0000
0000
0010
0000
0000
0000
0000
0000
0001
0000
0000
1000
0000
0000
0010
0000
0000
0100
0000
0000
0001
0000
0000
1000
0010
0000
0001
0000
0000
0100
0000
0000
1001
0000
0000
0000
0000
0000
0000
0000
0000
0000
0000
0000
0100
0000
0000
0000
0000
0000
0000
0000
0000
0000
0000
0000
0020
0000
0000
0000
0000
0000
0000
0000
0000
0000
0000
0000
1130
0000
0000
0000
0000
0000
0000
0000
0000
0000
0000
0000
0011
0000
0000
0000
0000
0000
0000
0000
0000
0000
0000
0000
0000
0000
0000
0000
0000
0000
0000
0000
0000
0000
0000
0000
2000
0000
0000
0000
0000
0000
0000
0000
0000
0000
0000
0000
3000
0000
0000
0000
0000
0000
0000
0000
0000
0000
0000
0000
1010
0000
0000
0000
0000
0000
0000
0000
0000
0000
0000
0000
0100
0000
0000
0000
0000
0000
0000
0000
0000
0000
0000
0000
0020
0000
0000
0000
0000
0000
0000
0000
0000
0000
0000
0000
0131
0000
0000
0000
0000
0000
0000
0000
0000
0000
0000
0000
,  // measure 38
1010
0000
0200
0300
1010
0100
0002
0113
1001
0000
0200
0300
1001
0110
1002
0113
,  // measure 39
1010
0000
0002
0003
1010
0100
2000
3011
1100
0000
0002
0003
1001
0100
0020
1031
,  // measure 40
0110
0000
0000
0000
0000
0000
0000
0000
2000
0000
0000
0000
3000
0000
0000
0000
0210
0000
0000
0000
0000
0000
0000
0000
0000
0000
0000
0000
0000
0000
0000
0000
0000
0000
0001
0010
1000
0000
0010
0000
1300
0000
0000
0000
0001
0000
0010
0000
1010
0000
0000
0000
0100
0000
0000
0000
0001
0000
0000
0000
1100
0000
0000
0000
,  // measure 41
0011
1000
0011
0100
1010
0001
0100
0011
1100
0010
0101
0010
1001
0100
0001
0110
,  // measure 42
1001
0010
0101
0010
1100
0001
0010
1001
0110
1000
0011
1000
0101
1000
0001
1010
,  // measure 43
0101
0010
1001
0100
1001
0010
0001
1100
0011
0100
1001
0010
0101
1000
0020
1000
,  // measure 44
0032
0000
1000
0000
0203
0000
0320
0000
1030
0000
0002
0000
0103
0000
2000
0000
3020
0000
0130
0010
0002
0000
1000
0000
1100
0000
0010
0000
0100
0000
1010
0000
,  // measure 45
0110
1000
0110
1000
1100
0013
0001
0110
1001
0100
0011
0100
1010
0001
0010
0101
,  // measure 46
1010
0100
0011
0100
1001
0010
0100
1010
0101
1000
0110
1000
0011
1000
0010
1100
,  // measure 47
0011
0100
1010
0001
1010
0100
0010
1001
0110
0001
1100
0010
0012
1000
0010
1100
,  // measure 48
0110
0000
1000
0000
0110
0000
1000
0000
0010
0000
1003
0000
0100
0000
0002
0000
2003
0000
3010
0100
0002
0000
1000
0000
0223
0000
0000
0000
0000
0000
0000
0000
,  // measure 49
0000
0000
0000
0000
0000
0030
0000
0000
,  // measure 50
0000
0000
0000
0300
0000
0000
0000
0000
;

//---------------dance-single - Copied from----------------
#NOTEDATA:;
#CHARTNAME:Copied from;
#STEPSTYPE:dance-single;
#DESCRIPTION:Copied from;
#CHARTSTYLE:;
#DIFFICULTY:Hard;
#METER:10;
#RADARVALUES:0.387333,0.483631,0.006970,0.439110,0.345015,389.000000,388.000000,1.000000,63.000000,0.000000,0.000000,0.000000,0.000000,0.000000,0.387333,0.483631,0.006970,0.439110,0.345015,389.000000,388.000000,1.000000,63.000000,0.000000,0.000000,0.000000,0.000000,0.000000;
#CREDIT:Copied from;
#NOTES:
0000
0000
0000
0000
,
0000
0000
0000
0000
,
0000
0000
0000
0000
,
0000
0000
0000
0000
,
0000
2000
0000
0000
,
0000
3200
0000
0000
,
0000
2300
0000
0000
,
0000
3002
0000
0000
,
0000
0000
1003
0010
1000
0010
0200
0000
,
0310
0000
0001
1000
0001
1000
0002
0000
,
0013
0000
0001
1000
0001
1000
0020
0000
,
0130
0000
0100
1000
0100
1000
0001
0001
,
1000
0000
0010
1000
0010
0000
0010
0000
0100
0000
0001
0000
0010
0000
0001
0000
,
0020
0000
0001
0000
0031
0000
1000
0000
0010
0000
1000
0000
0100
0000
1000
0001
,
2000
0000
0010
0000
3001
0000
0010
0000
0100
0000
0001
0100
0001
0000
0100
0001
,
0200
0000
0010
0000
0301
0000
0010
0000
1000
0100
1000
0001
1000
0010
1000
0001
,
2000
0000
0010
0000
3001
0000
0100
0000
0001
0000
0010
0000
0100
0000
0010
0100
,
0020
0000
0100
0000
0031
0000
0010
0000
1000
0000
0001
0000
1000
0100
1000
0000
,
0002
0000
1000
0000
0013
0000
0010
0000
1000
0000
0100
1000
0100
0000
1000
0000
,
0002
0000
0000
0000
0023
0000
0000
0000
0031
0000
1000
0001
1000
0000
0001
0000
,
0010
0000
0001
0010
0001
0000
0010
0000
0001
0000
1000
0100
1000
0000
0001
0000
,
1000
0000
0010
0100
0010
0000
0100
0000
0001
0000
1000
0100
1000
0000
0001
0000
,
1000
0000
0010
1000
0010
0000
1000
0000
0100
1000
0001
0100
0010
1000
0001
0010
,
0100
0010
0001
1000
0010
0100
0001
1000
0100
0000
1000
0100
1000
0000
0001
0000
,
1000
0000
0010
0100
0010
0000
1000
0000
0001
0000
0010
0001
0010
0000
0001
0000
,
1000
0000
0010
0100
0010
0000
1000
0000
0010
0000
1000
0001
1000
0000
0010
0000
,
0100
0000
0001
1000
0100
0000
0001
0000
0020
0000
0100
0000
0001
0000
0100
0000
,
0001
0000
0000
0000
0100
0000
0000
0000
0031
0000
0000
0000
1000
0000
0000
0000
0010
0000
0100
0001
1000
0000
0000
0000
0001
0000
0000
0000
1000
0000
0010
0000
,
0001
0000
0100
1000
0200
0000
0000
0000
0301
0000
0000
0000
1000
0000
0010
0000
0200
0000
0000
0000
0320
0000
0000
0000
2030
0000
0000
0000
0000
0000
0000
0000
,
0100
0000
3000
0000
0200
0000
0302
0000
0000
0003
2000
0000
0010
0000
0100
0000
,
0001
3000
0100
0000
0010
0000
0200
0000
0320
0000
2030
3002
0203
0000
0000
0000
,
0310
0000
0002
2003
3020
0230
0302
0023
0230
0302
0203
0320
2030
0000
0000
0000
,
3010
0000
0000
0000
0101
0000
2000
0000
3020
0230
0302
2003
3020
0000
0000
0000
,
0100
0000
0000
0030
2000
0000
3002
0000
0000
0000
0003
0200
0000
0000
0000
0000
,
0010
0000
0000
0000
1000
0000
0000
0300
0001
0000
1000
0100
0010
0100
0001
1000
,
0020
0000
0000
0030
0000
0000
0000
0000
0000
0002
0003
0002
0003
0020
0030
0020
,
0030
2000
3000
2000
3000
0200
0300
0200
0300
0020
0030
0020
0030
0002
0003
0002
,
0003
0000
0000
0000
1000
0000
0100
1000
0100
0000
1000
0000
0010
0000
1000
0001
,
1000
0000
0010
0000
0100
0000
0010
0100
0010
0000
0100
0000
0001
1000
0100
1000
,
0001
0000
0100
0000
0010
0000
0100
0001
0100
0000
0010
0000
1000
0000
0100
1000
,
0100
0000
1000
0000
0002
0000
0000
0000
1000
0000
1003
0000
0010
0000
1000
0010
,
1000
0000
0010
0000
0100
0010
0100
0010
0100
0000
0001
0000
1000
0000
0001
1000
,
0001
0000
1000
0000
0100
1000
0001
1000
0010
0000
0100
0000
0001
0000
0010
0001
,
0010
0000
0100
0000
0001
1000
0010
1000
0001
0000
1000
0000
0010
1000
0001
0010
,
0100
1000
0001
0100
0010
1000
0001
0010
0100
0010
0001
0010
0001
0000
0100
0010
,
0100
0000
1000
0000
0001
0000
1000
0001
1000
0000
0010
0000
0100
0000
0010
0100
,
0010
0000
1000
0000
0001
0000
1000
0100
1000
0000
0001
0000
1000
0000
0010
0100
,
0010
0000
1000
0000
0001
0000
1000
0001
1000
0000
0010
0000
0100
0001
1000
0100
,
0010
0001
0010
0100
1000
0001
0100
0010
1000
0001
0010
0100
0020
0000
0000
0000
,
0000
0000
0000
0000
0000
0000
0000
0000
0000
0030
0000
0000
0000
0000
0000
0000
;

//---------------dance-single - Copied from Copied f----------------
#NOTEDATA:;
#CHARTNAME:Copied from Copied f;
#STEPSTYPE:dance-single;
#DESCRIPTION:Copied from Copied f;
#CHARTSTYLE:;
#DIFFICULTY:Medium;
#METER:8;
#RADARVALUES:0.270834,0.330247,0.006970,1.003680,0.236980,272.000000,271.000000,1.000000,144.000000,0.000000,0.000000,0.000000,0.000000,0.000000,0.270834,0.330247,0.006970,1.003680,0.236980,272.000000,271.000000,1.000000,144.000000,0.000000,0.000000,0.000000,0.000000,0.000000;
#CREDIT:Copied from Copied f;
#NOTES:
0000
0000
0000
0000
,
0000
0000
0000
0000
,
0000
0000
0000
0000
,
0000
0000
0000
0000
,
0000
2000
0000
0000
,
0000
3020
0000
0000
,
0000
0230
0000
0000
,
0000
0302
0000
0000
,
0000
0000
1003
0010
0100
0001
1000
0000
,
1000
0000
0100
0010
0100
0001
1000
0001
,
0100
0000
1000
0001
0100
0010
0100
0000
,
1000
0000
0100
0010
0001
1000
0100
0010
,
0100
0010
0100
0000
0001
1000
0010
0001
,
0200
0000
0000
0000
0310
0000
0000
0000
1000
0000
0001
0000
0100
0000
0010
0100
,
0002
0000
0103
0000
1000
0010
0100
0001
,
2000
0000
3001
0100
0010
1000
0001
0100
,
0020
0000
0000
0000
0130
0000
0000
0000
1000
0000
0001
0000
0100
0000
0010
1000
,
0002
0000
0000
0000
0103
0000
0000
0000
1000
0000
0001
0000
0100
0010
0100
0000
,
0020
0000
0000
0000
0130
0000
0000
0000
1000
0000
0001
0000
0100
0000
0010
1000
,
0200
0000
0000
0000
0000
0000
1300
0001
2000
0000
3002
0000
0203
0000
0300
2000
,
0000
3002
0000
2003
0000
3000
0000
0000
2000
0000
3020
0000
0032
0000
0003
2000
,
0000
3020
0000
2030
0000
3000
0000
0000
0200
0000
0320
0000
0032
0000
0003
0200
,
0000
0320
0000
0230
0000
0300
0000
2000
3200
0000
0320
0000
0032
0000
2003
3020
,
0030
0020
0030
0020
2030
0000
3200
0000
0000
0000
0302
0000
2003
0000
3000
0200
,
0000
0302
0000
0203
0000
0300
0000
0000
0020
0000
2030
0000
3002
0000
0003
0020
,
0000
2030
0000
3020
0000
0030
0000
0000
0002
0000
2003
0000
3200
0000
0300
0002
,
0000
2003
0000
3002
0000
0023
0000
0000
0032
0000
0000
0000
0100
0000
0000
0000
,
1000
0000
0003
0000
0010
0000
0001
0000
1000
0010
0002
0000
0103
0000
0002
1000
,
0103
1000
0020
0000
0130
0000
0001
1000
0020
0000
2030
0000
3002
0000
0000
0000
,
0010
0000
0003
0000
0020
0000
0230
0000
0000
0300
0002
0000
1000
0000
0000
0000
,
0100
0003
0000
0000
1000
0000
0020
0000
2030
0000
3002
0203
0320
0000
0000
0030
,
0000
0000
0200
0000
0000
0000
0000
0000
0000
0000
1300
0010
0002
0000
0000
0000
,
1003
0000
0000
0000
0010
0000
0002
0000
0203
0000
0000
0300
2000
0000
0000
0000
,
0010
0000
0000
3000
0002
0000
0203
0000
0000
0000
0300
0020
0000
0000
0000
0000
,
1000
0000
0000
0000
0001
0000
0000
0030
0100
0000
0001
0000
1000
0000
0100
0001
,
2000
0000
0000
3000
0000
0000
0000
0000
0200
0000
1300
0000
0200
0000
0310
0000
,
0002
0000
0000
0000
0013
0000
0000
0000
0002
0000
0000
0000
0013
0000
0000
0000
2000
0000
0000
0000
3001
0000
0000
0000
0020
0000
2030
3002
0203
0300
2000
3002
,
0003
0000
0200
0000
0310
0000
0001
1000
,
0010
0000
0100
0001
2000
0000
0000
0000
3010
0000
0000
0000
0001
0000
1000
0000
,
0010
0100
0010
0000
0200
0000
0000
0000
0310
0000
0000
0000
0001
0000
1000
0000
,
0010
0000
0000
0000
0100
0000
0001
0000
0120
0000
0000
0000
0000
0000
0000
0000
0000
0000
0000
0000
0031
0000
1000
0100
0002
0000
0000
0000
2003
0000
0000
0000
,
3020
0000
0030
0002
0000
2003
0000
3002
0000
0003
0000
0000
0002
0000
0203
0000
,
2300
0000
3000
0002
0000
0203
0000
0302
0000
0003
0000
0000
0020
0000
0230
0000
,
2300
0000
3000
0020
0000
0230
0000
0320
0000
0030
0000
0002
0023
0000
0230
0000
,
2300
0000
3002
0203
0300
0200
0300
0200
0302
0000
0023
0000
0000
0000
2030
0000
,
3002
0000
0003
0020
0000
2030
0000
3020
0000
0030
0000
0000
0200
0000
0302
0000
,
2003
0000
3000
0200
0000
0302
0000
0203
0000
0300
0000
0000
2000
0000
3002
0000
,
0023
0000
0030
2000
0000
3002
0000
2003
0000
3200
0000
0000
2300
0000
0000
0000
,
0010
0000
0001
3000
0100
2000
0000
0000
,
0000
0000
0000
0000
0000
0000
0000
3000
;

//---------------dance-single - Copied from Copied f----------------
#NOTEDATA:;
#CHARTNAME:Copied from Copied f;
#STEPSTYPE:dance-single;
#DESCRIPTION:Copied from Copied f;
#CHARTSTYLE:;
#DIFFICULTY:Easy;
#METER:5;
#RADARVALUES:0.240963,0.279497,0.083640,0.006970,0.000000,242.000000,230.000000,12.000000,1.000000,0.000000,0.000000,0.000000,0.000000,0.000000,0.240963,0.279497,0.083640,0.006970,0.000000,242.000000,230.000000,12.000000,1.000000,0.000000,0.000000,0.000000,0.000000,0.000000;
#CREDIT:Copied from Copied f;
#NOTES:
0000
0000
0000
0000
,
0000
0000
0000
0000
,
0000
0000
0000
0000
,
0000
0000
0000
0000
,
0000
1000
0001
0010
,
0100
0000
1000
0001
1000
0000
0100
0000
,
0010
0000
0001
1000
0001
0000
0100
0000
,
0010
0000
0001
1000
0001
0000
0100
0000
,
0010
1000
1000
0001
,
0001
0100
0100
0010
,
0010
1000
1000
0001
,
0001
0100
0100
0110
,
1000
0000
1000
0000
0001
0001
1000
1000
,
0010
0000
0010
0000
0100
0100
0010
0010
,
0001
0000
0001
0000
1000
0001
1000
0001
,
1000
0100
0010
0010
,
1000
0000
1000
0000
0001
0001
0100
0100
,
0010
0000
0010
0000
1000
1000
0001
0001
,
1000
0000
1000
0000
0010
0010
0100
0000
,
0100
0000
1001
0001
,
1000
0010
1000
0000
0100
0001
0100
0000
,
0010
0100
0010
0000
0001
1000
0001
0000
,
1000
0001
1000
0001
1000
1000
0010
0010
,
0100
0100
0001
0001
1000
0001
1000
0000
,
1000
0010
1000
0000
0100
0001
0100
0000
,
1000
0001
1000
0000
0010
0100
0010
0000
,
1000
0001
1000
0000
0001
0000
0100
0000
,
0010
0010
1000
1000
1000
0000
1001
0000
,
0001
0011
0100
1000
,
0001
0010
0100
0100
,
1000
1000
0001
0001
,
0100
0000
0100
0000
0010
0010
0010
0000
,
1000
0001
0100
1000
,
0001
1000
0010
0001
,
0100
0010
1000
1000
,
1001
0000
1001
1001
,
0110
0110
0011
0011
,
1001
0000
1000
0000
1000
0000
0100
0100
,
0010
0010
0001
0000
0001
0000
1000
1000
,
0100
0100
0010
0000
0010
0000
0001
0001
,
1000
1000
1000
0000
0000
0000
1000
0000
,
0001
0000
1000
0001
1000
0000
0100
0000
,
0010
0000
0100
0010
0100
0000
0001
0000
,
1000
0000
1000
0100
1000
0000
0010
0001
,
0010
0100
1000
0100
0010
0000
0001
1000
,
0001
0000
0100
0010
0100
0000
0001
1000
,
0001
0000
1000
0001
1000
0000
0010
0001
,
1000
0000
0001
1000
0001
0000
0010
1000
,
0010
0000
0001
1000
0001
0001
2000
0000
,
0000
0000
0000
0000
,
0000
3000
0000
0000
0000
0000
0000
0000
;

//---------------dance-single - Copied from Copied f----------------
#NOTEDATA:;
#CHARTNAME:Copied from Copied f;
#STEPSTYPE:dance-single;
#DESCRIPTION:Copied from Copied f;
#CHARTSTYLE:;
#DIFFICULTY:Beginner;
#METER:2;
#RADARVALUES:0.094593,0.120755,0.020910,0.034850,0.000000,95.000000,92.000000,3.000000,5.000000,0.000000,0.000000,0.000000,0.000000,0.000000,0.094593,0.120755,0.020910,0.034850,0.000000,95.000000,92.000000,3.000000,5.000000,0.000000,0.000000,0.000000,0.000000,0.000000;
#CREDIT:Copied from Copied f;
#NOTES:
0000
0000
0000
0000
,
0000
0000
0000
0000
,
0000
0000
0000
0000
,
0000
0000
0000
0000
,
0000
1000
0000
1000
,
0000
0100
0000
0100
,
0000
0001
0000
0000
,
0000
0001
0000
0000
,
0000
1000
0000
0010
,
0000
0100
0000
0010
,
0000
0001
0000
0001
,
0000
1000
0000
1001
,
0000
0000
0001
0000
,
1000
0000
0100
0000
,
0010
0000
0001
0000
,
1000
0000
1000
0000
,
0001
0000
0010
0000
,
0100
0000
0010
0000
,
0001
0000
1000
0000
,
1001
0000
0001
0000
,
0001
0000
1000
0000
,
1000
0000
0001
0000
,
0001
0000
2000
0000
,
3000
0000
0001
0000
,
0001
0000
1000
0000
,
1000
0000
0010
0000
,
0010
0000
0020
0000
,
0030
0000
0100
0000
,
0100
0000
0001
0000
,
0001
0000
1000
0000
,
1000
0000
0001
0000
,
0001
0000
1000
0000
,
1000
0000
0100
0000
,
0100
0000
0020
0000
,
0000
0000
0000
0000
,
0030
0000
1000
0000
,
1000
0000
0001
0000
,
0001
1000
1000
0001
,
0000
0100
0100
0001
,
0000
1000
1000
0001
,
0000
0100
0000
0001
,
0001
1000
0000
0010
,
0010
0100
0000
1000
,
0001
1000
0000
0100
,
0000
0100
0000
0001
,
0001
0100
0000
1000
,
0001
1000
0000
0001
,
1000
0010
0000
1000
,
0000
1000
0000
2002
,
0000
0000
3003
0000
;
