#TITLE:Kimi to no kioku;
#SUBTITLE:;
#ARTIST:Kiete Yuku;
#TITLETRANSLIT:;
#SUBTITLETRANSLIT:;
#ARTISTTRANSLIT:;
#GENRE:;
#CREDIT:;
#BANNER:AV.avi;
#BACKGROUND:BG.png;
#LYRICSPATH:;
#CDTITLE:;
#MUSIC:gGcQ9CvPQMcJ.128.mp3;
#OFFSET:-0.485000;
#SAMPLESTART:87.079994;
#SAMPLELENGTH:15.000000;
#SELECTABLE:YES;
#BPMS:0.000000=133.009995
;
#STOPS:
;
#BGCHANGES:0.000=MV.avi=1.200=1=0=1===CrossFade==,
5.000=MV.avi=1.000=0=0=1=====,
99999=-nosongbg-=1.000=0=0=0 // don't automatically add -songbackground-
;
#KEYSOUNDS:;
#ATTACKS:;

//---------------dance-single - ----------------
#NOTES:
     dance-single:
     :
     Challenge:
     16:
     0.728366,0.858285,0.590360,1.127050,0.824203,665.000000,588.000000,77.000000,147.000000,0.000000,34.000000,0.728366,0.858285,0.590360,1.127050,0.824203,665.000000,588.000000,77.000000,147.000000,0.000000,34.000000:
// measure 0
0000
0000
0000
0000
,  // measure 1
0000
0000
0000
0000
,  // measure 2
0000
0000
0000
0000
,  // measure 3
0000
0000
0000
0000
,  // measure 4
0000
0000
0000
0000
,  // measure 5
0000
0000
0000
0000
,  // measure 6
0000
0000
0000
0000
,  // measure 7
0000
0000
0000
0000
,  // measure 8
1001
0000
0100
0000
0010
0000
1000
0100
0010
0001
0000
0010
0100
0000
0010
0000
,  // measure 9
1000
0000
0100
0000
0010
0000
1000
0100
0010
0001
0000
0010
0100
0010
0001
0010
,  // measure 10
0100
1000
0001
1000
0001
0000
0010
0100
0000
0010
0000
1000
0100
0000
0010
0000
,  // measure 11
1000
0000
0010
0000
0001
0000
0010
0100
0000
0001
0000
1000
0010
1000
0100
0010
,  // measure 12
2001
0000
3010
0000
2000
0000
3010
0100
2000
0001
3000
0010
2000
0000
3010
0000
,  // measure 13
0120
0000
0000
0000
1032
0000
0000
0000
0000
0000
1000
0100
0023
0000
0000
0000
,  // measure 14
2030
0000
0001
0000
0010
0000
0100
0010
0001
0010
0000
0100
0010
0000
0001
0010
,  // measure 15
0001
0000
0010
0000
0001
0000
0001
0010
0100
0000
0010
0000
3012
0000
0003
0000
,  // measure 16
1001
0010
0100
0010
0100
0000
0010
0100
0010
0001
1000
0001
1000
0000
0010
0000
,  // measure 17
0100
0001
1000
0100
0010
0000
0001
0010
0100
0001
1000
0100
0010
0000
0001
0001
,  // measure 18
1000
0100
0001
0100
1000
0000
0100
0001
1000
0100
0001
0010
0100
0000
1000
0000
,  // measure 19
0001
0010
1000
0001
0100
0000
1000
0001
0100
0010
1001
0100
1001
0000
0100
0100
,  // measure 20
1000
0001
0100
0010
1000
0000
0001
0010
1000
0001
0100
0010
1000
0000
1000
0000
,  // measure 21
0001
0010
0100
0001
1000
0000
0001
0100
0010
1000
0001
0100
0010
0000
1000
1000
,  // measure 22
0100
0010
0001
1000
0001
0000
0100
0010
1000
0001
0100
0010
1000
0000
1000
0000
,  // measure 23
0100
0001
1000
0010
0100
1000
0001
0010
0100
0001
1000
0100
1000
0000
0100
0100
,  // measure 24
2000
0000
3010
0100
2010
0000
3001
0010
2100
0000
3001
0100
2010
0000
3100
0000
,  // measure 25
1002
0000
1003
0100
0012
0000
0103
0010
1002
0010
0003
0100
0012
0100
1003
0100
,  // measure 26
0020
0000
0130
1000
0021
0000
1030
0001
0120
1000
0030
0001
0120
1000
0031
0000
,  // measure 27
0200
0000
0301
0000
0210
0000
0301
1000
0201
0010
1301
0010
0201
1000
0310
0001
,  // measure 28
1100
0000
1001
0000
0101
0000
1000
0010
0000
0101
0000
1000
0010
0000
0001
0000
,  // measure 29
1010
0000
0101
0000
1001
0000
0010
0100
0000
1001
0000
1000
0010
0001
0100
1000
,  // measure 30
0101
0000
0010
0000
1001
0000
0010
0100
0000
1001
0000
0010
0100
0000
1010
0000
,  // measure 31
0001
0000
1010
0000
0101
0000
0001
1000
0000
0011
0000
0100
0001
1000
0100
0001
,  // measure 32
2000
0000
0000
0001
3200
0000
0321
0000
1000
0000
0000
0000
0032
0000
0000
0000
,  // measure 33
1023
0000
0000
1000
0230
0000
0001
0000
1320
0000
0000
1000
0032
0000
0000
0000
,  // measure 34
1023
0000
0000
1000
0000
0000
1000
0000
0001
0000
0000
0000
0000
0000
0000
0000
,  // measure 35
1000
0000
0000
0100
0000
0000
0001
0000
1000
0000
0000
0000
0230
0000
2300
0000
,  // measure 36
3201
0000
0000
0001
0000
0000
0321
0000
1000
0000
0000
0000
0032
0000
0000
0000
,  // measure 37
1023
0000
0000
1000
0230
0000
0001
0000
0321
0000
0000
0100
2030
0000
0001
0000
,  // measure 38
3201
0000
0000
0010
0000
0000
1000
0000
0010
0000
0000
0000
0000
0000
0000
0000
,  // measure 39
0010
0000
0000
0001
0000
0000
1000
0000
0001
0000
0010
0000
0001
0010
1000
0001
,  // measure 40
0320
0000
1000
0001
0230
0000
0320
1000
0001
1000
0100
1000
0032
0000
2003
0000
,  // measure 41
0001
0100
0010
0001
3020
0000
1000
0001
0230
0000
1001
0000
0321
0000
1000
1000
,  // measure 42
0032
0100
1000
0100
0023
0000
1000
0001
0230
0001
0010
0001
2300
0000
0010
0000
,  // measure 43
3200
0010
0001
1000
0010
0000
0010
1000
0001
1000
0011
0000
0321
0000
0032
1000
,  // measure 44
0023
0100
1000
0001
1000
0000
0230
1000
0001
0010
1000
0010
0002
0000
0323
0000
,  // measure 45
0032
1000
0100
1000
0010
0000
0203
0010
1000
0001
1010
0000
1320
0000
0032
0100
,  // measure 46
1000
0100
0010
1000
0100
0000
1000
1000
0100
0010
1000
0010
0100
0000
1000
0000
,  // measure 47
0010
0000
1010
0000
1013
0000
0100
0010
0000
1000
0000
0100
0010
1000
0001
0100
,  // measure 48
0020
0000
1032
0000
0023
1000
0230
0000
0320
1000
0030
0100
0021
0000
0032
0000
,  // measure 49
0023
0000
0230
1000
0320
0000
0031
0000
2000
0001
3200
0000
0320
1000
0231
1000
,  // measure 50
0320
0000
0032
1000
0023
0000
0230
0000
0320
1000
0030
0000
2001
0000
3200
0000
,  // measure 51
0320
0000
0032
0100
0023
1000
0030
0000
0200
1000
0320
0000
0230
1000
0321
1000
,  // measure 52
0230
0000
0001
0000
2300
0010
0000
0000
3200
0001
0000
0000
0321
0000
1000
0000
,  // measure 53
0032
0000
0100
0000
0023
1000
0000
0000
0230
0001
0000
0000
0320
0001
1000
0001
,  // measure 54
2030
0000
0010
0000
3200
0001
0000
0000
0320
1000
0000
0000
1032
0000
0100
0000
,  // measure 55
0023
0000
1000
0000
0000
0001
0000
0000
2130
0000
3002
0100
1003
0100
0010
0100
,  // measure 56
0020
0000
0032
0100
0023
1000
0230
0000
0320
1000
0030
0100
0021
0000
0032
0000
,  // measure 57
0023
0000
0230
1000
0320
0000
0031
0000
2000
0001
3200
0000
0320
0001
1230
0001
,  // measure 58
0320
0000
0032
1000
0023
0000
0230
0000
0320
1000
0030
0000
0021
0000
0230
0000
,  // measure 59
0320
0000
1032
0000
0023
1000
0030
0000
0200
1000
0320
0000
0230
0001
1320
0001
,  // measure 60
0230
0000
0001
0000
2300
0010
0000
0000
3200
0001
0000
1000
0321
0000
1000
0000
,  // measure 61
0032
0000
0100
0000
0023
1000
0000
0000
0230
0001
0000
1000
0320
0001
0100
0001
,  // measure 62
2030
0000
0010
0000
0100
0001
0000
0000
0010
0001
0000
0010
0000
0000
0010
0000
,  // measure 63
0101
0000
0101
0000
0000
0000
3101
0000
0000
0000
0110
0000
0110
0000
0000
0000
1001
0000
0000
0000
0110
0000
0110
0000
1001
0000
0000
0000
0010
0001
1000
0100
;

//---------------dance-single - Copied from----------------
#NOTES:
     dance-single:
     Copied from:
     Hard:
     11:
     0.468783,0.564292,0.253011,0.667030,0.287513,428.000000,395.000000,33.000000,87.000000,0.000000,1.000000,0.468783,0.564292,0.253011,0.667030,0.287513,428.000000,395.000000,33.000000,87.000000,0.000000,1.000000:
0000
0000
0000
0000
,
0000
0000
0000
0000
,
0000
0000
0000
0000
,
0000
0000
0000
0000
,
0000
0000
0000
0000
,
0000
0000
0000
0000
,
0000
0000
0000
0000
,
0000
0000
0000
0000
,
2000
3200
0320
0032
0023
0030
0110
0001
,
1000
0000
0100
0000
0010
0000
0001
1000
0001
1000
0000
0010
0100
0000
0000
0000
,
2000
3200
0320
0032
0023
0030
2000
0000
,
3020
0000
0130
0000
0101
0000
1000
0100
0010
0001
0000
0010
0100
0000
0010
0000
,
1002
0003
1002
0003
1002
0003
1002
0003
,
0120
0230
0000
0320
,
1031
0000
0100
0000
0110
0000
0100
0010
0100
0010
0000
1000
0001
0000
0010
0000
,
0100
0000
0010
0000
0100
0000
1000
0001
1000
0000
1000
0000
1100
0000
0000
0000
,
1001
0000
0001
1000
0001
0000
1000
0001
1000
0000
0001
1000
0001
0000
1000
0000
,
0000
0000
0100
0010
0100
0000
0010
0100
0010
0000
0100
0010
0100
0000
0001
0000
,
1000
0100
0010
0001
0010
0000
1000
0010
,
1000
0100
0010
0001
0010
0110
0110
0000
,
1001
0000
1000
0001
1000
0000
0001
1000
0001
0000
1000
0001
1000
0000
0001
0000
,
0000
0000
0100
0010
0100
0000
0010
0100
0010
0000
0100
0010
0100
0000
0010
0000
,
0100
1000
0100
0010
0001
0010
0001
0010
,
0100
0000
1000
0000
0100
0000
1000
0001
1000
0001
1000
0001
1000
0000
0100
0000
,
0010
0000
0001
1000
0001
0000
1000
0001
1000
0000
0001
1000
0001
0000
1000
0000
,
0000
0000
0100
0010
0100
0000
0010
0100
0010
0000
0100
0000
0100
0000
0010
0000
,
1000
0001
0100
0010
0001
0100
0010
1000
,
0001
0100
0010
1000
0100
1010
1010
0001
,
0120
0030
0120
0030
0120
0030
0120
0030
,
1000
0100
0010
0001
0010
0100
0010
0100
,
1002
0003
1002
0003
1002
0003
1002
0103
,
0010
0000
1000
0000
0010
0000
0100
0000
0010
0100
1000
0100
0010
0001
0010
0100
,
0020
0000
0230
0320
0000
0000
2030
0000
,
3200
0320
0032
0023
,
0230
0000
0000
1000
0000
0000
1000
0000
0001
0000
0000
0000
0000
0000
0000
0000
,
1000
0000
0000
1000
0000
0000
1000
0000
0010
0000
0000
0000
0302
0000
0023
0000
,
0230
0000
0000
0302
0000
0000
2003
0000
,
3020
0032
0023
0230
,
0320
0000
0000
1000
0000
0000
1000
0000
0100
0000
0000
0000
0000
0000
0000
0000
,
0001
0000
0000
0001
0000
0000
0001
0000
1000
0000
0000
0000
0000
0000
0000
0000
,
2030
0000
3200
0320
0000
0000
0032
0023
,
0000
0000
2030
0000
3020
0031
0201
0000
,
0320
0032
0023
0230
,
0302
0000
0000
0000
0000
0013
1020
0230
,
0320
0000
0000
0032
0000
0000
0023
0230
,
0320
0000
0000
0032
0000
0103
0120
0230
,
0000
0000
0000
0000
,
0000
0000
2300
0000
3200
0000
0320
0030
,
1001
0000
0100
0000
0010
0000
1000
0010
0100
0010
0000
0001
1000
0000
0010
0000
,
0100
0000
0010
0000
1000
0000
0100
0010
0100
0010
0000
1000
0001
0000
0010
0000
,
0100
0000
1000
0000
0010
0000
1000
0001
1000
0001
0000
0010
0100
0000
0001
0000
,
0100
0000
0010
0000
1000
0000
0001
1000
0001
1000
0000
1000
0001
0000
0100
0000
,
0020
0000
0000
0000
2030
0000
0000
0000
3200
0000
0000
0300
0021
0000
0000
0000
,
0032
0023
2030
3200
,
0320
0000
0000
0000
0032
0000
0000
0000
0023
0000
0000
0030
1200
0000
0000
0000
,
0320
0000
0000
0000
0000
0000
0000
0000
2030
0000
0000
0000
3020
0000
0000
0030
,
1001
0000
0001
0000
0010
0000
0100
0010
0100
0010
0000
0010
0100
0000
1000
0000
,
0001
0000
0100
0000
0010
0000
0001
1000
0001
1000
0000
1000
0100
0000
0010
0000
,
0001
0000
0010
0000
0001
0000
0001
1000
0001
1000
0000
1000
0001
0000
0100
0000
,
0010
0000
0100
0000
0001
0000
1000
0001
1000
0001
0000
0001
1000
0000
0010
0000
,
0100
0000
0010
0000
1000
0000
0010
0100
0010
0100
0000
0100
0010
0000
0001
0000
,
1000
0000
0100
0000
0010
0000
0001
0100
0001
0100
0000
0100
1000
0000
1000
0000
,
0100
0000
0010
0000
0001
0000
0010
0100
0010
0100
0000
0100
0010
0000
1000
0000
,
0001
0010
0000
0100
0000
0010
0100
0000
0100
0000
0001
1000
0001
0000
1001
0000
,
0110
0000
0000
0000
;

//---------------dance-single - ----------------
#NOTES:
     dance-single:
     :
     Beginner:
     2:
     0.121577,0.147207,0.030668,0.061336,0.000000,111.000000,107.000000,4.000000,8.000000,0.000000,0.000000,0.121577,0.147207,0.030668,0.061336,0.000000,111.000000,107.000000,4.000000,8.000000,0.000000,0.000000:
0000
0000
0000
0000
,
0000
0000
0000
0000
,
0000
0000
0000
0000
,
0000
0000
0000
0000
,
0000
0000
0000
0000
,
0000
0000
0000
0000
,
0000
0000
0000
0000
,
0000
0000
0000
0000
,
1000
0000
0100
0000
,
0010
0000
0001
0000
,
1000
0000
0010
0000
,
0100
0000
0001
0000
,
0100
0000
0010
0000
,
1001
0000
0000
0000
,
0110
0000
0010
0000
,
0001
0000
0100
0000
,
1000
0000
1000
0000
,
0100
0000
0010
0000
,
0001
0000
0010
0000
,
0100
0000
0010
0000
,
1000
0000
0100
0000
,
0010
0000
0001
0000
,
0100
0000
0010
0000
,
1000
0000
0010
0000
,
0001
0000
0010
0000
,
0100
0000
0010
0000
,
0001
0000
1000
0000
,
0010
0000
0100
0000
,
0010
0000
0001
0000
,
0100
0000
0010
0000
,
0100
0000
0010
0000
,
1000
0000
0010
0000
,
0002
0000
0000
0000
,
0203
0000
0000
0000
,
0320
0000
0000
0000
,
2030
0000
0000
0000
,
3002
0000
0000
0000
,
0203
0000
0000
0000
,
0320
0000
0000
0000
,
2030
0000
0000
0000
,
3100
0000
0010
0000
,
0001
0000
0100
0000
,
0010
0000
1000
0000
,
0001
0000
0100
0000
,
0010
0000
1000
0000
,
0001
0000
0100
0000
,
0010
0000
0100
0000
,
1001
0000
0000
0000
,
0010
0010
0010
0000
,
0100
0000
1000
0000
,
0001
0001
0001
0000
,
0100
0000
0010
0000
,
1000
0000
0001
0000
,
0100
0000
0010
0000
,
0001
0000
1000
0000
,
1000
0000
0001
0000
,
0100
0100
0100
0000
,
0010
0000
0001
0000
,
1000
1000
1000
0000
,
0010
0000
0100
0000
,
0001
0000
1000
0000
,
0100
0000
0001
0000
,
0100
0000
0010
0000
,
1000
0000
0010
0000
,
1001
0000
0000
0000
;

//---------------dance-single - ----------------
#NOTES:
     dance-single:
     :
     Easy:
     4:
     0.162102,0.220810,0.053669,0.130339,0.000000,148.000000,141.000000,7.000000,17.000000,0.000000,0.000000,0.162102,0.220810,0.053669,0.130339,0.000000,148.000000,141.000000,7.000000,17.000000,0.000000,0.000000:
0000
0000
0000
0000
,
0000
0000
0000
0000
,
0000
0000
0000
0000
,
0000
0000
0000
0000
,
0000
0000
0000
0000
,
0000
0000
0000
0000
,
0000
0000
0000
0000
,
0000
0000
0000
0000
,
1000
0001
1000
0000
,
0000
0000
0010
0000
,
0100
0010
0100
0000
,
0000
0000
0001
0000
,
1000
0000
0010
0000
,
1001
0000
0000
0000
,
0210
0000
0010
0000
,
0001
0000
0310
0000
,
1000
0100
0010
0000
,
0001
0010
0100
0000
,
1000
0001
1000
0000
,
0010
0100
0010
0000
,
1000
0010
1000
0000
,
0001
0100
0001
0000
,
0100
0010
0100
0000
,
2000
0000
0001
0000
,
3010
0100
0010
0000
,
0001
0010
0100
0000
,
1000
0001
0100
0000
,
0010
1000
0001
0000
,
0010
0000
0100
0000
,
0010
0000
0100
0000
,
0010
0100
0010
0000
,
0010
0100
0010
0000
,
2002
0000
0000
0000
,
3003
0000
0000
0000
,
2200
0000
0000
0000
,
3300
0000
0000
0000
,
0022
0000
0000
0000
,
0033
0000
0000
0000
,
0220
0000
0000
0000
,
0330
0000
0000
0000
,
1000
0100
0010
0000
,
0001
0010
0100
0000
,
1000
0001
0100
0010
,
0100
0000
0010
1000
,
0001
0000
0010
0100
,
0001
0000
1000
0010
,
0100
0000
0001
0010
,
0100
0010
0100
0010
,
1000
0001
0100
0010
,
1000
0001
0100
0010
,
0100
0100
0010
1000
,
0001
0100
0010
0100
,
0002
0000
0103
0000
,
2000
0000
3010
0000
,
0020
0000
0130
0000
,
0002
0000
0103
0000
,
1000
0010
0100
1000
,
0010
0001
0010
0100
,
0010
1000
0001
0100
,
0010
1000
0001
0010
,
0200
0000
0310
0000
,
0002
0000
0103
0000
,
2000
0000
3010
0000
,
0100
0100
0100
0100
,
1001
0000
0000
0000
;

//---------------dance-single - ----------------
#NOTES:
     dance-single:
     :
     Medium:
     7:
     0.271631,0.368016,0.092004,0.023001,0.000000,248.000000,236.000000,12.000000,3.000000,0.000000,0.000000,0.271631,0.368016,0.092004,0.023001,0.000000,248.000000,236.000000,12.000000,3.000000,0.000000,0.000000:
0000
0000
0000
0000
,
0000
0000
0000
0000
,
0000
0000
0000
0000
,
0000
0000
0000
0000
,
0000
0000
0000
0000
,
0000
0000
0000
0000
,
0000
0000
0000
0000
,
0000
0000
0000
0000
,
1000
0010
1000
0000
,
0010
0100
0010
0000
,
0001
0100
0001
0000
,
1000
0010
1000
0000
,
1100
0010
1000
0001
,
0110
0000
0000
0000
,
0210
0001
0010
1000
,
0010
0001
0310
0000
,
1000
0010
0100
0010
,
0001
0100
0010
1000
,
0010
0100
0010
1000
,
0001
0100
0010
0100
0001
0000
0010
0000
,
1000
0100
0010
0001
,
0010
0100
0010
1000
,
0001
0000
0100
0000
1000
0010
1000
0001
,
1000
0010
0100
0001
,
1000
0100
0010
0001
,
0010
0100
1000
0100
,
0010
0010
0001
0010
,
0100
0100
1000
0100
,
0010
0100
0001
0010
,
1000
1000
0100
0010
,
0001
0001
0010
0100
,
1000
0010
0100
0001
,
0010
0001
0110
0000
,
1000
0010
0101
0000
,
0001
0010
1100
0000
,
0010
0100
1001
0000
,
0010
0001
1100
0000
,
0100
1000
0011
0000
,
0010
0100
0110
0000
,
0001
0100
1010
0000
,
0001
0100
1000
0010
,
0100
0000
0001
0000
0100
0010
0010
0000
,
1000
0001
0100
0010
,
1000
0000
0000
0000
0000
0001
0001
0000
,
0100
0010
1000
0001
,
0100
0000
0000
0000
0000
1000
1000
0000
,
0100
0010
0001
0010
,
0100
1000
0100
0010
,
1000
0010
1000
0001
1000
0000
0010
1000
,
0001
1000
0010
0000
0010
0100
0001
0100
,
0010
0100
0001
0100
0010
0000
1000
0100
,
0010
0001
0010
0000
0100
0010
0100
0010
,
2000
0010
0001
0010
,
0100
0010
0100
0010
,
0001
0010
0100
0010
,
3100
0000
0010
0100
,
1000
0001
1000
0010
1000
0000
0001
1000
,
0010
1000
0001
0000
0010
1000
0001
1000
,
0010
1000
0001
1000
0010
0000
0010
1000
,
0001
1000
0010
0000
0001
1000
0010
1000
,
0002
0100
1000
0100
,
0010
0100
1000
0100
,
0013
0100
0010
1000
,
0001
0000
0010
0000
0100
0000
0010
0100
,
1001
0000
0000
0000
;
