#TITLE:KeePer;
#SUBTITLE:;
#ARTIST:The Boyz (Prod. PARK KYUNG);
#TITLETRANSLIT:;
#SUBTITLETRANSLIT:;
#ARTISTTRANSLIT:;
#GENRE:;
#CREDIT:;
#BANNER:AV.avi;
#BACKGROUND:BG.png;
#LYRICSPATH:;
#CDTITLE:;
#MUSIC:Keeper - The Boyz.ogg;
#OFFSET:-0.455000;
#SAMPLESTART:72.300003;
#SAMPLELENGTH:15.000000;
#SELECTABLE:YES;
#BPMS:0.000000=102.019997
,175.000000=51.009998
,183.000000=102.019997
;
#STOPS:
;
#BGCHANGES:0.000=MV.avi=1.200=1=1=1=StretchRewind==CrossFade==,
2.500=MV.avi=1.000=0=0=1=====,
99999=-nosongbg-=1.000=0=0=0 // don't automatically add -songbackground-
;
#KEYSOUNDS:;
#ATTACKS:;

//---------------dance-single - ----------------
#NOTES:
     dance-single:
     :
     Challenge:
     14:
     0.837859,1.145978,1.563505,0.650837,1.024881,784.000000,575.000000,209.000000,87.000000,0.000000,23.000000,0.837859,1.145978,1.563505,0.650837,1.024881,784.000000,575.000000,209.000000,87.000000,0.000000,23.000000:
0002
0000
0000
0000
0000
0000
0003
0000
0000
0020
0000
0000
0000
0000
0000
0030
0000
0000
0000
0200
0000
0000
0000
0000
0300
0000
0000
0000
0000
0020
0000
0000
,
0000
0000
0030
0000
0000
0000
0000
0100
1000
0002
0000
0000
0000
0000
0000
0000
0000
0000
0000
0000
0000
0000
0000
0000
0000
0000
0000
0000
0000
2000
0000
0000
,
0000
0000
0000
0000
0000
3010
0000
0000
0000
0000
0000
0000
0000
0000
0000
0000
0100
0000
0000
0000
0010
0000
0003
0000
2010
0000
0000
0000
0000
0000
3001
0000
,
0100
0000
0000
0000
0100
0000
0011
0000
0000
0000
0011
0000
0000
0000
0000
0000
1000
0000
0000
0000
0100
0000
0010
0001
2100
0000
0000
0000
0000
0000
3001
0000
,
0100
0000
0000
0000
0000
0000
0100
0000
0000
0011
0000
0000
0000
0000
0000
0011
0000
0000
0000
0000
0000
0000
0000
0000
1000
0000
0000
0000
0000
0000
0100
0000
1000
0000
0000
0000
0210
0000
0000
0000
0000
0000
0301
0000
0000
1000
0000
0000
,
0010
0000
1000
0000
0001
0000
0110
0000
0000
0000
0110
0000
1000
0000
0010
0000
0000
0000
0001
0000
1000
0010
0100
0000
2001
0000
0000
0000
0000
0000
0000
0000
,
3120
0000
0000
0000
1032
0000
0000
0000
1203
0000
0001
0000
2310
0000
0000
3010
,
0100
0000
0010
1001
0000
1001
0000
0002
0100
0003
0020
0000
1032
0000
0000
0010
,
0103
0000
0100
1001
0000
1001
0000
0020
0100
0030
0200
0302
1010
0000
0013
0000
,
1001
0100
0010
0100
1001
0010
0100
0010
1001
0000
0010
0000
2200
0000
3300
0000
,
0020
0000
0030
0000
2000
0010
3100
0010
0002
0100
2003
0000
0101
0000
0000
0100
,
0011
0000
0001
0010
0000
3010
0000
0000
2001
0000
3020
0000
1230
0000
0000
0301
,
1010
0000
0000
0000
1000
0000
0200
0000
0300
0000
0002
0000
0000
0000
1003
0010
0101
0000
1000
0000
0110
0000
0000
0000
2000
0000
0000
0000
3200
0000
0000
0000
,
1301
0000
0000
0020
0000
0000
0000
0000
0000
2030
0000
0000
0001
0000
0000
3100
0000
0000
0001
0000
0000
1000
0000
0000
0101
0000
0000
0010
0000
0000
0000
0000
0000
0000
0000
0000
0002
0000
0000
0000
0000
0000
0000
0000
0003
0010
0000
0000
,
2100
0000
0000
0000
0100
0000
3000
0000
0012
0000
0000
0000
0000
0000
1003
0010
0100
0000
0010
0000
0000
0000
0000
0000
1001
0000
0000
0000
0010
0000
0100
0000
,
1010
0001
0000
0100
1001
0000
0000
0000
1100
0000
0010
0100
0011
0000
1000
0001
,
1010
0001
0000
0010
1100
0000
0020
0000
2031
0000
3010
0000
0101
0000
0000
0001
,
0110
1000
0100
0010
0101
0010
1000
0001
1010
0100
0000
0000
1001
0000
0100
0010
,
1100
0000
0001
0000
2010
0000
0000
0000
3110
0000
0000
0000
0101
0000
0010
0100
,
1001
0000
0010
0000
0000
0000
0100
0000
1010
0000
0000
0000
0000
0000
0001
0100
1010
0000
0100
0000
0001
0000
0100
0000
1010
0000
0000
0000
0100
0000
0010
0000
,
1001
0010
0000
0010
1001
0000
2000
0000
3210
0000
0001
0300
1010
0000
0000
0100
,
1010
0000
0000
0000
0100
0000
1000
0000
0000
0010
0000
0000
0101
0000
0000
1000
0000
0000
0010
0000
0000
0000
0100
0000
1001
0000
0000
0000
0010
0000
0000
0000
0000
0000
0000
0000
1001
0000
0000
0000
0000
0000
0010
0000
0000
0000
0000
0000
,
1100
0000
0000
0000
0000
0000
0000
0000
0000
0000
0000
0000
0001
0000
0000
0000
0000
0000
0000
0000
0000
0000
0000
0000
0100
0000
0000
0000
0000
0000
0000
0000
0000
0000
0000
0000
0000
0000
0000
0000
0000
0000
0000
0000
0000
0000
0000
0000
1001
0000
0000
0000
0000
0000
0000
0000
0000
0000
0000
0000
0010
0000
0000
0000
0000
0000
0000
0000
0000
0000
0000
0000
0100
0000
0000
0000
0000
0000
0000
0000
0000
0000
0000
0000
0001
0000
0000
0000
0000
0000
0100
0000
0000
0000
0000
0000
1010
0000
0000
0000
0000
0000
0000
0000
0000
0000
0000
0000
0000
0000
0000
0000
0000
0000
0000
0000
0000
0000
0000
0000
0010
0000
0000
0000
0000
0000
0000
0000
0000
0000
0000
0000
1000
0000
0000
0000
0000
0000
0000
0000
0000
0000
0000
0000
0201
0000
0000
0000
0000
0000
0000
0000
0010
0000
0000
0000
0000
0000
0000
0000
1000
0000
0000
0000
0000
0000
0000
0000
0001
0000
0000
0000
0000
0000
0000
0000
0010
0000
0000
0000
0000
0000
0000
0000
1000
0000
0000
0000
0000
0000
0000
0000
,
0311
0000
0000
0000
0000
0000
0000
0000
0000
0000
0000
0000
0000
0000
0000
0000
0000
0000
0000
0000
0000
0000
0000
0000
1000
0000
0000
0000
0000
0000
0100
0000
0000
0000
0000
0000
0010
0000
0000
0000
0000
0000
0001
0000
0000
0000
0000
0000
0110
0000
0000
0000
0000
0000
0000
0000
0000
0000
0000
0000
0000
0000
0000
0000
0110
0000
0000
0000
0000
0000
0000
0000
0000
0000
0000
0000
0000
0000
0000
0000
0110
0000
0000
0000
0000
0000
0000
0000
0000
0000
0000
0000
0000
0000
0000
0000
1001
0000
0000
0000
0000
0000
0000
0000
0000
0000
0000
0000
0000
0000
0000
0000
0000
0000
0000
0000
0000
0000
0000
0000
0000
0000
0000
0000
0000
0000
0000
0000
0000
0000
0000
0000
1100
0000
0000
0000
0000
0000
0000
0000
0000
0000
0000
0000
0011
0000
0000
0000
0000
0000
0000
0000
0000
0000
0000
0000
0000
0000
0000
0000
0000
0000
0000
0000
0000
0000
0000
0000
0011
0000
0000
0000
0000
0000
0000
0000
0100
0000
0000
0000
0000
0000
0000
0000
1000
0000
0000
0000
0000
0000
0000
0000
,
0001
0000
0000
0000
0000
0000
0000
0000
0100
0000
0000
0000
0000
0000
0000
0000
0001
0000
0000
0000
0000
0000
0000
0000
1000
0000
0000
0000
0000
0000
0000
0000
0010
0000
0000
0000
0000
0000
0000
0000
1000
0000
0000
0000
0000
0000
0000
0000
0011
0000
0000
0000
0000
0000
0000
0000
0000
0000
0000
0000
0000
0000
0000
0000
0110
0000
0000
0000
0000
0000
0000
0000
0000
0000
0000
0000
0000
0000
0000
0000
0110
0000
0000
0000
0000
0000
0000
0000
0000
0000
0000
0000
0000
0000
0000
0000
1001
0000
0000
0000
0000
0000
0000
0000
0100
0000
0000
0000
0000
0000
0000
0000
1000
0000
0000
0000
0000
0000
0000
0000
0001
0000
0000
0000
0000
0000
0010
0000
0000
0000
0000
0000
1000
0000
0000
0000
0000
0000
0100
0000
0000
0000
0000
0000
0001
0000
0000
0000
0000
0000
0000
0000
0100
0000
0000
0000
0000
0000
0000
0000
1000
0000
0000
0000
0000
0000
0000
0000
0010
0000
0000
0000
0000
0000
0000
0000
0100
0000
0000
0000
0000
0000
0000
0000
0001
0000
0000
0000
0000
0000
0000
0000
,
1010
0000
0000
0000
0000
0000
0000
0000
0100
0000
0000
0000
0000
0000
0000
0000
0001
0000
0000
0000
0000
0000
0000
0000
1000
0000
0000
0000
0000
0000
0100
0000
0000
0000
0000
0000
0010
0000
0000
0000
0000
0000
0001
0000
0000
0000
0000
0000
1100
0000
0000
0000
0000
0000
0000
0000
0000
0000
0000
0000
0000
0000
0000
0000
0000
0000
0000
0000
0000
0000
0000
0000
0000
0000
0000
0000
0000
0000
0000
0000
0000
0000
0000
0000
1100
0000
0000
0000
0000
0000
0000
0000
0000
0000
0000
0000
1001
0000
0000
0000
0000
0000
0000
0000
0000
0000
0000
0000
0011
0000
0000
0000
0000
0000
0000
0000
0000
0000
0000
0000
0000
0000
0000
0000
0000
0000
0000
0000
0000
0000
0000
0000
1001
0000
0000
0000
0000
0000
0000
0000
0000
0000
0000
0000
0110
0000
0000
0000
0000
0000
0000
0000
0000
0000
0000
0000
0000
0000
0000
0000
0000
0000
0000
0000
0000
0000
0000
0000
1100
0000
0000
0000
0000
0000
0000
0000
0000
0000
0000
0000
0000
0000
0000
0000
0000
0000
0000
0000
0000
0000
0000
0000
,
1001
0000
0110
0000
0000
0000
0000
0000
0110
0000
0000
0000
0000
0000
0000
0000
1001
0000
1100
0000
0001
0010
1000
0100
0010
0000
0000
0000
0000
0000
0000
0000
,
0000
0000
0000
0000
0000
0000
0000
0000
0000
0000
0000
0000
0000
0000
0000
0000
0000
0000
0000
0000
0000
0000
0000
0000
1000
0000
0000
0000
0001
0000
0100
0000
0000
0000
0000
0000
0000
0000
0000
0000
0000
0000
0000
0000
0000
0000
0000
0000
0000
0000
0000
0000
0000
0000
0000
0000
0000
0000
0000
0000
0000
0000
0000
0000
1000
0000
0000
0000
0000
0000
0000
0000
0000
0000
0000
0100
0000
0000
0000
0000
0000
0000
0000
0000
0000
0000
0000
0001
0000
0000
0000
0000
0000
0000
0000
0000
0000
0000
0000
0100
0000
0000
0000
0000
0000
0000
0000
0000
0000
0000
0000
1000
0000
0000
0000
0000
0000
0000
0000
0000
0000
0000
0000
0000
0020
0000
0000
0000
0000
0000
0000
0000
0000
0000
0000
0000
0000
0000
0000
0000
0000
0000
0000
0000
0000
0000
0000
0000
0000
0000
0000
0000
0030
0000
0000
0000
0000
0000
0000
0000
0000
0000
0000
0000
0000
0000
0000
0000
0000
0000
0000
0000
1000
0000
0000
0000
0000
0000
0000
0000
0000
0000
0000
0000
0000
0000
0000
0000
0000
0000
0000
0000
,
0000
0000
0000
0000
0000
0000
0000
0002
0000
0000
0000
0000
0000
0000
0000
0000
0003
0000
0200
0000
0000
0000
0000
0000
0310
0000
0000
0000
0000
0000
1000
0000
0000
0010
0000
0000
1001
0000
0100
0000
1000
0000
0001
0000
0100
0000
0010
0000
,
1100
0000
0000
0000
0000
0000
0000
0000
0001
0000
0000
0000
0000
0000
0000
0000
0010
0000
0000
0000
0000
0000
0000
0000
0100
0000
0000
0000
0000
0000
1000
0000
0000
0000
0000
0000
0100
0000
0000
0000
0000
0000
0010
0000
0000
0000
0000
0000
1001
0000
0000
0000
0000
0000
0000
0000
0000
0000
0000
0000
0000
0000
0000
0000
0000
0000
0000
0000
0000
0000
0000
0000
0000
0000
0000
0000
0000
0000
0000
0000
0000
0000
0000
0000
1100
0000
0000
0000
0000
0000
0000
0000
0000
0000
0000
0000
0000
0000
0000
0000
0000
0000
0000
0000
0000
0000
0000
0000
0011
0000
0000
0000
0000
0000
0000
0000
0000
0000
0000
0000
0000
0000
0000
0000
0000
0000
0000
0000
0000
0000
0000
0000
1100
0000
0000
0000
0000
0000
0000
0000
0000
0000
0000
0000
1001
0000
0000
0000
0000
0000
0000
0000
0000
0000
0000
0000
0000
0000
0000
0000
0000
0000
0000
0000
0000
0000
0000
0000
0000
0000
0000
0000
0000
0000
0000
0000
0000
0000
0000
0000
0000
0000
0000
0000
0000
0000
0000
0000
0000
0000
0000
0000
,
0110
0000
0000
1100
0011
0000
1100
0000
1001
0000
0100
0000
1001
0000
0000
1100
,
0011
0000
1100
0000
1100
0000
0010
0000
1001
0000
0010
0000
0101
0000
0100
0011
,
1100
0000
0011
0100
1001
0010
0000
0000
1001
0000
0110
0000
1001
0000
0001
1000
,
0101
1000
0101
0010
1001
0100
0001
0100
1001
0010
0000
0000
1001
0000
0000
1100
,
0011
0000
0110
0000
1200
0000
0320
0000
1230
0000
0320
0000
1031
0000
0000
1100
,
0011
0000
1001
0000
1001
0100
0000
0000
0100
0000
0010
0000
1001
0000
0000
0100
,
0010
0000
1010
0001
1100
0010
1000
0000
0110
0000
1001
0000
0110
0000
0000
0100
,
0011
0100
1001
0010
1100
0001
0010
1000
0101
1000
0000
0000
1100
0000
0000
1001
,
0110
0000
0101
0000
1001
0100
0010
0001
0110
0001
1000
0000
1001
0000
0100
0010
,
0000
1000
0000
0010
1001
0010
0000
0100
2000
3002
0003
0200
1001
0000
0000
0000
,
0010
0000
1000
0310
1001
0000
0000
0000
1020
0030
0200
0300
1001
0000
0110
0000
,
1001
0000
0000
0000
0110
1000
0100
0010
1001
0000
0000
0000
0110
0000
0000
0000
1001
0100
0010
0001
0110
0000
0000
0000
1001
0000
0000
0000
0110
0000
0000
0000
,
1001
0000
0000
0000
0000
0000
0000
0000
0000
0000
0000
0000
0000
0000
0000
0000
0000
0000
0000
0000
0000
0000
0000
0000
0010
0000
0000
0000
0000
0000
0000
0000
1000
0000
0000
0000
0000
0000
0000
0000
0001
0000
0000
0000
0000
0000
0000
0000
0100
0000
0000
0000
0000
0000
0000
0000
0000
0000
0000
0000
0020
0000
0000
0000
0000
0000
0000
0000
0000
0000
0000
0000
0000
0000
0000
0000
0000
0000
0030
0000
0000
0000
0000
0000
2000
0000
0000
0000
0000
0000
0000
0000
0000
0000
0000
0000
0000
0000
0000
0000
0000
0000
3000
0000
0000
0000
0000
0000
0002
0000
0000
0000
0000
0000
0000
0000
0000
0000
0000
0000
0000
0000
0000
0000
0000
0000
0003
0000
0000
0000
0000
0000
0200
0000
0000
0000
0000
0000
0000
0000
0000
0000
0000
0000
0000
0000
0000
0000
0000
0000
0000
0000
0000
0000
0000
0000
0000
0000
0000
0000
0000
0000
0000
0000
0000
0000
0000
0000
0000
0000
0000
0000
0000
0000
0000
0000
0000
0000
0000
0000
0000
0000
0000
0000
0000
0000
0000
0000
0000
0000
0000
0000
,
0000
0000
0000
0000
0000
0000
0000
0000
0000
0000
0300
0000
0000
0000
0010
0100
1000
0000
0001
0000
0100
0000
0000
0000
0120
0000
0030
1000
0010
1000
0010
0101
,
0000
0101
0000
0000
1000
0000
1000
0000
0102
0000
0003
1000
0010
0001
1000
0110
0000
0110
0000
0000
1000
0000
0001
0000
1002
0000
0013
0100
0000
0100
0000
2010
,
0000
0000
0001
0000
0100
0000
0010
0000
0000
0000
0100
0000
0000
0000
3000
0000
1001
0000
0100
0000
0010
0000
0100
0000
1001
0000
0010
0000
0100
0000
0010
0000
1001
0000
0100
0000
1010
0000
0001
0010
1000
0000
0100
0000
0010
0000
0000
0000
1001
0000
0000
0000
0000
0000
0000
0000
0000
0000
0000
0000
1100
0000
0000
0000
,
0011
0000
1001
0000
1001
0100
0000
0000
0100
0000
0010
0000
1001
0000
0000
0100
,
0010
0000
1010
0001
1100
0010
1000
0000
0110
0000
1001
0000
0110
0000
0000
0100
,
0011
0100
0000
0001
0110
1000
0100
0010
0101
1000
0000
0000
1100
0000
0000
1001
,
0110
0000
0101
0000
1001
0100
0010
0001
1100
0010
0100
0000
1002
0000
0023
0000
,
0230
2300
0000
3020
0000
0230
0302
0203
0300
0000
2000
3020
2030
0000
3002
0000
,
0203
0000
0320
0000
0000
0000
2030
0000
3000
0000
0002
0000
0203
0000
0320
0001
1130
0010
0001
0000
1010
0000
0000
0000
1100
0000
0000
0000
0010
0000
0000
0000
,
1001
0000
0000
0100
0000
0000
0000
0000
0000
1000
0000
0000
0011
0000
0000
0000
1000
0000
0100
0000
0000
0010
0000
0000
1100
0000
0000
0002
0000
0000
0000
0000
0000
0003
0000
0000
2000
0000
0000
0000
0000
0000
0000
0000
0000
0101
0000
0000
,
3021
0000
0000
0000
1001
0000
0000
0000
1230
0000
0000
0000
0300
0000
1000
0010
0100
0000
0001
0000
2000
0000
0000
0000
3000
0000
0000
0000
0000
0000
0000
0000
;

//---------------dance-single - ----------------
#NOTES:
     dance-single:
     :
     Beginner:
     4:
     0.091908,0.159343,0.089771,0.000000,0.000000,86.000000,74.000000,12.000000,0.000000,0.000000,0.000000,0.091908,0.159343,0.089771,0.000000,0.000000,86.000000,74.000000,12.000000,0.000000,0.000000,0.000000:
0000
0000
0000
0000
,
0000
0000
0000
0000
,
0000
0000
0000
1000
,
0000
1000
0000
0001
,
0000
0001
0000
0010
,
0000
0010
0000
0100
,
0000
0100
0000
1001
,
0000
0000
0000
1001
,
0000
0000
0000
1001
,
0000
1010
0000
1001
,
0000
0000
0000
1000
,
0000
0001
0000
0100
,
0000
1000
0000
0010
,
0000
0100
0000
0100
,
0000
0100
0000
0010
,
0000
0000
0000
1000
,
0000
0000
0000
0001
,
0000
0000
0000
1000
,
0000
0000
0000
0100
,
0000
0000
0000
0010
,
0000
0000
0000
1000
,
0000
0000
0000
0001
,
0000
0000
0000
1000
,
0000
0000
0000
0010
,
0000
0000
0000
1000
,
0000
0000
0000
0001
,
0000
0000
0000
1001
,
0000
0000
0000
0000
,
0000
0000
0000
1001
,
0000
0010
0000
0100
,
0000
1000
0000
1001
,
0000
0001
0000
0010
,
0000
1000
0000
0100
,
0000
0010
0000
1000
,
0000
0001
0000
0010
,
0000
1000
0000
0100
,
0000
0010
0000
1000
,
0000
0001
0000
0010
,
0000
0100
0000
1001
,
0000
0000
0000
1001
,
0000
0000
0000
1010
,
0000
0000
0000
1001
,
0000
0000
0000
0000
,
0000
0000
0000
1000
,
0000
1000
0000
0001
,
0000
0010
0000
1000
,
0000
0000
0000
1000
,
0000
0000
0000
0001
,
0000
0000
0000
0010
,
0000
0000
0000
0100
,
0000
1000
0000
0010
,
0000
0001
0000
0100
,
0000
1000
0000
0100
,
0000
0100
0000
0000
;

//---------------dance-single - Copied from----------------
#NOTES:
     dance-single:
     Copied from:
     Easy:
     6:
     0.147480,0.199179,0.074809,0.000000,0.000000,138.000000,128.000000,10.000000,0.000000,0.000000,0.000000,0.147480,0.199179,0.074809,0.000000,0.000000,138.000000,128.000000,10.000000,0.000000,0.000000,0.000000:
0000
0000
0000
0000
,
0000
0000
0000
0000
,
0000
0000
0000
1000
,
0000
0100
0000
0010
,
0000
1000
0000
0001
,
0000
1000
0000
0100
,
0100
0010
0100
0001
,
0000
0000
0000
1001
,
0000
0000
0000
1010
,
0000
1001
0000
0100
,
0100
0010
0000
1001
,
0001
0100
0000
1001
,
0010
0100
0000
1010
,
0010
0100
0000
0101
,
0010
1000
0000
0100
,
0100
0010
0000
0001
,
1000
0001
0000
0100
,
0100
0010
0000
1000
,
0100
0001
0000
0100
,
0100
0010
0000
0001
,
1000
0010
0000
0100
,
0001
1000
0000
0010
,
0010
0100
0100
0001
,
0000
0001
0000
1000
,
0000
1000
0000
0100
,
0000
0010
0000
0001
,
0001
0001
0000
1000
,
0000
0000
0000
0010
,
0000
0000
0000
1001
,
0000
0010
0000
0100
,
0000
1000
0000
1001
,
0010
0100
0010
0001
,
0000
1000
0000
0100
,
0010
1000
0001
0100
,
0000
0010
0000
1000
,
0100
1000
0000
0010
,
0001
0010
0000
0100
,
1000
0010
0000
0100
,
0001
0100
0100
1001
,
0000
0001
0000
1000
,
0000
0100
0000
0010
,
0000
0001
0000
1000
,
0000
0100
0000
0000
,
0000
0000
0000
0001
,
0000
0100
0000
1000
,
0000
0100
0000
1000
,
0000
0001
0000
0010
,
0000
0100
0000
1000
,
0000
0100
0000
1000
,
0001
1000
0000
0100
,
0010
0001
0000
0100
,
1000
0010
0000
0100
,
0100
1000
0010
0100
,
0100
0001
0000
0000
;

//---------------dance-single - Copied from Copied f----------------
#NOTES:
     dance-single:
     Copied from Copied f:
     Medium:
     8:
     0.243663,0.298768,0.187022,0.000000,0.000000,228.000000,203.000000,25.000000,0.000000,0.000000,0.000000,0.243663,0.298768,0.187022,0.000000,0.000000,228.000000,203.000000,25.000000,0.000000,0.000000,0.000000:
0000
0000
0000
0000
,
0000
0000
0000
0000
,
0000
0000
0000
1000
,
0100
0001
0000
0100
,
0010
0100
0000
1000
,
0100
0001
0000
0100
,
0010
0000
0100
0000
0010
1000
0001
0000
,
0000
0110
0000
0001
,
0000
1010
0000
0100
,
0100
0010
1000
0100
,
0100
0010
0000
1001
,
0010
0000
0100
0000
0001
1000
0010
0000
,
0100
0001
0100
0000
0010
0000
1010
0000
,
1010
0101
0101
0100
,
0010
0100
0010
1000
,
1000
0100
0010
0100
,
0100
0010
1000
0001
,
0001
0100
0010
1000
,
0100
0010
0001
0100
,
0110
0001
1001
0100
,
0101
0010
0101
1000
,
1010
0001
0110
1000
,
0100
0010
0010
1001
,
0000
0010
1000
0100
,
0100
0010
0001
1000
,
1000
0100
0100
0010
,
1000
0001
0100
0110
,
0000
0000
0000
1001
,
0000
0000
0000
0100
,
1001
0010
0100
0001
,
0010
0100
1000
0110
,
0001
0000
1000
0000
0100
0100
1000
0000
,
0001
0000
0010
0000
0100
0001
0100
0000
,
0010
1000
0010
0000
0100
0000
0001
0000
,
0001
0000
0010
0000
0100
0001
0100
0000
,
1000
0010
1000
0000
0100
0010
0100
0000
,
0001
1000
0001
0000
0010
0100
0010
0000
,
0100
0010
1000
0100
,
0100
0010
0001
1001
,
0000
0110
0000
1100
,
0000
0110
0000
0001
,
1000
0001
1000
0010
,
0100
0001
0000
0000
,
0000
0000
0100
0010
,
0001
1000
0010
0000
0100
0001
1000
0000
,
0100
0000
0010
0010
0100
0100
0001
0000
,
0100
0000
0010
0000
1000
0001
1000
0000
,
0010
0000
0100
0000
0001
0010
0001
0000
,
0100
1000
0100
0000
0010
0000
1000
0000
,
1000
0000
0010
0000
0100
0000
0001
1000
,
0001
0100
0001
0000
0010
0000
0100
1000
,
0010
0100
0010
0000
0001
0000
1000
0000
,
0010
0000
0001
0100
0010
0000
1001
0000
,
1001
0110
0000
0000
;

//---------------dance-single - Copied from----------------
#NOTES:
     dance-single:
     Copied from:
     Hard:
     10:
     0.422136,0.579652,0.351602,0.381525,0.433891,395.000000,348.000000,47.000000,51.000000,0.000000,0.000000,0.422136,0.579652,0.351602,0.381525,0.433891,395.000000,348.000000,47.000000,51.000000,0.000000,0.000000:
// measure 0
0000
0000
0000
0000
,  // measure 1
0000
0000
0000
0000
,  // measure 2
0000
0000
0000
0000
0000
0000
0000
0000
0100
0000
0010
0000
2010
0000
0000
3001
,  // measure 3
0100
0000
0100
0010
0000
0010
0000
0000
1000
0000
1000
0000
0110
0000
0000
0001
,  // measure 4
0100
0000
0100
0010
0000
0010
0000
0000
1000
0000
0010
0000
1001
0000
0010
0100
,  // measure 5
0000
0100
0000
0010
0000
0010
0100
0010
0000
0100
0000
0000
0002
0000
0000
0000
,  // measure 6
0023
0000
0000
0000
2030
0000
0000
3000
0100
0000
0010
0000
1001
0000
0000
0010
,  // measure 7
0100
0000
0001
1000
0000
1000
0000
0000
0100
0000
0010
0000
1001
0000
0000
0010
,  // measure 8
0100
0000
0010
0001
0000
0001
0000
0000
0100
0000
0010
0000
1010
0000
0000
0001
,  // measure 9
0000
0100
0000
0010
0000
1000
0001
0100
0000
0010
0000
0000
2000
0000
0000
0000
,  // measure 10
3002
0000
0023
0030
1001
1000
0110
0000
,  // measure 11
0001
0000
0010
0100
0000
0100
0000
0000
2000
0000
3020
0000
0230
0000
0000
0000
,  // measure 12
0301
0000
0010
1000
0000
1000
0000
0000
1001
0000
0000
0000
0100
0000
0010
0000
,  // measure 13
0100
0000
0000
0010
0000
0000
0000
0000
0000
0100
0000
0000
0000
0000
0000
0000
0000
0000
0000
0000
0000
0000
0000
0000
0101
0000
0000
0000
0000
0000
0000
0000
0000
0000
0000
0000
0002
0000
0000
0000
0000
0000
0000
0000
0003
0010
0000
0000
,  // measure 14
0200
0000
1000
0000
0302
0000
0000
0003
1001
0000
0000
0000
0100
0000
1000
0001
,  // measure 15
1000
0000
1000
0000
0002
0000
0000
0000
0013
0000
0000
0000
0100
0000
1000
0010
,  // measure 16
1000
1000
0002
0000
0013
0000
2000
3010
,  // measure 17
1000
0000
0002
0013
0001
0000
1010
0000
,  // measure 18
1100
0000
0000
0000
1002
0000
0000
0000
0013
0000
0000
0000
0100
0000
1000
0001
,  // measure 19
1000
0000
1000
0000
0200
0000
0000
0000
0310
0000
0000
0000
0001
0000
1000
0010
,  // measure 20
1000
0100
0002
0000
0013
0000
1000
0100
,  // measure 21
1000
0010
1000
0001
1000
0000
0110
0000
,  // measure 22
0011
0000
0001
0010
0001
0000
2001
0000
,  // measure 23
3010
0000
0000
0000
0000
0000
0000
0000
0000
0000
0000
0000
0100
0000
0000
0000
0001
0000
0000
0000
0100
0000
0000
0000
0000
0000
0000
0000
0000
0000
0000
0000
0000
1000
0000
0000
0010
0000
0000
0000
0000
0000
0100
0000
0000
0000
0000
0000
,  // measure 24
0000
0000
0000
0100
0000
0000
0000
0000
0000
0000
0000
0000
0001
0000
0000
0000
0100
0000
0000
0000
0001
0000
0000
0000
0000
0000
0000
0000
0000
0000
0000
0000
0000
0000
0000
0000
0100
0000
0000
0000
0000
0000
0000
0000
0000
0000
0000
0000
,  // measure 25
0001
0000
1000
0010
1000
0001
0000
0100
0000
0010
0000
0000
1000
0000
0001
0000
,  // measure 26
0100
0010
0200
0000
0301
1000
1001
0000
,  // measure 27
0000
1100
0000
0011
,  // measure 28
0000
0000
0011
0200
0310
0000
1001
0000
,  // measure 29
0110
0000
0000
0000
1000
0001
0000
0100
0000
0010
0000
1000
0000
0100
0000
0010
,  // measure 30
0000
0001
0000
0010
0100
0000
0010
0000
1000
0000
0010
0000
1001
0000
0000
0010
,  // measure 31
1000
0000
0010
0100
0000
0010
0000
0000
0001
0000
0010
0000
0011
0000
0000
0001
,  // measure 32
0010
0000
0010
0001
0000
0010
0000
0000
0100
0000
1000
0000
1001
0000
0010
0100
,  // measure 33
0000
0100
0000
0010
0000
0100
0001
0100
0000
0001
0000
0000
0012
0000
0000
0000
,  // measure 34
0013
0000
0000
0000
2010
0000
0000
0000
3010
0000
0100
0000
0110
0000
0000
0001
,  // measure 35
1000
0000
1000
0001
0000
0001
0000
0000
1000
0000
0001
0000
1001
0000
0000
0001
,  // measure 36
1000
0000
1000
0001
0000
0001
0000
0000
0100
0000
0010
0000
0110
0000
0000
0010
,  // measure 37
0000
0010
0000
0100
0000
0001
0100
0001
0000
0100
0000
0000
2010
0000
0000
0000
,  // measure 38
3002
0000
2003
3000
0010
0200
0001
0000
,  // measure 39
0000
0000
0000
0000
0010
0000
0000
0300
0000
0000
0000
0000
0011
0000
0000
0000
,  // measure 40
0000
0000
1001
0000
0110
0000
1000
0010
,  // measure 41
0100
0010
0001
0010
0100
1000
0010
0001
,  // measure 42
0010
0000
0100
0001
0100
0010
0000
0001
0000
1000
0000
0200
0000
0000
0000
0000
,  // measure 43
0000
0000
0000
0000
0000
0000
0000
0000
0300
0000
0000
0000
0000
0000
0000
0000
0001
0000
0000
0000
0010
0000
0000
0000
1001
0000
0000
0010
0100
0000
0000
0010
,  // measure 44
0000
0010
0000
0000
0001
0000
0010
0000
0100
0000
0000
0000
1000
0000
0000
0100
0000
0100
0000
0000
0100
0000
1000
0000
0010
0000
1000
0000
0001
0000
1000
0000
,  // measure 45
0200
0000
1300
0000
1010
0000
1001
0000
0110
0000
0100
0010
0100
0000
0000
0100
,  // measure 46
0010
0000
0010
0001
0000
0001
0000
0000
1000
0000
0001
0000
1001
0000
0000
0010
,  // measure 47
1000
0000
1000
0010
0000
0010
0000
0000
0100
0000
0010
0000
0110
0000
0000
1000
,  // measure 48
0000
0100
0000
0010
0000
0001
0010
0001
0000
0010
0000
0000
1002
0000
0000
0000
,  // measure 49
1003
0000
0210
0000
0310
0000
2000
3002
,  // measure 50
2003
3002
0000
2003
0000
3100
0010
0200
0300
0000
2000
3020
2030
0000
3002
0000
,  // measure 51
0203
0320
0000
2030
0000
3001
0100
0020
0030
0000
0000
0000
1001
0000
0000
0000
,  // measure 52
0110
0000
0000
0000
1000
0010
0100
0001
0000
0100
0000
0000
2010
0000
0000
0000
,  // measure 53
3002
0000
0000
0003
2020
0000
0000
3030
0000
0000
0000
0000
0000
0000
0000
0000
;
