#TITLE:IDGAF;
#SUBTITLE:;
#ARTIST:Dua Lipa;
#TITLETRANSLIT:;
#SUBTITLETRANSLIT:;
#ARTISTTRANSLIT:;
#GENRE:;
#CREDIT:;
#BANNER:AV.avi;
#BACKGROUND:BG.png;
#LYRICSPATH:;
#CDTITLE:;
#MUSIC:audio.mp3;
#OFFSET:-0.180000;
#SAMPLESTART:36.380001;
#SAMPLELENGTH:16.000000;
#SELECTABLE:YES;
#BPMS:0.000000=97.220001
,25.250000=95.699997
,26.250000=97.220001
,43.000000=96.220001
,46.000000=97.220001
,62.500000=96.220001
,75.000000=97.220001
,96.500000=96.220001
,99.000000=97.220001
,111.000000=96.220001
,117.500000=97.220001
,123.000000=24.305000
,131.000000=47.730000
,135.000000=48.730000
,137.000000=24.365000
,138.000000=97.230003
,151.500000=96.690002
,153.000000=97.230003
;
#STOPS:
;
#BGCHANGES:2.000=MV.avi=1.000=0=0=1=====,
99999=-nosongbg-=1.000=0=0=0 // don't automatically add -songbackground-
;
#KEYSOUNDS:;
#ATTACKS:;

//---------------dance-single - ----------------
#NOTES:
     dance-single:
     :
     Challenge:
     16:
     0.857817,1.694620,2.359831,0.109035,0.654211,771.000000,468.000000,303.000000,14.000000,0.000000,10.000000,0.857817,1.694620,2.359831,0.109035,0.654211,771.000000,468.000000,303.000000,14.000000,0.000000,10.000000:
0000
0000
0000
0000
,
0000
0000
0000
0000
,
0000
0000
0000
0000
0000
0000
0000
0000
0000
0000
0000
0000
0100
0000
0100
0010
,
1001
0000
0100
0000
0100
0010
0001
0000
1001
0000
0010
0000
0100
0000
0100
0010
,
1001
0000
0100
0000
0100
1000
0010
0000
1100
0000
0001
0000
0010
0000
0010
0100
,
1001
0000
0100
0000
0100
0010
1000
0000
0101
0000
1000
0000
0010
0000
0010
0100
,
1010
0000
0100
0000
0100
0010
0000
0000
1000
0100
0010
0001
1010
0000
0100
0010
,
1001
0000
0001
0000
0001
0100
0000
0000
0110
0000
0000
0000
1000
0000
1000
0010
,
1001
0000
0001
0000
0001
0100
0000
0000
0101
1000
0101
0000
0110
0000
0001
1000
,
0101
0000
0100
0000
0100
0010
0000
0000
1001
0000
0000
0000
0100
0000
0100
1000
,
0101
0000
0010
0000
0010
0100
0000
0000
0110
0000
1100
0011
1100
0000
0000
0100
,
1100
0000
0000
0000
0101
0000
0000
0000
0100
0000
0010
0000
1100
0000
0000
0000
1001
0000
0000
0000
0010
0100
1000
0100
0011
0000
0000
0000
1000
0000
0110
0000
,
1001
0000
0000
0000
0101
0000
0000
0000
0001
0000
1100
0000
0011
0000
1000
0000
0110
1000
0001
0100
0010
1000
0001
0010
0100
0000
0000
0000
0000
0000
1100
0000
,
0011
0000
0110
0000
0000
0110
0000
0000
1001
0000
0010
0000
0101
0000
0000
0011
,
1100
0000
0000
0000
0100
0000
0000
0000
0000
0000
0100
1000
0010
0000
0000
0000
0110
0000
0000
0000
1000
0000
0000
0000
1010
0000
0000
0000
0001
0000
1010
0000
,
0101
0000
1001
0000
0100
0011
1100
0000
0101
0000
1000
0000
1010
0000
0001
1010
,
0101
0000
0110
0000
1000
0101
2010
0000
3110
0000
0001
0000
1010
0000
0001
0110
,
1001
0000
0110
0000
0010
0101
1010
0000
0101
0000
1000
0000
1010
0000
0001
1010
,
0101
0000
0110
0000
0100
0011
1002
0000
1013
0000
1000
0000
1010
0000
0001
1010
,
0101
0000
1001
0000
0010
1100
0011
0000
0110
1000
0001
0000
0101
0000
1000
0101
,
1010
0000
0110
0000
1000
0101
2010
0000
3110
0000
0001
0000
1010
0000
0001
0110
,
1001
0000
0110
0000
0010
0101
1010
0000
0101
0000
1000
0000
1010
0000
0001
1010
,
0101
0000
0110
0000
0100
0011
1200
0000
1310
0000
0100
1000
0110
0000
1001
0110
,
1001
0000
0101
0000
1100
0011
1100
0000
1001
0000
1100
0001
0110
0000
1001
0110
,
1001
0000
1010
0000
0110
1001
0210
0000
1310
0000
1001
0000
0110
0000
0101
1010
,
0101
0000
1010
0000
0110
1001
0110
0000
1001
0000
0110
0000
0110
0000
1001
0110
,
1001
0000
1010
0000
1100
0011
2100
0000
3110
0000
1001
0100
1001
0000
0110
1010
,
1001
0000
1010
0000
1001
0110
1001
0000
0110
0000
1001
0000
1010
0000
1010
1001
,
1100
0000
1010
0000
0110
1100
0011
0000
0101
0000
1001
0000
0011
0000
1010
0110
,
0011
0000
0101
0000
0011
1100
0110
0000
0101
0000
1010
0000
1010
0000
0101
1001
,
0101
0000
0000
0000
0000
0000
0000
0000
1100
0000
0000
0000
0000
0000
0000
0000
0110
0000
0000
0000
1001
0000
0000
0000
1100
0000
0000
0000
0000
0000
0000
0000
0011
0000
0000
0000
1000
0000
0000
0000
0000
0000
0000
0000
0000
0000
0000
0000
0110
0000
0001
1000
0010
0000
0100
0000
0100
0010
0000
0000
1001
0100
1000
0000
,
0010
0000
0010
0100
0000
0000
0100
0000
0100
0001
0000
0000
0000
0000
0000
0000
1100
0000
1100
0001
0110
0000
0110
0000
1001
0010
1001
0000
0110
0000
0110
0000
1001
0000
1001
0100
0011
0000
0011
0000
1000
0001
0100
1000
0100
0000
0010
0000
0100
0000
0100
0010
0000
0000
0001
0000
0001
1000
0000
0000
0100
0000
1000
0000
,
0100
0000
0000
0000
0000
0000
0100
0000
0000
0010
0000
0000
0001
0000
0000
0000
0000
0000
1000
0000
0000
0000
0000
0000
1000
0000
0000
0001
0000
0000
0100
0000
0000
0000
0000
0000
1000
0000
0000
0000
0000
0000
0000
0000
0000
0000
0000
0000
0011
0000
0000
0000
0000
0000
0011
0000
0000
0100
0000
0000
1010
0000
0000
0000
0000
0000
0011
0000
0000
0000
0000
0000
0101
0000
0000
1000
0000
0000
0110
0000
0000
0000
0000
0000
0101
0000
0000
0000
0000
0000
0101
0000
0000
0000
0000
0000
1010
0000
0000
0000
0000
0000
1010
0000
0000
0100
0000
0000
1001
0000
0000
0000
0000
0000
1001
0000
0000
0000
0000
0000
0010
0000
0000
0001
0000
0000
0000
0000
0000
0000
0000
0000
1001
0000
0000
0000
0010
0000
0000
0000
0000
1000
0000
0000
0110
0000
0000
0000
0000
0000
0000
0000
0000
0000
0000
0000
0000
0000
0000
0000
0000
0000
1100
0000
0000
0000
0000
0000
0011
0000
0000
0000
0000
0000
0000
0000
0000
0000
0000
0000
0110
0000
0000
0000
0000
0000
0000
0000
0000
0000
0000
0000
,
0000
0011
1100
0000
0110
0000
0000
0000
0011
0000
0000
0011
1001
0000
0110
0000
0000
0110
1001
0000
0110
0000
0000
0000
1100
0000
0000
1100
0011
0000
0110
0000
,
0000
0000
0110
0000
1001
0000
0000
0000
0110
0000
0000
0000
0000
0000
0000
0000
0011
0000
1000
0100
0000
0000
0002
0000
2003
0000
3002
0000
0203
0000
0000
0000
0301
0000
0000
0000
0000
0000
0000
0000
1010
0000
0000
0000
0101
0000
0000
0000
1010
0000
0000
0000
0000
0000
0000
0000
1001
0000
0000
0000
0000
0000
0000
0000
,
0011
1100
0011
0000
1010
0000
1001
0000
0101
0000
1010
0101
1010
0000
0110
0000
,
1001
1010
0102
0000
0113
0000
1001
0000
0101
0000
1010
0110
1001
0000
0110
0000
,
0101
1010
0101
0000
1010
0000
1001
0000
0101
0000
1010
0101
1010
0000
0110
0000
,
0011
1100
2001
0000
3101
0000
1001
0000
0101
0000
1010
0101
1010
0000
1001
0000
,
1100
0011
1100
0000
0110
0001
1001
0000
1010
0000
0101
1010
0101
0000
0110
0000
,
0101
1010
0102
0000
0113
0000
1010
0000
0101
0000
1001
0110
1001
0000
0110
0000
,
0101
1010
0101
0000
1010
0000
1001
0000
0101
0000
1010
0101
1010
0000
0110
0000
,
0011
1100
0021
0000
0131
0000
0000
0000
0000
0000
0000
0000
0000
0000
0000
0000
;

//---------------dance-single - Copied from----------------
#NOTES:
     dance-single:
     Copied from:
     Hard:
     10:
     0.373835,0.411316,0.334894,0.109035,0.190811,336.000000,293.000000,43.000000,14.000000,0.000000,0.000000,0.373835,0.411316,0.334894,0.109035,0.190811,336.000000,293.000000,43.000000,14.000000,0.000000,0.000000:
// measure 0
0000
0000
0000
0000
,  // measure 1
0000
0000
0000
0000
,  // measure 2
0000
0000
0000
0000
0000
0000
0000
0001
,  // measure 3
1000
0000
0010
0100
0010
0000
1000
0100
,  // measure 4
0010
0001
0010
0100
0010
0000
1000
0010
,  // measure 5
1000
0000
0001
1000
0001
0000
1000
0100
,  // measure 6
0010
0001
0020
0000
0031
0000
1000
0010
,  // measure 7
1000
0000
0110
0000
0011
0000
0010
0001
,  // measure 8
0010
0011
0110
1001
,  // measure 9
1010
0000
1000
0010
1000
0000
0110
0000
,  // measure 10
0011
0000
0001
0010
0001
0000
1100
0000
,  // measure 11
0010
1000
0010
0100
0010
0000
1001
0001
,  // measure 12
0010
0100
0010
0001
0010
0000
1001
0010
,  // measure 13
1000
0001
0010
0100
0010
0000
1001
0010
,  // measure 14
0100
0000
0001
0000
1000
0000
0100
0000
1100
0000
0000
0000
1100
0000
0000
0100
,  // measure 15
1000
0000
0100
0000
0000
1000
0100
0000
1000
0000
0000
0000
1010
0000
0000
0010
,  // measure 16
1000
0000
0010
0000
0000
0001
0010
0000
0011
0000
0000
0000
0011
0000
0000
0001
,  // measure 17
0010
0000
0001
0000
0000
0010
0001
0000
0011
0000
0000
0000
1001
0000
0000
0010
,  // measure 18
0100
0000
0010
0000
0000
0010
0100
0000
0110
0000
0000
0000
1001
0000
0000
0100
,  // measure 19
1000
0000
0100
0000
0000
0100
1000
0000
0100
0000
0000
0000
1100
0000
0000
0010
,  // measure 20
1000
0000
0010
0000
0000
0010
1000
0000
0010
0000
0000
0000
1010
0000
0000
0010
,  // measure 21
0100
0000
0010
0000
0000
0010
0100
0000
0010
0000
0000
0000
1001
0000
0000
0001
,  // measure 22
1000
0000
0001
0000
0000
0001
1000
0000
0010
0000
0100
0001
0100
0000
0010
1000
,  // measure 23
0010
0000
1000
0000
0100
0010
0100
0010
0100
0000
0001
1000
0001
0000
1000
0100
,  // measure 24
1000
0000
0010
0000
1000
0000
0001
0000
1001
0000
0100
0000
1000
0000
1000
0100
,  // measure 25
1000
0000
0010
0000
0100
0010
0100
0000
0001
0000
1000
0000
0001
0000
0001
0010
,  // measure 26
0001
0000
0010
0000
0100
0010
0100
0000
0001
0000
1000
0010
1000
0000
0001
1000
,  // measure 27
0001
0000
1000
0000
0010
0000
0100
0000
0110
0000
0001
0010
0001
0000
0010
0001
,  // measure 28
0010
0000
0001
0000
1000
0000
0010
0000
1010
0000
1000
0000
0100
0000
0100
1000
,  // measure 29
0100
0000
1000
0000
0001
0000
1000
0001
1000
0000
0010
0000
0100
0000
0100
0010
,  // measure 30
0100
0000
0001
0000
1000
0100
0000
0000
1000
0000
0000
0000
1002
0000
1003
0000
,  // measure 31
0120
0130
2100
3100
1002
1003
0210
0310
,  // measure 32
1002
1003
2010
3010
0120
0130
1000
0100
,  // measure 33
1000
0010
1000
0001
1000
0010
0100
0001
,  // measure 34
0100
0000
0010
0000
2002
0000
3003
0000
0110
0000
0000
0010
0100
0000
0010
0000
,  // measure 35
0000
0010
0100
0000
0010
0000
0000
0000
1010
0000
0000
0010
1000
0000
0010
0000
,  // measure 36
0000
0010
2000
0000
3001
0000
0000
0000
0101
0000
0000
0001
0100
0000
0001
0000
,  // measure 37
0000
0001
0100
0000
0001
0000
0000
0000
1001
0000
0000
0001
1000
0000
0001
0000
,  // measure 38
1000
0000
0020
0000
0130
0000
0000
0000
1001
0000
0000
0001
1000
0000
0100
0000
,  // measure 39
0000
0100
1000
0000
1100
0000
0000
0000
0010
0000
0000
0010
1000
0000
0010
0000
,  // measure 40
0000
0001
2000
0000
3001
0000
0000
0000
0010
0000
0000
0010
0100
0000
0010
0000
,  // measure 41
0000
0010
1000
0000
0010
0000
0000
0000
0001
0000
0000
0001
1000
0000
0001
0000
,  // measure 42
0000
0010
0100
0000
0110
0000
0000
0000
0000
0000
0000
0000
0000
0000
0000
0000
;

//---------------dance-single - Copied from Copied f----------------
#NOTES:
     dance-single:
     Copied from Copied f:
     Medium:
     7:
     0.295952,0.296147,0.070094,0.077882,0.035047,266.000000,257.000000,9.000000,10.000000,0.000000,1.000000,0.295952,0.296147,0.070094,0.077882,0.035047,266.000000,257.000000,9.000000,10.000000,0.000000,1.000000:
0000
0000
0000
0000
,
0000
0000
0000
0000
,
0000
0000
0000
0000
0000
0000
0000
0100
,
0010
0100
0000
0001
1000
0001
0000
1000
,
0100
0010
0000
0001
0010
0100
0000
0100
,
0010
0000
0100
0000
0000
0000
1000
0000
0001
0000
0100
0000
0010
0000
0000
1000
,
0000
0001
0000
0000
0100
0000
1001
0000
,
0010
0000
0100
0010
0100
0000
1000
0001
,
1000
0000
0100
1000
0100
0010
1001
0000
,
0001
0100
0001
0000
1000
0100
1000
0000
,
0010
0100
0010
0000
1000
0100
0011
0000
,
0100
0000
0010
0000
0000
0000
0001
0000
1000
0000
0000
0000
0100
0000
0000
0100
,
0000
0000
0010
0000
0000
0010
0000
0000
0001
0000
0000
0000
1000
0000
0000
1000
,
0000
0000
0001
0000
0000
0001
0000
0000
0010
0000
0000
0000
0100
0000
0000
0010
,
0000
0000
0010
0000
0000
1000
0100
0000
0100
0000
0000
0000
1000
0000
0100
0000
,
0010
0001
0010
0100
0010
0000
1000
1000
,
0001
0100
0010
0010
1000
0000
0001
0001
,
0100
0010
0100
0001
1000
0000
0100
0100
,
0010
1000
0001
0100
1001
0000
0010
0010
,
0100
1000
0001
0100
0010
0000
1000
0100
,
0010
1000
0001
0100
1100
0000
0100
0010
,
1000
0001
0100
0010
1000
0000
0100
0010
,
1000
0001
0100
0010
1000
0000
1000
1000
,
0100
0100
0010
0010
0001
0001
1000
1000
,
0100
0100
0001
0001
1000
1000
0010
0010
,
0100
0100
0001
0001
1000
1000
0100
0100
,
0010
0010
0001
0001
1000
1000
0010
0010
,
0100
0100
0001
0001
1000
1000
0100
0100
,
0010
0010
1000
1000
0001
0001
0100
0100
,
0010
0010
0001
0001
0100
0100
0010
0010
,
1000
1000
0001
0001
1001
0000
2000
0000
,
3002
0023
2030
3200
,
2300
0000
3200
0000
0320
0000
1030
0100
,
0010
0001
0100
0010
0001
0010
0100
0010
,
1000
0001
1000
0000
0200
0000
0000
0000
0310
0000
1000
0000
0000
0000
0100
0000
,
0010
0000
0001
1000
0000
0100
0010
0100
,
1000
0001
0100
0010
1000
0001
0000
0010
,
0100
0000
1000
0001
0100
0100
0010
0010
,
1000
1000
0001
0100
0010
0100
0000
1000
,
0001
0000
0000
0000
0100
0010
0100
0000
0000
0000
1000
0000
0000
0000
0001
0000
,
0100
0100
0010
0010
1000
1000
0000
0100
,
0100
0000
0010
1001
0000
1100
0000
0002
,
0000
1103
0000
0000
;

//---------------dance-single - Copied from Copied f----------------
#NOTES:
     dance-single:
     Copied from Copied f:
     Easy:
     4:
     0.165778,0.180979,0.038941,0.000000,0.007788,149.000000,144.000000,5.000000,0.000000,0.000000,0.000000,0.165778,0.180979,0.038941,0.000000,0.007788,149.000000,144.000000,5.000000,0.000000,0.000000,0.000000:
0000
0000
0000
0000
,
0000
0000
0000
0000
,
0000
0000
0000
0000
,
0000
0010
0000
0001
,
0000
0100
0000
0010
,
0000
0000
0000
0000
1000
0000
0000
0000
0000
0000
0000
0000
0010
0000
0000
0010
,
0000
0010
0000
0000
0000
0000
0110
0000
,
0000
1000
0000
0100
,
0000
0010
0000
1001
,
0000
0100
0000
0010
,
0000
1000
0000
1001
,
0000
0100
0000
0010
,
0000
0100
0000
0011
,
0000
0100
0000
0010
,
0000
0000
0100
0000
0000
0000
0010
1000
,
0000
0100
0001
0000
0010
0100
0000
1000
,
0000
1000
0000
0000
0000
0100
0010
0100
,
0000
0001
1000
0000
0010
0100
0000
0000
,
0001
0000
0000
0000
0001
1000
0100
0010
,
0000
0001
0010
0000
1000
0001
0000
0100
,
0000
0100
0000
0000
0000
0010
0100
0010
,
0000
0001
0100
0000
1000
0010
0000
0000
,
0000
0000
0000
1000
0001
0000
0010
0000
,
0010
0000
0000
0000
0100
0000
0010
0000
0100
0000
0000
0000
0001
0000
0000
0001
,
0000
0001
0000
0000
0100
0000
0010
0010
,
0000
1000
0001
0000
0100
0010
0000
0000
,
1000
0000
0100
0000
0010
0000
0001
1000
,
0001
0100
0010
1000
,
1000
0000
0100
0000
0100
0000
0010
0001
,
0000
0100
1000
0000
0010
0100
0000
0100
,
0000
0100
0000
0000
0010
0000
1000
0000
,
0001
0010
0100
0010
,
0001
0100
1000
0010
,
0100
0001
1000
0100
,
1000
0000
0001
0000
0100
0010
0000
0001
,
1000
0000
0100
0010
0000
1000
0000
0001
,
0000
0000
0000
0010
0001
0010
0000
0100
,
1000
0000
0100
0010
0000
0000
0000
0000
,
0000
0000
0000
1000
0001
1000
0000
0100
,
0010
0000
0001
1000
0000
0100
0000
0100
,
0000
0000
0000
0010
0100
0010
0000
0001
,
1000
0000
0100
0010
0000
0010
0000
0010
,
0000
1100
0000
0000
;

//---------------dance-single - Copied from Copied f----------------
#NOTES:
     dance-single:
     Copied from Copied f:
     Beginner:
     1:
     0.103472,0.114487,0.015576,0.007788,0.000000,93.000000,91.000000,2.000000,1.000000,0.000000,0.000000,0.103472,0.114487,0.015576,0.007788,0.000000,93.000000,91.000000,2.000000,1.000000,0.000000,0.000000:
0000
0000
0000
0000
,
0000
0000
0000
0000
,
0000
0000
0000
0000
,
0000
0000
0000
0001
,
0000
0000
0000
0100
,
0000
0000
0000
2000
,
0000
3001
0000
0000
0000
0000
0100
0000
,
0000
0001
0000
0100
,
0000
1000
0000
0001
,
0000
0100
0000
0010
,
0000
1000
0000
0001
,
0000
0100
0000
0010
,
0000
1000
0000
0001
,
0000
0100
0000
0010
,
0000
0000
0000
1000
,
1000
0100
0000
0001
,
0010
0100
0000
1000
,
0001
1000
0000
0100
,
0010
0100
0000
0001
,
0010
0001
0000
0100
,
1000
0100
0000
0001
,
1000
0001
0000
0100
,
0010
0100
0000
1000
,
1000
0100
0000
0010
,
0010
0001
0000
0100
,
0010
0100
0000
1000
,
0100
0001
0000
0001
,
0010
1000
0000
0100
,
0001
1000
0000
0010
,
0100
0001
0000
1000
,
1000
1000
0000
0100
,
0000
0010
0000
0100
,
0000
1000
0000
0001
,
0000
0100
0000
0010
,
0000
0110
1001
0000
,
0100
0000
1000
0000
,
0010
0000
0001
0000
,
0100
0000
0010
0000
,
1000
0000
0100
0000
,
0001
0000
0100
0000
,
0010
0000
1000
0000
,
0001
0000
0100
0000
,
0010
0000
0000
0000
;
