#VERSION:0.83;
#TITLE:I Don't Care;
#SUBTITLE:;
#ARTIST:Ed Sheeran, Justin Bieber;
#TITLETRANSLIT:;
#SUBTITLETRANSLIT:;
#ARTISTTRANSLIT:;
#GENRE:;
#ORIGIN:;
#CREDIT:;
#BANNER:AV.avi;
#BACKGROUND:BG.png;
#PREVIEWVID:;
#JACKET:JACKET.png;
#CDIMAGE:;
#DISCIMAGE:;
#LYRICSPATH:;
#CDTITLE:;
#MUSIC:audio.ogg;
#OFFSET:-0.180000;
#SAMPLESTART:98.300003;
#SAMPLELENGTH:15.000000;
#SELECTABLE:YES;
#BPMS:0.000=101.983,
164.000=50.992,
166.000=101.983;
#STOPS:;
#DELAYS:;
#WARPS:;
#TIMESIGNATURES:0.000=4=4;
#TICKCOUNTS:0.000=4;
#COMBOS:0.000=1;
#SPEEDS:0.000=1.000=0.000=0;
#SCROLLS:0.000=1.000;
#FAKES:;
#LABELS:0.000=Song Start;
#BGCHANGES:0.000=MV.avi=1.200=1=0=1===CrossFade==,
3.000=MV.avi=1.000=0=0=1=====,
99999=-nosongbg-=1.000=0=0=0 // don't automatically add -songbackground-
;
#KEYSOUNDS:;
#ATTACKS:
;

//---------------dance-single - ----------------
#NOTEDATA:;
#CHARTNAME:;
#STEPSTYPE:dance-single;
#DESCRIPTION:;
#CHARTSTYLE:;
#DIFFICULTY:Challenge;
#METER:16;
#RADARVALUES:0.823481,0.798562,1.562046,0.960728,0.857052,834.000000,608.000000,226.000000,139.000000,0.000000,206.000000,0.000000,0.000000,0.000000,0.823481,0.798562,1.562046,0.960728,0.857052,834.000000,608.000000,226.000000,139.000000,0.000000,206.000000,0.000000,0.000000,0.000000;
#CREDIT:;
#NOTES:
0000
0000
0000
0000
,
0000
0000
0000
0000
,
0000
0000
0000
0011
0000
1000
0101
0010
1000
0001
0010
1100
0010
0100
0011
1000
,
0000
0000
0000
1001
0000
0001
1010
0100
0010
0001
1000
0011
0100
0001
1100
0000
,
0010
0000
0000
0101
0000
0000
1100
0010
1000
0001
0100
1010
0001
1000
0011
0100
,
0000
0000
0000
0011
0000
1000
0101
0010
1000
0001
0010
1100
0001
0100
0011
0000
,
0100
0000
0000
1100
0000
0000
0011
1000
0001
0000
0100
1001
0010
0000
0011
0000
,
1000
0100
0010
1001
0100
0000
0110
0000
1000
0000
0001
1010
0100
0000
0021
0000
,
2030
3000
0000
0110
0000
0010
1100
0001
0100
0010
1000
0011
0100
0010
1100
0010
,
0000
0000
0000
1010
0000
1000
0101
0010
1000
0001
0100
1001
0010
1000
0120
0000
,
0031
0000
2000
3110
0002
0000
0213
0000
2300
0000
3002
1010
0203
0000
0321
0000
,
2030
0000
0000
0011
0000
0000
3012
0000
0103
0000
0000
1200
0010
0301
0210
0000
,
1300
0000
0002
0113
2000
0000
3120
0000
0032
0000
2003
0101
3020
0000
1230
0000
,
0302
0000
0003
1100
0000
0000
1100
0000
0010
0000
0000
0021
1000
0130
1002
0000
,
0103
0000
0020
1031
0200
0000
2301
0000
3020
0000
0230
0011
2300
0000
3102
0000
,
0023
0000
0000
0101
0000
0000
0231
0000
1300
0000
0000
0110
0000
0000
0110
0000
,
0001
0000
2000
0101
3020
0000
1032
0000
0203
0000
0320
0101
0030
0000
1100
0010
,
0001
0000
0000
0110
0001
0100
1010
0100
0001
0000
0000
1000
0100
0010
0100
0000
,
1002
0000
0000
0110
0000
0000
1010
0100
0010
0000
1000
0110
1000
0000
1100
0010
,
0000
0000
0000
0110
0000
0010
1100
0010
2103
0000
0010
0101
0010
0001
0110
0001
,
3020
0000
0000
0101
0000
0000
1001
0100
0001
1000
0001
1100
0001
0000
0101
0000
,
0100
1000
0001
1100
0001
0000
1000
0000
0132
0000
0000
0110
1000
0100
1010
0000
,
2103
0000
0100
0011
0100
0000
0011
0000
0001
0100
0001
0110
0000
0000
0011
0000
,
3210
0000
0000
0011
0000
0010
1001
0010
0001
0000
1001
0000
1000
0011
1000
0001
,
0320
0000
0000
0000
0000
0000
0101
0000
0000
0000
2000
0000
3101
0000
2000
3000
2000
0000
0000
3000
2000
0000
0101
3000
2000
0000
0000
0000
0101
3000
2000
0000
,
0000
0000
3000
0101
0100
1000
0101
1000
0000
0000
0000
1100
0001
1000
0101
0000
,
0132
0000
0000
1010
0000
0100
1010
0100
0010
0000
0100
1010
0100
0000
1010
0100
,
0010
0000
0000
0110
0000
1000
0110
1000
0213
0000
1000
0011
1000
0000
0011
1000
,
0320
0000
0000
1001
0000
0000
1100
0001
0100
1000
0100
1001
0100
0000
1100
0000
,
0001
0000
0100
1001
0100
0000
1100
0000
0132
0000
0000
1010
0100
1000
0110
0000
,
1023
0000
1000
0101
1000
0000
1100
0000
0001
1000
0001
1100
0000
0000
1001
0000
,
0230
0000
0000
0011
0000
0010
1001
0010
2301
0000
0100
0011
0100
0000
0101
0010
,
3200
0000
0000
0000
0000
0000
1001
0000
0000
0000
0002
0000
1010
0003
0002
0003
0002
0000
0000
0003
0002
0000
1010
0003
0002
0000
0000
0000
1010
0003
0002
0000
,
0000
0000
0000
0000
1000
0003
1010
0000
0001
0000
0010
0000
1001
0000
0010
0000
0002
0000
0000
0000
0000
0000
1010
0000
0013
0000
1000
0000
0011
0000
0000
0000
,
1310
0000
0100
0010
0000
0100
0010
0000
1000
0001
1000
0000
1000
0001
0010
1000
,
0010
0000
0010
0100
0000
0100
0010
0001
0100
0001
0100
0000
0001
0000
0010
1000
,
0010
0000
0010
1000
0000
1000
0010
0000
0010
0100
0010
0000
0100
0001
0100
0000
,
0001
0000
0001
1000
0000
1000
0001
0000
0010
0100
1000
0100
0010
0000
0100
0010
,
1001
0000
0010
1001
0000
0100
1001
0000
0001
0000
0100
1010
0001
0100
1010
0000
,
0100
0000
0010
0101
0000
0010
0101
0000
0010
0100
0001
1010
0100
0001
1010
0000
,
1000
0000
0010
0101
0000
0010
0101
0000
1000
0000
0001
1010
0100
0001
1010
0001
,
0010
0000
0100
0000
0000
0100
0000
0000
0100
0000
0000
0001
0100
0020
0000
0000
1032
0000
0000
0000
0200
0000
1010
0000
2300
0000
0010
0000
0110
0000
0100
0000
,
3010
0000
1000
0110
1000
0000
1100
0010
0000
0000
0200
1010
2300
0010
3110
0103
,
0012
0000
0100
1010
0100
1000
0110
1000
0203
0001
0002
1023
0032
0000
1010
0010
,
1003
0001
1000
0011
1000
0000
1010
0000
0010
0001
1000
0011
1000
0000
0001
0000
,
2320
0000
0032
0123
0130
0002
0213
0000
3012
0000
0320
1100
0130
0000
1100
0000
,
1000
0010
1000
0110
0200
0320
2130
0000
3223
0000
0000
1301
0000
0100
1001
0100
,
1000
0000
0000
0000
1001
0000
0000
0000
0001
0000
1100
0000
0001
0000
1000
0000
0230
0000
0000
0000
0000
0000
1010
0000
0000
0000
0002
0000
1013
0000
0002
0003
,
0002
0000
0000
0003
0002
0000
1010
0003
0002
0000
0000
0000
1010
0003
0002
0000
0000
0000
0000
0000
0023
0000
1001
0000
1000
0000
0001
0000
1001
0000
0031
0000
,
2000
0000
0000
3000
2000
0000
0011
3000
2000
0000
3001
0000
2010
0000
3000
0000
2310
0000
0000
0000
0000
0000
0101
0000
0000
0000
0010
0000
0101
0000
0010
0000
,
0100
0000
0010
0101
0010
0000
0101
0010
0100
0000
0002
0110
0203
0001
0011
0010
,
3021
0000
1300
0101
0100
0001
1100
0001
0230
0000
0020
1032
0023
0000
1001
1030
,
0020
0032
0023
1001
1000
0000
1001
0030
1000
0000
0010
1001
0010
0000
0011
0000
,
2320
0032
0023
0132
0023
0032
0123
0000
3201
0000
0032
1010
0010
0000
1010
0000
,
1000
0010
1000
1010
0000
0000
1010
0000
0320
0000
0000
1103
0000
0100
1001
0100
,
1032
0000
0000
0000
0020
0000
1100
0030
0020
0000
0000
0030
1020
0000
0100
0030
0023
0000
0000
0000
0000
0000
1001
0000
0000
0000
2000
0000
0101
3000
2000
3000
,
2000
0000
0000
3000
2000
0000
0101
3000
2000
0000
0000
0000
0101
3000
2000
0000
0000
0000
0000
0000
0000
3000
0101
0000
0000
0000
0000
0000
1001
0000
0000
0000
,
0000
0000
0000
0101
0100
0001
1100
0000
0132
0000
0000
0000
0000
0003
0000
0000
,
0102
0000
0000
0000
0000
0003
0000
0000
0102
0000
0000
0000
0000
0003
0000
0000
,
0102
0003
0000
0000
;

//---------------dance-single - ----------------
#NOTEDATA:;
#CHARTNAME:;
#STEPSTYPE:dance-single;
#DESCRIPTION:;
#CHARTSTYLE:;
#DIFFICULTY:Hard;
#METER:10;
#RADARVALUES:0.397917,0.365457,0.069117,0.317939,0.152058,403.000000,393.000000,10.000000,46.000000,0.000000,0.000000,0.000000,0.000000,0.000000,0.397917,0.365457,0.069117,0.317939,0.152058,403.000000,393.000000,10.000000,46.000000,0.000000,0.000000,0.000000,0.000000,0.000000;
#CREDIT:;
#NOTES:
0000
0000
0000
0000
,
0000
0000
0000
0000
,
0000
0000
0000
0000
0000
0000
0010
0000
1000
0000
0010
0000
0100
0010
0100
0000
,
0001
0000
0000
0000
1000
0000
0010
0000
1000
0000
0001
0000
0100
0001
0100
0000
,
0010
0000
0000
0000
1000
0000
0001
0000
0010
0000
0001
0000
0010
0001
0010
0000
,
0001
0000
0000
0000
1000
0000
0010
0000
0100
0000
0001
0000
0100
0001
0100
0000
,
0010
0000
1000
0001
1000
0010
0200
0000
,
0310
1000
0001
0010
0001
1000
0010
0100
,
0010
0000
0000
0000
1000
0000
0001
0000
1000
0000
0010
0000
0100
0010
0100
0000
,
0010
0000
0000
0000
1000
0000
0001
0000
0010
0001
0010
0000
0001
0000
0000
0000
,
1000
0010
0100
0100
0010
1000
0001
0010
,
0002
0000
1003
0010
0200
0000
0310
0000
,
1001
0001
0010
0001
1000
0010
0100
0001
,
2000
3001
0020
0130
,
1001
0001
0010
0001
1000
0010
0100
0001
,
2000
0000
3010
0100
0002
0000
0013
0000
,
0001
1000
0010
1000
0001
0100
0010
1000
,
0002
1003
2000
3010
,
0110
0000
0000
0000
0001
0000
1000
0000
0010
0000
0100
0000
0001
0100
0001
0000
,
2000
0000
0000
0000
3001
0000
0000
0000
0010
0000
0100
0000
0001
1000
0001
0000
,
0020
0000
0031
0000
0001
1000
0010
0100
,
0001
0100
0001
0000
1000
0000
0001
0000
0020
0000
0000
0000
0031
0000
0000
0000
,
0001
0000
0010
1000
0020
0000
0000
0030
1000
0010
2000
0000
0000
0000
3010
0000
,
0100
0000
0000
0000
0010
0000
1000
0000
0001
0000
1000
0000
0001
1000
0001
0000
,
2000
0000
3010
0100
0001
0100
0001
0010
,
0001
0000
1000
0010
0100
0000
0010
1000
,
1001
0000
0000
0000
0010
0000
0100
0000
0001
0000
0010
0000
0001
0010
0001
0000
,
2000
0000
0000
0000
3010
0000
0100
0000
0001
0000
1000
0000
0010
0100
0010
0000
,
2000
0000
3001
0001
0010
0001
1000
0010
,
0100
0001
1000
0100
0020
0000
0031
0000
,
0011
0000
0001
1000
0002
0000
0000
0003
1000
0001
2000
0000
0000
0000
3001
0000
,
0100
0000
0000
0000
0010
0000
1000
0000
0001
0000
0010
0000
0001
1000
0001
0000
,
0200
0000
0000
0000
0310
0000
1000
0000
0001
0000
0010
0000
0001
1000
0001
0000
,
0100
0010
1000
0001
0020
0000
0031
0000
,
0001
0000
0001
1000
0000
1000
0001
0000
0000
0001
1000
0000
0001
0000
0000
0000
,
0001
0000
0001
0100
0000
0100
0001
0000
0000
0001
0100
0000
0001
0000
0000
0000
,
0001
0000
0001
1000
0000
1000
0001
0000
0000
0010
1000
0000
0010
0000
0000
0000
,
1000
0000
1000
0001
0000
0001
0010
0000
0100
0000
1000
0000
0010
0000
0000
0000
,
0001
0000
0001
1000
0000
1000
0001
0000
0000
0000
0010
0000
0100
0000
0000
0000
,
0001
0000
0001
1000
0000
1000
0001
0000
0000
0000
0001
0000
0010
0000
0000
0000
,
0001
0000
0001
1000
0000
1000
0001
0000
0000
0000
0100
0000
0100
0000
0000
0000
,
0010
0000
0010
1000
,
0010
0000
0100
0000
0001
0100
0001
0000
2000
0000
0000
0000
3010
0000
0100
0000
,
0001
0000
0010
0000
0001
1000
0001
0000
0200
0000
0000
0000
0310
0000
1000
0000
,
0001
0010
0001
1000
0010
0100
0001
1000
,
0002
0000
0000
0000
0013
0000
0000
0000
1001
0000
0010
0100
0020
0000
0000
0030
,
0100
0010
0200
0000
0000
0000
0310
0000
1000
0000
0000
0000
0001
0000
0010
0000
,
0001
0000
1000
0000
0010
1000
0010
0000
0200
0000
0000
0000
0310
0000
1000
0000
,
0001
0010
0001
1000
0002
0000
0103
0000
,
0020
0000
1030
0000
2001
0000
3001
0100
,
0010
0000
0100
0000
0001
0100
0001
0000
0200
0000
0000
0000
0310
0000
1000
0000
,
0001
0000
0010
0000
0001
0010
0001
0000
0020
0000
0000
0000
0031
0000
1000
0000
,
0010
0100
0001
1000
0010
0100
0001
1000
,
0020
0000
0000
0000
0230
0000
0000
0000
0301
0000
0010
0001
0020
0000
0000
0000
,
0031
1000
0002
0000
0000
0000
0103
0000
0010
0000
0000
0000
1000
0000
0001
0000
,
0100
0001
1000
0010
0200
0000
0310
1000
,
0001
0001
0010
0001
2000
0000
3010
0100
,
0020
0130
2002
3003
,
2002
3003
2002
3003
;

//---------------dance-single - ----------------
#NOTEDATA:;
#CHARTNAME:;
#STEPSTYPE:dance-single;
#DESCRIPTION:;
#CHARTSTYLE:;
#DIFFICULTY:Medium;
#METER:7;
#RADARVALUES:0.244872,0.266187,0.034559,0.338674,0.000000,248.000000,243.000000,5.000000,49.000000,0.000000,0.000000,0.000000,0.000000,0.000000,0.244872,0.266187,0.034559,0.338674,0.000000,248.000000,243.000000,5.000000,49.000000,0.000000,0.000000,0.000000,0.000000,0.000000;
#CREDIT:;
#NOTES:
0000
0000
0000
0000
,
0000
0000
0000
0000
,
0000
0000
0000
0000
1000
0001
1000
0010
,
0100
0000
0010
0000
1000
0001
0010
0001
,
1000
0000
0010
0000
0100
0000
0001
1000
,
0001
0000
0100
0000
0010
0000
1000
0001
,
0010
0000
0001
0000
1000
0010
1000
0000
,
0001
0100
0001
0000
1000
0000
0001
0000
,
1001
0000
0010
0000
0100
0000
0001
0010
,
0001
1000
0010
0100
,
0001
0000
1000
0000
1000
0010
1000
0000
,
0002
1000
0000
0103
,
1000
0010
0100
0000
0001
0000
1000
0000
,
0020
0100
1030
0001
,
1000
0000
0001
0010
0001
0000
1000
0000
,
0020
0100
1030
1000
,
0001
0000
1000
0000
0010
0000
0100
0001
,
0200
0301
0001
1000
,
0002
0000
1003
0000
0010
0000
0010
1000
,
0002
0000
0013
0000
1000
0000
0001
1000
,
0002
0013
2000
3001
,
0020
0130
0002
1003
,
0010
1000
0001
0001
,
2000
0000
3010
0000
0100
0010
0100
0000
,
0002
0013
2000
3010
,
0220
0330
0010
0001
,
2000
3010
0001
0100
,
0002
1003
0010
0100
,
0002
0013
2000
3001
,
0020
0130
2000
3001
,
0010
0100
0001
1000
,
0002
0013
1000
0001
,
2000
3010
0001
0100
,
0002
1003
0020
0031
,
0001
0001
0001
0001
,
1000
0000
1000
0000
0010
1000
0010
0000
,
1000
1000
0001
0001
,
1000
0000
1000
0000
0001
1000
0001
0000
,
0100
0100
0001
0001
,
0010
0000
0010
0000
1000
0001
1000
0000
,
0010
0010
0100
0100
,
0001
0000
0001
1000
,
0001
0000
0100
0001
0200
0000
0310
0000
,
1000
0000
0001
0010
0002
0000
0013
0000
,
1000
0001
1000
0010
,
0200
0310
0001
1000
,
0001
0010
0001
0000
2000
0000
3001
0000
,
0010
0100
0020
1030
,
2000
0000
3001
0000
2002
0000
0000
3003
,
0001
0010
0200
0310
,
0001
0000
1000
0001
2000
0000
3010
0000
,
0001
0000
0010
0001
0020
0000
0031
0000
,
0020
0130
2000
3001
,
0020
0130
0001
1000
,
0001
0010
0001
0000
2000
0000
3001
0000
,
0020
0130
0220
0330
,
0010
0010
0220
0330
,
0001
0001
0002
0003
,
2000
3000
0002
0003
,
2000
3000
0000
0000
;

//---------------dance-single - ----------------
#NOTEDATA:;
#CHARTNAME:;
#STEPSTYPE:dance-single;
#DESCRIPTION:;
#CHARTSTYLE:;
#DIFFICULTY:Easy;
#METER:4;
#RADARVALUES:0.149095,0.157587,0.006912,0.096764,0.000000,151.000000,150.000000,1.000000,14.000000,0.000000,0.000000,0.000000,0.000000,0.000000,0.149095,0.157587,0.006912,0.096764,0.000000,151.000000,150.000000,1.000000,14.000000,0.000000,0.000000,0.000000,0.000000,0.000000;
#CREDIT:;
#NOTES:
0000
0000
0000
0000
,
0000
0000
0000
0000
,
0000
1000
0010
1000
,
1000
0000
0001
1000
,
0001
0000
0010
0100
,
0010
0000
0010
1000
,
0010
0000
0001
0001
,
1000
1000
0010
0100
,
0001
0000
0010
0010
,
1000
0000
0001
1000
,
0001
0001
0100
0100
,
0020
0000
0130
0000
,
1000
0001
1000
0010
,
2000
0000
3001
0000
,
0001
0010
0001
1000
,
0002
0000
0103
0000
,
1000
0010
1000
0000
,
0002
0000
1003
0000
,
2000
0000
3010
0000
,
0001
0000
1000
1000
,
0002
0000
0013
0000
,
0020
0000
1030
0000
,
1000
0000
0001
1000
,
0002
0000
0013
0000
,
2000
0000
3010
0000
,
0001
0000
1000
0000
,
1001
0000
0001
0010
,
0001
0000
1000
0010
,
1000
0000
0001
0001
,
1000
1000
0020
0000
,
0130
0000
0001
0000
,
0001
0000
1000
0010
,
2000
0000
3010
0000
,
0002
0000
1003
0000
,
0100
0000
0100
0000
,
0100
0000
0010
0010
,
1000
0000
1000
0000
,
1000
0000
1000
1000
,
0001
0000
0001
0000
,
0010
0000
0100
0100
,
0010
0000
0001
0000
,
0001
0000
1000
0000
,
0010
0010
1000
0000
,
0001
0001
0100
0000
,
0010
1000
0010
0010
,
1000
0000
0001
0000
,
1000
0000
0001
0000
,
0010
0010
0001
0000
,
0100
0010
0010
0000
,
0002
0000
1003
0000
,
0010
0010
0100
0000
,
1000
0001
1000
0000
,
0010
0100
0010
0010
,
1000
0000
0001
1000
,
0001
0000
0010
0001
,
0010
0000
1000
0000
,
0010
0100
0002
0000
,
1003
0000
0000
0000
;

//---------------dance-single - ----------------
#NOTEDATA:;
#CHARTNAME:;
#STEPSTYPE:dance-single;
#DESCRIPTION:;
#CHARTSTYLE:;
#DIFFICULTY:Beginner;
#METER:2;
#RADARVALUES:0.088865,0.099356,0.006912,0.000000,0.000000,90.000000,89.000000,1.000000,0.000000,0.000000,0.000000,0.000000,0.000000,0.000000,0.088865,0.099356,0.006912,0.000000,0.000000,90.000000,89.000000,1.000000,0.000000,0.000000,0.000000,0.000000,0.000000,0.000000;
#CREDIT:;
#NOTES:
// measure 0
0000
0000
0000
0000
,  // measure 1
0000
0000
0000
0000
,  // measure 2
1000
0000
0001
0000
,  // measure 3
0010
0000
0000
0000
,  // measure 4
0001
0000
1000
0000
,  // measure 5
0010
0000
0000
0000
,  // measure 6
1000
0000
0001
0000
,  // measure 7
0010
0000
0000
0000
,  // measure 8
0010
0000
1000
0000
,  // measure 9
0001
0000
0000
0000
,  // measure 10
0010
0000
0010
0000
,  // measure 11
0010
0000
0000
0000
,  // measure 12
1000
0000
0001
0000
,  // measure 13
1000
0000
0000
0000
,  // measure 14
0010
0000
1000
0000
,  // measure 15
0100
0000
0000
0000
,  // measure 16
0100
0000
0001
0000
,  // measure 17
0100
0000
0000
0000
,  // measure 18
1000
0000
0000
0000
,  // measure 19
1000
0000
0001
0000
,  // measure 20
0001
0000
0000
0000
,  // measure 21
1000
0000
0010
0000
,  // measure 22
0010
0000
0000
0000
,  // measure 23
1000
0000
0001
0000
,  // measure 24
0001
0000
0000
0000
,  // measure 25
1000
0000
1000
0000
,  // measure 26
1000
0000
0000
0000
,  // measure 27
0010
0000
0001
0000
,  // measure 28
0001
0000
0000
0000
,  // measure 29
1000
0000
0010
0000
,  // measure 30
1000
0000
0000
0000
,  // measure 31
0001
0000
0010
0000
,  // measure 32
0010
0000
0000
0000
,  // measure 33
1000
0000
1000
0000
,  // measure 34
0001
0000
0001
0000
,  // measure 35
0001
0000
0001
0000
,  // measure 36
1000
0000
1000
0000
,  // measure 37
1000
0000
1000
0000
,  // measure 38
0010
0000
0010
0000
,  // measure 39
0010
0000
0010
0000
,  // measure 40
1000
0000
1000
0000
,  // measure 41
1000
0000
0001
0000
,  // measure 42
0001
0000
1000
0000
,  // measure 43
1000
0000
0010
0000
,  // measure 44
0010
0000
1000
0000
,  // measure 45
1000
0000
0001
0000
,  // measure 46
0001
0000
1000
0000
,  // measure 47
0010
0000
1000
0000
,  // measure 48
0000
0000
1000
0000
,  // measure 49
0000
0000
1000
0000
,  // measure 50
1000
0000
0001
0000
,  // measure 51
0000
0000
0010
0000
,  // measure 52
0001
0000
1000
0000
,  // measure 53
1000
0000
0010
0000
,  // measure 54
0000
0000
1000
0000
,  // measure 55
0000
0000
0001
0000
,  // measure 56
0000
0000
1001
0000
,  // measure 57
0000
0000
0010
0000
;
