#VERSION:0.83;
#TITLE:Humph;
#SUBTITLE:;
#ARTIST:Pentagon;
#TITLETRANSLIT:;
#SUBTITLETRANSLIT:;
#ARTISTTRANSLIT:;
#GENRE:;
#ORIGIN:;
#CREDIT:;
#BANNER:AV.avi;
#BACKGROUND:BG.png;
#PREVIEWVID:;
#JACKET:jacket.jpg;
#CDIMAGE:;
#DISCIMAGE:;
#LYRICSPATH:;
#CDTITLE:;
#MUSIC:humph.mp3;
#OFFSET:-0.387000;
#SAMPLESTART:58.700001;
#SAMPLELENGTH:15.000000;
#SELECTABLE:YES;
#BPMS:0.000=132.970;
#STOPS:;
#DELAYS:;
#WARPS:;
#TIMESIGNATURES:0.000=4=4;
#TICKCOUNTS:0.000=4;
#COMBOS:0.000=1;
#SPEEDS:0.000=1.000=0.000=0;
#SCROLLS:0.000=1.000;
#FAKES:;
#LABELS:0.000=Song Start;
#BGCHANGES:0.000=MV.avi=1.000=1=0=1===CrossFade==,
99999=-nosongbg-=1.000=0=0=0 // don't automatically add -songbackground-
;
#KEYSOUNDS:;
#ATTACKS:
;

//---------------dance-single - ----------------
#NOTEDATA:;
#CHARTNAME:;
#STEPSTYPE:dance-single;
#DESCRIPTION:;
#CHARTSTYLE:;
#DIFFICULTY:Challenge;
#METER:15;
#RADARVALUES:0.832219,0.927615,0.630684,0.381730,0.858893,702.000000,626.000000,76.000000,46.000000,0.000000,5.000000,0.000000,0.000000,0.000000,0.832219,0.927615,0.630684,0.381730,0.858893,702.000000,626.000000,76.000000,46.000000,0.000000,5.000000,0.000000,0.000000,0.000000;
#CREDIT:;
#NOTES:
0000
0000
0000
0000
,
0000
0000
0000
0000
,
0000
0000
0000
0000
,
0000
0000
0000
0000
,
1001
0000
0000
0000
0010
0100
0000
0100
,
1001
0100
0000
0100
0000
0010
0000
0100
,
1001
0000
0000
0000
0000
0100
0010
0100
,
1001
0000
0000
0000
0000
0000
0000
0000
0000
0000
0000
0000
0000
0000
0000
0000
1000
0100
0000
0000
0010
0000
0000
0000
2000
0000
0000
0000
0001
0000
0000
0000
,
3120
0000
0000
0000
0130
1000
0000
0000
1001
0010
0000
0000
0002
0000
0000
0003
,
1100
0000
0000
0000
0010
0100
0000
0000
1001
0010
0000
0000
0200
0000
0000
0300
,
1001
0000
1000
0100
1001
0000
0001
0100
,
1010
0001
0100
0010
1100
0001
0010
0000
,
1001
0000
0000
0000
0010
0000
0000
0000
0001
1000
0000
0000
0020
0000
0000
0030
,
1001
0000
0000
0000
1000
0100
0000
0000
0020
0000
0030
0000
0002
0000
0000
0000
,
1013
0100
0010
0001
0010
0100
0001
1000
,
0012
0000
1003
0000
0100
0000
0021
0000
1000
0030
0001
0000
0100
0000
0000
0000
,
1002
0000
0000
0000
0010
0000
0000
0000
0103
0000
0000
0000
1000
0100
0010
0000
0100
0000
1000
0000
0100
0000
0010
0000
0001
0000
0000
0000
0100
0000
0000
0000
,
0002
0000
0000
0000
1000
0100
0010
0000
0103
0000
0010
0000
0001
0010
0100
0000
1000
0000
0100
0000
0010
0000
0001
0000
1000
0000
0001
0000
0100
0000
1000
0000
,
0020
0000
0000
0000
0001
0000
0000
0000
1030
0000
0000
0000
1000
0100
0010
0000
0100
0000
0001
0000
1000
0000
0010
0000
0000
0000
0000
0000
1000
0000
0000
0000
,
0100
0000
0000
0000
0010
1000
0001
0010
0100
0000
1000
0000
0001
0010
1000
0000
0100
0000
0010
0000
0001
0000
1000
0000
0100
0000
0001
0000
0010
0000
1000
0000
,
0100
0000
0000
0000
0001
0000
0000
0000
1000
0000
0000
0000
0001
0100
1000
0010
0100
0000
0001
0000
0100
0000
1000
0000
0010
0000
0000
0000
0001
0000
0000
0000
,
0010
0000
0000
0000
0100
1000
0001
0010
0100
0000
0001
0000
0010
1000
0001
0000
0100
0000
1000
0000
0001
0000
0010
0000
0100
0000
1000
0000
0010
0000
0001
0000
,
1000
0000
0000
0000
0100
0000
0000
0000
0010
0000
0000
0000
0100
0001
1000
0100
0010
0000
0001
0000
1000
0000
0100
0000
0001
0000
0000
0000
0001
0000
0000
0000
,
1000
0000
0000
0000
0010
0001
1000
0010
0100
0000
1000
0000
0001
0000
0010
0000
1000
0000
0100
0000
0010
0000
0001
0000
0200
0000
0000
0000
0001
0000
0300
0000
,
1010
1001
0110
1010
,
1001
0101
0011
1001
,
0011
0101
0110
0101
,
1010
0000
1100
0000
1010
0100
1001
0010
,
0101
1000
0100
0011
0100
1010
0001
0100
,
1001
0100
0001
1010
0100
0011
0100
0010
,
1000
0100
0010
0001
0010
0100
0001
1000
,
0010
0000
0000
0000
0000
0000
0000
0000
0000
0000
0000
0000
0001
0000
0000
0000
0000
0000
0000
0000
0000
0000
0000
0000
0100
0000
0000
0000
0000
0000
0000
0000
0000
0000
0000
0000
1000
0000
0000
0000
0000
0000
0000
0000
0000
0000
0000
0000
0001
0000
0000
0000
0000
0000
0000
0000
0000
0000
0000
0000
0100
0000
0000
0000
0000
0000
0000
0000
0000
0000
0000
0000
0010
0000
0000
0000
0000
0000
0000
0000
0000
0000
0000
0000
1000
0000
0000
0000
0000
0000
0000
0000
0000
0000
0000
0000
0100
0000
0000
0000
0000
0000
0010
0000
0000
0000
0000
0000
0001
0000
0000
0000
0000
0000
1000
0000
0000
0000
0000
0000
0100
0000
0000
0000
0000
0000
0000
0000
0000
0000
0000
0000
0000
0000
0000
0000
0000
0000
0000
0000
0000
0000
0000
0000
1002
0000
0000
0000
0000
0000
0000
0000
0000
0000
0000
0000
0000
0000
0000
0000
0000
0000
0000
0000
0000
0000
0000
0000
0000
0000
0000
0000
0000
0000
0000
0000
0003
0000
0000
0000
0000
0000
0000
0000
0000
0000
0000
0000
0000
0000
0000
0000
,
0100
0000
0000
0000
1020
0000
0000
0030
0100
0000
0001
0000
0100
0000
0010
0000
,
0100
0000
0000
0000
1000
0100
0010
0100
1002
0000
0000
0000
0100
0000
0003
0000
1000
0000
0000
0000
0100
0000
0000
0000
1000
0000
0000
0000
0110
0000
1001
0000
,
0110
0000
0000
0000
1002
0000
0010
0003
0100
0000
0001
0000
1000
0000
0010
0000
,
0100
0000
0000
0000
0010
0001
0010
0100
2000
0000
0000
0000
3100
0000
0000
0000
0010
0000
0000
0000
0001
0000
0000
0000
0010
0000
0000
0000
1100
0000
0011
0000
,
1100
0000
1000
0010
0100
1000
0100
0010
,
0001
0000
0000
0000
1000
0001
0100
0010
0002
0000
0000
0000
0010
0000
0003
0000
0100
0000
0000
0000
0001
0000
0000
0000
1000
0000
0000
0000
0110
0000
1001
0000
,
0110
0000
0000
0000
1002
0000
0010
0003
0100
0000
0001
0000
1000
0000
0010
0000
,
1001
0000
0000
0000
0100
1000
0100
0010
0002
0000
0000
0000
0100
0000
0003
0000
1000
0000
0100
0000
0010
0000
0000
0000
1000
0000
0000
0000
0010
0000
0000
0000
,
0100
0000
0000
0000
0001
0000
0000
0000
1000
0000
0000
0000
0100
0010
1000
0100
0010
0000
0100
0000
0001
0000
1000
0000
0100
0000
0000
0000
0010
0000
0000
0000
,
0100
0000
0001
0000
1000
0100
0010
0001
0100
0000
1000
0000
0010
0000
0100
0000
0001
0000
1000
0000
0100
0000
0001
0000
0010
0000
0100
0000
1000
0000
0000
0000
,
0001
0000
0000
0000
0100
0000
0000
0000
0010
0000
0000
0000
1000
0100
0001
0010
0100
0000
0001
0000
1000
0000
0010
0000
0001
0000
0000
0000
0100
0000
0000
0000
,
0010
0000
0000
0000
1000
0100
0010
0001
0010
0000
0100
0000
1000
0000
0001
0000
0100
0000
0010
0000
1000
0000
0100
0000
0001
0000
0010
0000
0001
0000
1000
0000
,
0110
0000
0000
0000
0001
0000
0000
0000
1000
0000
0000
0000
0100
0010
1000
0100
0010
0000
0100
0000
0001
0000
1000
0000
0101
0000
0000
0000
0010
0000
0000
0000
,
0100
0000
0001
0000
1000
0100
0010
0001
0100
0000
1000
0000
0010
1000
0100
0000
0001
0000
1000
0000
0100
0000
0001
0000
0010
0000
0100
0000
1000
0000
0000
0000
,
0001
0100
0010
1000
0001
0100
0010
0100
,
1001
0000
0010
0000
0100
0000
0010
0000
0100
0000
0001
0000
1000
0000
0010
0000
0100
0001
0010
0100
1000
0000
0000
0000
1100
0000
0000
0000
0000
0000
0000
0000
,
0110
0000
0000
0000
1020
0000
0000
0030
0100
0000
0001
0000
0100
0000
0010
0000
,
0100
0000
0000
0000
1000
0100
0010
0100
2002
0000
0000
0000
3200
0000
0003
0000
2300
0000
0000
0000
3200
0000
0000
0000
2300
0000
0000
0000
3110
0000
1001
0000
,
0120
0000
0000
0030
1002
0000
0023
0000
0230
0000
0302
0000
2003
0000
3020
0000
,
0230
0000
0000
0000
0310
0001
0010
0100
2000
0000
0000
0000
3200
0000
0000
0000
0320
0000
0000
0000
0032
0000
0000
0000
0023
0000
0000
0000
1130
0000
0011
0000
,
1200
0000
2300
0010
3100
1000
0100
0010
,
0001
0000
0000
0000
1000
0001
0100
0010
1002
0000
0000
0000
0010
0000
0003
0000
0100
0000
0000
0000
0001
0000
0000
0000
1000
0000
0000
0000
0110
0000
1001
0000
,
0110
0000
0000
0000
1002
0000
0010
0003
0100
0000
0001
0000
1000
0000
0010
0000
,
1001
0000
0000
0000
0100
1000
0100
0010
0002
0000
0000
0000
0100
0000
0003
0000
1000
0000
0000
0000
0010
0000
0000
0000
1000
0000
0000
0000
0010
0000
0000
0000
,
0100
0000
0000
0000
0001
0000
0000
0000
1000
0000
0000
0000
0100
0010
1000
0100
0010
0000
0100
0000
0001
0000
1000
0000
0100
0000
0000
0000
0010
0000
0000
0000
,
0100
0000
0001
0000
1000
0100
0010
0001
0100
0000
1000
0000
0010
1000
0100
0000
0001
0000
1000
0000
0100
0000
0001
0000
0010
0000
0100
0000
1000
0000
0010
0000
,
0001
0000
0000
0000
0100
0000
0000
0000
0010
0000
0000
0000
1000
0100
0001
0010
0100
0000
0001
0000
1000
0000
0010
0000
0001
0000
0000
0000
0100
0000
0000
0000
,
0010
0000
0000
0000
1000
0100
0010
0001
0010
0000
1000
0000
0100
0001
1000
0000
0010
0000
0001
0000
1000
0000
0010
0000
0001
0000
1000
0000
0100
0000
0001
0000
,
0010
0000
0000
0000
0100
0000
0000
0000
0010
0000
0000
0000
1000
0010
0001
0010
0100
0000
1000
0000
0010
0000
1000
0000
0001
0000
0000
0000
1000
0000
0000
0000
,
0010
0000
0000
0000
0100
1000
0010
0100
0001
0000
1000
0000
0010
1000
0001
0000
0100
0000
0010
0000
0001
0000
0100
0000
1000
0000
0100
0000
0010
0000
0001
0000
,
0100
0000
0000
0000
0010
0000
0000
0000
1000
0000
0000
0000
0100
1000
0100
0000
0001
0000
1000
0000
0010
0000
0001
0000
0100
0000
0000
0000
0001
0000
0000
0000
,
1000
0000
0000
0000
0100
1000
0010
0001
0010
0100
1000
0000
0010
0000
0001
0000
0100
0000
1000
0000
0010
0000
0100
0000
0010
0000
0000
0000
1001
0000
0000
0000
;

//---------------dance-single - Copied from----------------
#NOTEDATA:;
#CHARTNAME:Copied from;
#STEPSTYPE:dance-single;
#DESCRIPTION:Copied from;
#CHARTSTYLE:;
#DIFFICULTY:Hard;
#METER:10;
#RADARVALUES:0.480126,0.503562,0.182567,0.315342,0.037343,405.000000,383.000000,22.000000,38.000000,0.000000,0.000000,0.000000,0.000000,0.000000,0.480126,0.503562,0.182567,0.315342,0.037343,405.000000,383.000000,22.000000,38.000000,0.000000,0.000000,0.000000,0.000000,0.000000;
#CREDIT:Copied from;
#NOTES:
// measure 0
0000
0000
0000
0000
,  // measure 1
0000
0000
0000
0000
,  // measure 2
0000
0000
0000
0000
,  // measure 3
0000
0000
0000
0000
,  // measure 4
1001
0000
0000
0000
0010
0100
0000
0100
,  // measure 5
0101
0100
0000
0100
0000
0010
0000
0100
,  // measure 6
1001
0000
0000
0000
0000
0100
0010
0100
,  // measure 7
1001
0000
0000
0000
0000
0000
0000
0000
0000
0000
0000
0000
0000
0000
0000
0000
0010
0100
0000
0000
0010
0000
0000
0000
2000
0000
0000
0000
0001
0000
0000
0000
,  // measure 8
3020
0000
0000
0000
0130
0010
0000
0000
0001
0010
0000
0000
0002
0000
0000
0003
,  // measure 9
0010
0000
0000
0000
0100
0010
0000
0000
0001
0100
0000
0000
0020
0000
0000
0000
,  // measure 10
1030
0000
0001
0010
0100
0000
1000
0010
,  // measure 11
0001
1000
0010
0100
0001
1000
0100
0000
,  // measure 12
1001
0000
0000
0000
0100
0000
0000
0000
0100
0001
0000
0000
0200
0000
0000
0000
,  // measure 13
1300
0000
0000
0000
0001
0010
0000
0000
0200
0000
0300
0000
2000
0000
0000
0000
,  // measure 14
3001
0010
0100
1000
0100
0010
0001
0010
,  // measure 15
2100
0000
3001
0000
0010
0000
1200
0000
0001
0300
0010
0000
0100
0000
0000
0000
,  // measure 16
2001
0000
3100
0010
0100
0001
0100
0000
,  // measure 17
2000
0000
3100
0010
0001
0100
0010
0000
,  // measure 18
0002
0000
0103
0010
0100
0000
1000
0100
,  // measure 19
0010
0001
0010
0100
0010
0000
0100
0000
,  // measure 20
1001
0000
0100
1000
0100
0010
0001
0000
,  // measure 21
0020
0000
0130
0010
0100
1000
0100
0000
,  // measure 22
0100
0010
0100
0001
0100
0000
1000
0100
,  // measure 23
0010
0001
0010
0100
0010
1000
0010
0100
,  // measure 24
1000
0100
0010
1000
0001
0010
0100
0010
,  // measure 25
0001
1000
0020
0000
0030
0000
0100
0010
,  // measure 26
0100
1000
0100
0010
0001
0010
0100
0010
,  // measure 27
1000
0010
0200
0000
0300
0010
0001
0010
,  // measure 28
0101
0100
0010
0100
0002
0100
1003
0100
,  // measure 29
0010
1000
0001
0100
0020
0100
1030
0100
,  // measure 30
0010
0001
0100
0010
1000
0001
0100
0010
,  // measure 31
1000
0100
0010
0100
0002
0000
2003
0000
,  // measure 32
3001
0000
1002
0000
1003
0100
0010
0001
,  // measure 33
0010
0000
2000
0100
3010
0010
0100
0010
,  // measure 34
0100
0000
0002
1000
0103
0100
0010
1000
,  // measure 35
0001
0000
2000
3100
0010
0001
0010
0100
,  // measure 36
0010
0000
1000
0001
0100
0100
0010
1000
,  // measure 37
0001
0000
0020
0100
1030
0100
0010
0001
,  // measure 38
0010
0000
2000
0100
3010
1000
0001
0100
,  // measure 39
0010
0000
2000
0100
3010
0100
0010
1000
,  // measure 40
0001
0000
0200
0000
0010
0300
1000
0100
,  // measure 41
0000
0000
1000
0100
0010
0001
0010
0100
,  // measure 42
0000
0000
0002
0000
1000
0000
0103
0010
,  // measure 43
0000
0000
2000
0000
3010
0100
0001
1000
,  // measure 44
1001
0000
0010
1000
0000
0000
0010
0000
0100
0000
0000
0000
1000
0000
0100
0000
,  // measure 45
0010
0000
1000
0100
0000
0000
0100
0000
0010
0000
0000
0000
0002
0000
0000
0000
,  // measure 46
0103
0010
1000
0100
0010
0001
0010
0100
,  // measure 47
1001
0110
1100
0110
,  // measure 48
1001
0000
0120
0000
1030
0100
0010
0001
,  // measure 49
0010
0000
0000
0000
0002
0000
1000
0003
0100
0000
0010
0000
0001
0000
0010
0000
,  // measure 50
0100
0000
0000
0000
0002
0000
1000
0003
0100
0000
0100
0000
0010
0000
1000
0000
,  // measure 51
0010
0000
0100
0010
0001
0010
0100
1000
,  // measure 52
0002
0000
0203
0000
1300
0100
0010
0001
,  // measure 53
0010
0000
2000
0100
3010
1000
0010
0100
,  // measure 54
0010
0000
0000
0000
0020
0000
0001
0030
0100
0000
0010
0000
1000
0000
0010
0000
,  // measure 55
0100
0000
0000
0000
2000
0000
0100
3000
0010
0000
0001
0000
0010
0000
0100
0000
,  // measure 56
1001
0100
0010
1000
0010
0100
0001
0010
,  // measure 57
0000
0000
1000
0100
0010
0001
0010
0100
,  // measure 58
1001
0100
1000
0100
0010
0100
0001
1000
,  // measure 59
0000
0000
0100
0010
1000
0010
0100
0001
,  // measure 60
0100
0010
1000
0001
0010
0100
0010
0100
,  // measure 61
0000
0000
1000
0100
0010
0001
0010
0100
,  // measure 62
0010
0000
0100
0000
1000
0100
0010
0001
,  // measure 63
0010
0000
0100
0000
1001
0000
0000
0110
;

//---------------dance-single - Copied from Copied f----------------
#NOTEDATA:;
#CHARTNAME:Copied from Copied f;
#STEPSTYPE:dance-single;
#DESCRIPTION:Copied from Copied f;
#CHARTSTYLE:;
#DIFFICULTY:Medium;
#METER:6;
#RADARVALUES:0.266737,0.265033,0.099582,0.016597,0.000000,225.000000,213.000000,12.000000,2.000000,0.000000,0.000000,0.000000,0.000000,0.000000,0.266737,0.265033,0.099582,0.016597,0.000000,225.000000,213.000000,12.000000,2.000000,0.000000,0.000000,0.000000,0.000000,0.000000;
#CREDIT:Copied from Copied f;
#NOTES:
0000
0000
0000
0000
,
0000
0000
0000
0000
,
0000
0000
0000
0000
,
0000
0000
0000
0000
,
1001
0000
0000
0000
,
1010
0000
0000
0000
,
0101
0000
0000
0000
,
1100
0000
0000
0000
,
0110
1000
0100
0000
,
1001
0010
0100
0000
,
0011
1000
0100
0010
,
1000
0010
0100
0001
,
1000
0100
0010
0000
,
1001
0100
0010
0000
,
0011
1000
0100
0010
,
1000
0010
0100
0000
,
1000
0100
0010
0001
,
0010
1000
0100
0100
,
0010
0001
0010
0100
,
0010
1000
0010
0100
,
1000
0100
0010
0001
,
0010
0100
1000
0010
,
0100
0100
0010
0001
,
1000
1000
0010
0100
,
1000
1000
0100
0100
,
0010
0010
0001
0001
,
0010
0010
0100
0100
,
1000
1000
0100
0100
,
0010
0100
0002
0103
,
1000
0010
2000
3010
,
0100
0010
0100
0001
,
1000
1000
0010
0100
,
1001
0010
0100
0100
,
0010
0001
0100
0100
,
0010
1000
0100
0100
,
0010
1000
0001
1000
,
0010
0100
0010
0010
,
0100
0001
1000
1000
,
0010
0100
0001
0001
,
0100
0010
1000
0001
,
0100
0010
0100
0000
,
1000
0001
1000
0000
,
0100
0010
0100
0000
,
1000
0001
1000
0000
,
0110
1000
0001
0000
,
0101
0010
0100
0000
,
1000
0100
0010
0001
,
0010
0010
0100
0100
,
0010
0000
1000
0100
,
0010
0001
0010
0100
,
0010
1000
0010
0100
,
0010
1000
0100
0010
,
1000
1000
0100
0010
,
0001
0010
0100
0100
,
0010
1000
0001
0001
,
0100
0010
1000
0001
,
0100
0100
0100
0000
,
1000
0010
0100
0001
,
0100
0100
0100
0000
,
0010
1000
0001
0010
,
0001
0001
0001
0000
,
0100
0010
1000
0001
,
0100
0100
0010
0010
,
1000
0000
1000
0000
0001
0000
0000
0001
;

//---------------dance-single - Copied from Copied f----------------
#NOTEDATA:;
#CHARTNAME:Copied from Copied f;
#STEPSTYPE:dance-single;
#DESCRIPTION:Copied from Copied f;
#CHARTSTYLE:;
#DIFFICULTY:Easy;
#METER:3;
#RADARVALUES:0.188494,0.210781,0.024895,0.000000,0.000000,159.000000,156.000000,3.000000,0.000000,0.000000,0.000000,0.000000,0.000000,0.000000,0.188494,0.210781,0.024895,0.000000,0.000000,159.000000,156.000000,3.000000,0.000000,0.000000,0.000000,0.000000,0.000000,0.000000;
#CREDIT:Copied from Copied f;
#NOTES:
0000
0000
0000
0000
,
0000
0000
0000
0000
,
0000
0000
0000
0000
,
0000
0000
0000
0000
,
1000
0000
0000
0000
,
0001
0000
0000
0000
,
0100
0000
0000
0000
,
0010
0000
0000
0000
,
0100
0000
0100
0000
,
0010
0000
0010
0000
,
0001
0000
0001
0000
,
0100
0000
0100
0000
,
1000
0000
1000
0000
,
0010
0000
0010
0000
,
0001
0000
0001
0000
,
0100
0000
0100
0000
,
0010
0010
0010
0000
,
0100
0100
0100
0000
,
1000
0001
1000
0000
,
0010
0100
0010
0000
,
0001
0010
0001
0000
,
0100
1000
0100
0000
,
0010
1000
0010
0000
,
0100
0001
0100
0000
,
1000
0100
0010
0000
,
0010
0001
0010
0000
,
0100
0001
0100
0000
,
1000
0001
1000
0000
,
0110
0000
0001
0000
,
1010
0000
0100
0000
,
0001
0001
0100
0100
,
0010
0100
0010
0000
,
1000
0000
0001
0001
,
0010
0000
0100
0100
,
0010
0000
1000
1000
,
0001
0000
0100
0010
,
0100
0000
0001
0001
,
0010
0000
0100
1000
,
0010
0000
0100
0100
,
0001
0000
1000
0010
,
0100
0000
0100
0000
,
0010
0000
0010
0000
,
0001
0000
0001
0000
,
0100
0000
0100
0000
,
1001
0000
0010
0000
,
0100
0000
0010
0000
,
1000
0000
0010
0000
,
0100
0100
0010
0010
,
0100
0000
1000
1000
,
0001
0000
0100
0100
,
0010
0000
0001
0001
,
0010
0000
1000
0001
,
1000
0000
0100
0100
,
0010
0000
0001
0001
,
0010
0000
0100
0100
,
1000
0000
0010
0100
,
0001
0000
0010
0000
,
1000
0100
0100
0010
,
0001
0000
0010
0000
,
1000
0100
0100
0010
,
0001
0000
0010
0000
,
0100
0010
0010
1000
,
0001
0000
0010
0100
,
0010
0000
1000
0000
;

//---------------dance-single - Copied from Copied f----------------
#NOTEDATA:;
#CHARTNAME:Copied from Copied f;
#STEPSTYPE:dance-single;
#DESCRIPTION:Copied from Copied f;
#CHARTSTYLE:;
#DIFFICULTY:Beginner;
#METER:1;
#RADARVALUES:0.096025,0.130701,0.000000,0.000000,0.000000,81.000000,81.000000,0.000000,0.000000,0.000000,0.000000,0.000000,0.000000,0.000000,0.096025,0.130701,0.000000,0.000000,0.000000,81.000000,81.000000,0.000000,0.000000,0.000000,0.000000,0.000000,0.000000,0.000000;
#CREDIT:Copied from Copied f;
#NOTES:
0000
0000
0000
0000
,
0000
0000
0000
0000
,
0000
0000
0000
0000
,
0000
0000
0000
0000
,
1000
0000
0000
0000
,
0001
0000
0000
0000
,
0100
0000
0000
0000
,
0010
0000
0000
0000
,
0100
0000
0100
0000
,
1000
0000
1000
0000
,
0100
0000
0100
0000
,
0001
0000
0001
0000
,
0010
0000
0010
0000
,
0100
0000
0100
0000
,
1000
0000
1000
0000
,
0010
0000
0000
0000
,
1000
0000
0000
0000
,
0001
0000
0000
0000
,
1000
0000
0000
0000
,
0001
0000
0000
0000
,
0100
0000
0000
0000
,
0010
0000
0000
0000
,
1000
0000
0000
0000
,
0001
0000
0000
0000
,
0100
0000
0000
0000
,
0010
0000
0000
0000
,
0001
0000
0000
0000
,
1000
0000
0000
0000
,
0100
0000
0100
0000
,
0010
0000
0010
0000
,
0001
0000
0001
0000
,
0100
0000
0100
0000
,
0000
0000
1000
0000
,
1000
0000
0010
0000
,
0010
0000
0001
0000
,
0001
0000
0100
0000
,
0100
0000
0010
0000
,
0010
0000
1000
0000
,
1000
0000
0001
0000
,
0001
0000
0000
0000
,
0100
0000
0000
0000
,
0010
0000
0000
0000
,
0100
0000
0000
0000
,
1000
0000
0000
0000
,
0001
0000
0000
0000
,
1000
0000
0000
0000
,
1000
0000
0000
0000
,
1000
0000
0000
0000
,
1000
0000
0000
0000
,
1000
0000
0000
0000
,
0001
0000
0000
0000
,
1000
0000
0000
0000
,
0001
0000
0000
0000
,
0010
0000
0000
0000
,
1000
0000
0000
0000
,
0001
0000
0000
0000
,
0010
0000
0010
0000
,
0100
0000
0000
0000
,
1000
0000
1000
0000
,
0100
0000
0000
0000
,
0010
0000
0010
0000
,
0001
0000
0000
0000
,
0100
0000
0100
0000
,
0010
0000
0000
0000
;
