#TITLE:Heart Shaker;
#SUBTITLE:;
#ARTIST:TWICE;
#TITLETRANSLIT:;
#SUBTITLETRANSLIT:;
#ARTISTTRANSLIT:;
#GENRE:;
#CREDIT:;
#BANNER:AV.avi;
#BACKGROUND:bg.png;
#LYRICSPATH:;
#CDTITLE:;
#MUSIC:audio.mp3;
#OFFSET:-0.020000;
#SAMPLESTART:47.259998;
#SAMPLELENGTH:18.000000;
#SELECTABLE:YES;
#BPMS:0.000000=163.880005
,32.000000=81.940002
,34.000000=163.880005
,126.000000=81.940002
,128.000000=164.000000
,192.000000=82.000000
,194.000000=41.000000
,203.000000=81.940002
,217.000000=40.970001
,218.000000=164.300003
,306.500000=163.880005
;
#STOPS:
;
#BGCHANGES:0.000=MV.avi=0.700=1=1=1=StretchRewind==CrossFade==,
2.500=MV.avi=1.000=0=0=1=====,
194.000=MV.avi=0.900=0=0=1=====,
195.500=MV.avi=1.000=0=0=1=====,
99999=-nosongbg-=1.000=0=0=0 // don't automatically add -songbackground-
;
#KEYSOUNDS:;
#ATTACKS:;

//---------------dance-single - ----------------
#NOTES:
     dance-single:
     :
     Challenge:
     16:
     0.948204,1.778874,1.666667,0.423977,0.467836,908.000000,680.000000,228.000000,58.000000,0.000000,47.000000,0.948204,1.778874,1.666667,0.423977,0.467836,908.000000,680.000000,228.000000,58.000000,0.000000,47.000000:
0000
0000
0000
0000
,
0000
0000
0000
0000
,
0000
0000
0000
0000
,
0000
0000
0000
0000
,
0000
0000
0000
0000
,
1000
0010
0100
0001
0010
0100
1000
0100
,
0010
0001
1000
0010
0100
0001
1000
0100
,
0010
1000
0100
0010
0001
0100
0010
0100
1000
0001
0010
0100
0001
0010
1000
0100
,
0001
1000
0010
0000
0100
0000
0001
0000
1001
0000
1000
0000
0110
0000
0010
0000
,
0100
0001
1000
0011
0100
1001
0100
0010
,
1001
1000
0110
0000
0101
0010
1100
0001
,
0100
0000
0001
1100
0010
0101
0001
1000
,
0110
0100
1001
0000
1020
0001
1130
0200
,
0001
1300
0110
1001
2000
0110
3101
0002
,
0110
1003
0101
0010
2001
0001
0110
3020
,
0001
0130
0012
1100
0103
0021
0101
1030
,
0010
1100
0011
1100
0101
0010
1001
0001
,
0000
0010
1000
0101
0010
1001
1000
0010
,
1100
0001
0011
1000
0110
0001
1010
1000
,
0100
0001
1000
0110
0100
1001
1000
0010
,
1100
0001
1010
0000
0002
1000
0113
2000
,
0001
3100
0010
1100
2000
0011
3100
0002
,
1100
0000
0103
0000
1001
0000
0100
0000
1000
0001
0100
1000
0010
0100
0001
1000
,
0010
0001
0100
0010
1000
0100
0010
0001
0100
1000
0010
0001
0100
0010
1000
0001
,
0100
1000
0100
0010
0001
0100
0010
0100
1001
0000
0000
0000
1001
0000
0000
0000
,
0110
0000
1100
1100
,
0120
0000
1032
1010
,
0110
0003
0000
0110
1100
0110
1100
0110
,
1100
0110
0000
0000
0011
1000
0101
1000
,
0011
0100
0110
1000
1100
0010
1100
0001
,
0110
0000
1001
1001
,
1001
0000
0000
0000
1001
0000
0000
0000
1001
0000
0100
0000
0010
0100
0000
0001
,
1100
0010
1001
1100
0001
0010
1001
0100
,
0010
1100
1001
0100
0011
0001
1100
0010
,
0101
1000
0100
1100
0001
0010
1100
0001
,
0100
1001
0101
0010
1001
0010
0101
0001
,
1010
0100
0010
1100
0100
0001
0101
0010
,
1000
0101
0010
0001
1010
0010
1100
0001
,
1010
0100
0010
1001
0010
0100
0011
1000
,
0100
0001
0100
1000
0100
0001
0010
0100
0010
1000
0001
0100
0010
1000
0001
0100
,
1010
1000
0101
0110
0001
1000
0101
0010
,
1000
0110
0101
0010
1001
0001
0110
1000
,
0011
0100
0010
0110
0001
1000
0110
0001
,
0010
0101
0011
1000
0101
1000
0011
0001
,
1100
0010
1000
0110
0010
0001
0011
1000
,
0100
0011
1000
0001
1100
1000
0110
0001
,
1100
0010
1000
0101
1000
0010
1001
0100
,
0010
1000
0100
0001
0010
1000
0100
0001
0010
1000
0100
0001
0010
0100
0001
0010
,
1000
0000
0001
0000
0100
0000
1000
0000
0010
0000
0001
0000
0100
0000
1000
0000
0001
0000
0100
0000
0010
0000
0001
0000
1000
0000
0100
0000
0001
0000
1000
0000
0102
0000
0000
0000
1000
0000
0000
0000
1000
0000
0000
0000
1000
0000
0000
0010
0203
0000
0000
1000
0000
0000
0000
0010
0000
0000
0000
0000
0000
0010
0000
0000
,
0302
0000
0000
0000
0000
0010
0000
0100
0000
0000
0000
0000
0000
0000
1000
0000
0203
0000
0000
0010
0000
0000
0000
1000
0000
0000
0000
0001
0000
0000
0000
0000
0321
0000
0000
0000
0001
0000
0000
0000
0001
0000
1000
0000
0001
0000
0100
0000
0001
0000
0000
0000
0001
0000
1000
0000
0000
0000
0100
0000
0000
0000
1000
0000
,
0230
0000
0010
1000
0000
1000
0000
0010
2300
0000
0000
3002
0000
0020
0003
2030
0000
0000
0000
0000
0000
0010
0100
0010
0101
0000
0000
0000
0011
0000
3000
0000
,
0110
0000
1001
0000
1100
0000
1100
0000
0110
0001
1000
0010
1100
0000
0110
0000
,
0101
0000
0011
0000
1010
0000
1010
0000
0101
0010
0100
0010
1100
0011
1100
0011
,
1100
0000
0011
0000
1100
0000
0011
0000
1100
0000
0011
0000
1100
0000
0011
0000
1100
0000
0011
0000
1100
0000
0011
0000
1100
0010
0001
0010
1000
0100
0001
1000
,
0010
1000
0001
0100
0010
1000
0001
0010
1001
0000
0100
0000
0010
1000
0000
0001
2100
0000
0000
0000
0010
0000
0000
0000
0011
0000
0000
0000
0110
0000
0000
0000
,
0001
0010
0101
0100
0010
0110
0011
0100
,
3021
0001
2130
0010
0101
0010
0100
3101
,
2001
3010
1100
0001
0100
1001
0101
0010
,
2001
0010
3201
0001
1310
0100
0010
1100
,
2100
0001
3102
0010
1003
0101
0010
0001
,
1010
0010
1100
0001
1010
0100
0010
1001
,
0010
0000
0100
0000
0011
0000
1000
0000
0100
0001
0100
1000
0100
0001
0010
0100
,
0010
1000
0001
0100
0010
1000
0001
0100
1010
0000
1000
0000
2001
0000
0110
0000
,
3020
1000
0132
0023
1030
2010
0101
3010
,
1001
0001
0110
1000
0011
0100
0010
0110
,
0001
1000
0110
0001
0010
0101
0021
1000
,
0231
1000
1301
0002
0110
1000
0100
1010
,
1000
0010
1103
0100
0010
1001
0100
0001
,
0110
0100
1010
0001
0110
1000
0100
0011
,
0100
0000
1000
0000
0101
0000
0010
0000
1000
0100
0010
0001
1000
0100
0010
0001
,
1000
0100
0010
0001
1000
0010
0001
1000
0021
0000
0100
0000
0031
0000
2010
0000
,
0100
3010
1020
1000
0032
0110
1003
2000
,
0110
3100
1002
0100
1023
0001
2030
0110
,
3020
0001
2130
0010
3200
1001
0320
1000
,
1032
0100
1013
0010
2001
0010
0100
3012
,
1000
0103
1020
0001
2030
0110
3001
0002
,
1010
0103
1001
0100
1010
0001
0100
1010
,
0100
0001
1010
0100
1001
1000
0010
0001
,
1000
0010
0100
0001
1000
0000
0000
0000
;

//---------------dance-single - Copied from----------------
#NOTES:
     dance-single:
     Copied from:
     Hard:
     11:
     0.480368,0.573830,0.336257,0.153509,0.010965,460.000000,414.000000,46.000000,21.000000,0.000000,0.000000,0.480368,0.573830,0.336257,0.153509,0.010965,460.000000,414.000000,46.000000,21.000000,0.000000,0.000000:
// measure 0
0000
0000
0000
0000
,  // measure 1
0000
0000
0000
0000
,  // measure 2
0000
0000
0000
0000
,  // measure 3
0000
0000
0000
0000
,  // measure 4
0000
0000
0000
0000
,  // measure 5
0001
0100
0010
1000
0100
0010
0001
0010
,  // measure 6
0100
1000
0001
0100
0010
1000
0001
0010
,  // measure 7
0100
0001
0010
0100
0010
0100
0001
0100
,  // measure 8
0010
1000
0100
0000
0010
0000
0001
0000
1001
0000
0001
0000
1000
0000
0001
0000
,  // measure 9
1000
0000
0000
1000
0000
1000
0100
0010
,  // measure 10
0001
0010
0100
0000
0100
0010
0100
0010
,  // measure 11
0100
1000
0100
0010
0000
0001
0010
0100
,  // measure 12
0001
0100
0010
0000
1000
0100
1000
0010
,  // measure 13
1000
0001
1000
0000
0010
1000
0100
1000
,  // measure 14
0001
1000
0010
0000
1000
0100
0010
0001
,  // measure 15
0010
0100
1000
0010
0100
0010
1000
0001
,  // measure 16
0010
0100
1000
0001
0100
0010
1000
0001
,  // measure 17
0000
0100
1000
0001
1000
0010
1000
0001
,  // measure 18
0000
0010
0100
0001
1000
0100
0010
0001
,  // measure 19
0000
0100
1000
0001
0100
0010
1000
0001
,  // measure 20
0000
0010
0100
0000
0012
0000
0013
0000
,  // measure 21
2010
3010
0120
0130
,  // measure 22
1002
0000
1003
0000
1000
0100
0010
0001
,  // measure 23
0010
0100
1000
0010
0100
0001
1000
0100
,  // measure 24
0010
0011
0100
0100
,  // measure 25
0110
0000
0001
0001
,  // measure 26
1001
0000
0010
0010
,  // measure 27
1010
0000
0000
1000
0000
1000
0000
1000
,  // measure 28
0000
1000
0000
0000
0001
1000
0001
1000
,  // measure 29
0001
0000
0010
0100
0010
0100
0010
0100
,  // measure 30
0010
0000
1000
1000
,  // measure 31
0100
0100
0010
0000
,  // measure 32
1001
0000
0010
1000
0000
1000
0010
0000
,  // measure 33
0010
0100
0010
0100
0010
0000
0011
0000
,  // measure 34
0001
0000
0001
0010
0000
0010
0001
0000
,  // measure 35
0011
1100
1001
0110
,  // measure 36
0001
0000
0001
1000
0000
1000
0001
0000
,  // measure 37
0001
1000
0001
0000
1000
0000
1001
0000
,  // measure 38
0010
0000
0010
0100
0000
0100
0010
0000
,  // measure 39
1000
0100
0010
0001
0010
0000
0011
0000
,  // measure 40
0100
0000
0100
1000
0000
1000
0010
0000
,  // measure 41
0010
1000
0000
1000
0010
0000
0110
0000
,  // measure 42
0001
0000
0001
1000
0000
1000
0010
0000
,  // measure 43
1000
0100
0010
0001
0010
0000
0011
0000
,  // measure 44
0100
1000
0001
1000
0100
0000
1001
0000
,  // measure 45
0010
0100
0001
0100
0010
0000
1001
0000
,  // measure 46
0010
1000
0001
0000
0010
0100
0010
0001
,  // measure 47
1000
0100
0010
0100
1000
0001
0100
0000
,  // measure 48
1002
0000
2003
3020
,  // measure 49
0230
0302
2003
3020
,  // measure 50
0230
0302
2000
3003
,  // measure 51
0100
0000
1000
1000
1010
0000
0001
0001
,  // measure 52
0101
0000
0010
0010
0110
0000
1000
0100
,  // measure 53
0010
0000
0001
0000
0010
0000
0100
0000
1000
0000
0001
0000
1000
0001
1000
0001
,  // measure 54
1000
0001
1001
0000
1001
0000
0100
0001
,  // measure 55
0000
0001
0100
0000
0100
0010
0100
0010
,  // measure 56
0100
0000
1100
0000
1000
0000
1000
0100
,  // measure 57
0000
0100
1000
0000
1100
0000
0011
0000
,  // measure 58
1001
0000
0110
0000
1000
0000
1000
0001
,  // measure 59
0000
0001
1000
0000
1000
0001
1000
0000
,  // measure 60
0001
0000
1001
0000
0100
0000
0100
0010
,  // measure 61
0000
0010
0100
0000
0001
0010
0100
1000
,  // measure 62
0100
0000
1100
0000
0010
0000
0010
0001
,  // measure 63
0000
0001
0100
0000
0100
0001
0000
0001
,  // measure 64
0100
0000
0110
0000
1000
0000
1000
0001
,  // measure 65
0000
0001
0100
0000
0001
0010
0100
1000
,  // measure 66
0100
0000
1100
0000
0010
0001
1000
0001
,  // measure 67
0010
0000
1001
0000
0100
0010
1000
0010
,  // measure 68
0100
0000
1001
0000
0100
0001
1000
0000
,  // measure 69
0100
0010
0100
1000
0001
0010
0100
0010
,  // measure 70
0001
1000
0010
0000
1002
0000
1003
0000
,  // measure 71
0120
0130
0012
0013
,  // measure 72
2001
3001
0010
0100
,  // measure 73
0120
0130
0001
1000
,  // measure 74
0012
0000
0013
0000
0010
1000
0001
1000
,  // measure 75
0010
0000
1001
0000
0010
0100
0001
0100
,  // measure 76
0010
0000
1001
0000
0100
1000
0100
0000
,  // measure 77
0010
0100
0010
0000
0002
0000
1000
0000
,  // measure 78
0100
0013
0001
0000
;

//---------------dance-single - Copied from Copied f----------------
#NOTES:
     dance-single:
     Copied from Copied f:
     Medium:
     7:
     0.331036,0.459064,0.226608,0.000000,0.000000,317.000000,286.000000,31.000000,0.000000,0.000000,0.000000,0.331036,0.459064,0.226608,0.000000,0.000000,317.000000,286.000000,31.000000,0.000000,0.000000,0.000000:
0000
0000
0000
0000
,
0000
0000
0000
0000
,
0000
0000
0000
0000
,
0000
0000
0000
0000
,
0000
0000
0000
0000
,
1000
1000
0001
0001
,
1000
1000
0010
0010
,
0100
0100
0010
0010
,
1000
1000
1000
1000
0001
0000
1000
0000
,
0001
0010
0001
0001
,
0100
0100
1000
0100
,
0010
0010
1000
1000
,
0001
0000
0001
0000
0100
0000
0000
0100
,
0000
0000
0010
0000
1000
0000
0000
1000
,
0000
0010
0100
0100
,
0001
0001
1000
1000
,
0010
0010
0100
0001
,
0100
0000
0010
0000
1000
0001
1000
0000
,
0010
0010
0100
0001
,
0100
0000
0010
0000
1000
0001
1000
0000
,
0100
0000
0100
0000
0010
0000
0000
0010
,
0000
0000
0100
0000
0001
0000
0000
0001
,
0000
1000
0100
0100
,
0010
0010
1000
1000
,
0100
0100
0010
0010
,
0100
0000
0001
0001
,
1000
0000
1000
1000
,
0010
0000
0100
0100
,
0010
0000
0001
0001
,
1000
0000
0100
0100
,
0010
0000
1000
1000
,
1000
1000
1001
0000
,
1001
0010
0100
0001
,
1000
0010
0100
0001
,
1000
1000
1000
0010
,
0100
1001
1001
0010
,
0100
0100
0010
1000
,
0001
0001
0100
1000
,
0010
0100
0001
1000
,
0010
0010
0100
0010
,
1000
1001
0010
0100
,
0001
1001
0010
0100
,
0001
0010
0100
1000
,
0010
1100
1100
0010
,
0100
0100
0010
0010
,
1000
1000
0001
0001
,
0100
0010
0100
0010
,
1000
1001
1001
1001
,
0000
0000
1001
0000
,
1100
0000
0110
1001
,
0011
0000
1100
0000
0110
0000
1000
1000
,
1000
0000
0010
0010
0010
0000
0100
0100
,
0100
0000
0001
0001
0001
0000
0100
0010
,
0100
0000
1000
0001
1000
0000
0100
0100
,
0100
0100
0100
0000
1001
0000
0100
0000
,
0010
1000
0001
0100
,
0010
1000
0100
0010
,
0001
1000
0010
1000
,
0100
0010
0001
1000
,
0010
0100
1000
0001
,
0010
0100
0001
1000
,
0100
0010
1000
0001
,
1000
0001
0100
0010
,
1000
0100
0001
1000
,
0100
0010
0001
1000
,
0010
0100
0001
1100
,
1100
0010
0100
0100
,
0010
0010
1000
1000
,
0001
0001
0100
0010
,
0100
0001
1000
0010
,
0100
0000
0001
0000
1001
0000
0000
0110
,
0000
0000
1100
0000
1100
0000
0000
0110
,
0000
0001
0001
1000
,
1000
0001
0001
1000
,
1000
0000
0000
0000
0011
0000
0000
1100
,
0000
0000
0110
0000
1001
0000
0000
0110
,
0000
0000
0100
0100
,
0010
0010
1000
0001
,
1000
0001
0001
0000
;

//---------------dance-single - ----------------
#NOTES:
     dance-single:
     :
     Easy:
     4:
     0.199457,0.229532,0.007310,0.007310,0.000000,191.000000,190.000000,1.000000,1.000000,0.000000,0.000000,0.199457,0.229532,0.007310,0.007310,0.000000,191.000000,190.000000,1.000000,1.000000,0.000000,0.000000:
0000
0000
0000
0000
,
0000
0000
0000
0000
,
0000
0000
0000
0000
,
0000
0000
0000
0000
,
0000
0000
0000
0000
,
0001
0010
0100
0000
,
1000
0100
0010
0000
,
0001
1000
0001
1000
,
0001
0000
0100
0000
,
0010
0000
1000
1000
,
0001
0000
0100
0000
,
0010
0000
0001
0001
,
1000
0000
0000
0000
0100
0000
0000
0100
,
0000
0000
0000
0000
0010
0000
0000
0010
,
0000
0000
0000
0000
0001
0000
0000
0001
,
0000
0000
0001
0000
0000
0001
0000
0000
,
0000
1000
0100
0010
,
0100
0000
1000
1000
,
0010
0000
0100
0100
,
0010
0000
0001
0001
,
1000
0000
0000
0000
0100
0000
0000
0100
,
0000
0000
0000
0000
1000
0000
0000
1000
,
0000
0000
0000
0000
0010
0000
0000
0010
,
0000
0000
0100
0000
0000
0100
0000
0000
,
0001
0001
1000
1000
,
0000
0000
0100
0100
,
0000
0000
0010
0010
,
0000
0000
0001
0001
,
0000
0000
0100
0100
,
0010
0000
1000
1000
,
0001
0000
0100
0100
,
0100
0100
0100
0000
,
1000
0100
0000
0100
,
0000
0010
0000
0010
,
0000
0100
0000
0100
,
0000
0001
0001
0000
,
1000
1000
0010
0000
,
0100
0100
0001
0000
,
0010
0010
0001
0000
,
1000
1000
0100
0000
,
0001
1000
0001
0000
,
0100
0010
0100
0000
,
1000
1000
0001
0001
,
0100
0100
0010
0000
,
1000
0001
1000
0000
,
0100
0010
0100
0000
,
0001
0100
1000
0010
,
0001
0000
0100
0000
,
2001
0000
3100
0000
,
0100
0000
0001
0000
,
1000
0000
0000
0100
,
0100
0100
0000
0010
,
0010
0010
0000
0001
,
0001
0001
0000
1000
,
1000
0000
1000
0000
,
0100
0000
1000
0000
,
0100
0000
0010
0000
,
0001
0000
0100
0000
,
0010
0000
1000
1000
,
1000
0000
0001
0000
,
0001
0000
0100
0100
,
0100
0000
0010
0000
,
1000
0000
0100
0000
,
0001
0000
0010
0000
,
0100
0000
1000
0000
,
0010
0000
0100
0001
,
0100
0000
1000
0010
,
1000
0000
0001
0100
,
0001
0000
1000
0000
,
1000
0000
0010
0000
,
0010
0000
0000
0000
0100
0000
0000
0100
,
0000
0000
1000
0000
1000
0000
0000
0010
,
0000
0001
0001
0000
,
0000
1000
1000
0000
,
0000
0000
0000
0000
0100
0000
0000
0100
,
0000
0000
0010
0000
0010
0000
0000
0010
,
0000
0000
1000
0000
,
0100
0000
0010
0000
,
0001
0001
0001
0000
;

//---------------dance-single - Copied from----------------
#NOTES:
     dance-single:
     Copied from:
     Beginner:
     2:
     0.156642,0.200841,0.000000,0.014620,0.000000,150.000000,150.000000,0.000000,2.000000,0.000000,0.000000,0.156642,0.200841,0.000000,0.014620,0.000000,150.000000,150.000000,0.000000,2.000000,0.000000,0.000000:
0000
0000
0000
0000
,
0000
0000
0000
0000
,
0000
0000
0000
0000
,
0000
0000
0000
0000
,
0000
0000
0000
0000
,
1000
0000
1000
0000
,
0100
0000
0100
0000
,
0020
0000
0000
0000
,
0130
0000
1000
0000
,
0000
0000
1000
0000
,
0000
0000
0001
0000
,
0000
0000
0100
0000
,
0000
0000
0000
0000
0010
0000
0000
0010
,
0000
0000
0000
0000
0001
0000
0000
0001
,
0000
0000
0000
0000
1000
0000
0000
1000
,
0000
0000
0000
0000
0100
0000
0000
0100
,
0000
0000
1000
0000
,
0010
0000
0100
0100
,
0001
0000
1000
0000
,
0010
0000
0100
0100
,
0001
0000
0000
0000
0001
0000
0000
0001
,
0000
0000
0000
0000
1000
0000
0000
1000
,
0000
0000
0000
0000
0100
0000
0000
0100
,
0000
0000
0010
0000
0000
0010
0000
0000
,
0000
0000
1000
1000
,
0000
0000
0100
0100
,
0000
0000
0001
0001
,
0000
0000
0010
0010
,
0000
0000
0100
0000
,
0100
0000
1000
1000
,
1000
0000
0010
0000
,
0010
0000
0001
0000
,
0100
0000
0000
0000
,
1000
0000
0000
0000
,
0010
0000
0010
0000
,
0100
0001
0001
0000
,
1000
0000
0010
0000
,
0100
0100
0010
0000
,
0001
0000
0010
0000
,
1000
0000
0001
0000
,
0100
0001
0000
0000
,
0000
1000
0000
0000
,
0100
0000
0010
0000
,
1000
0001
0001
0000
,
0100
0000
0010
0000
,
1000
0001
1000
0000
,
0100
0000
0010
0000
,
0100
0001
0100
0000
,
0001
0000
1000
0100
,
0010
0001
0100
0000
,
0100
0000
0000
0001
,
0000
0001
0000
0100
,
0000
0100
0000
1000
,
0000
1000
0000
0100
,
0100
0100
0010
0000
,
0000
0000
0100
0000
,
0000
0000
0100
0000
,
0100
0000
0100
0000
,
0000
0000
0001
0000
,
0001
0000
1000
0000
,
0000
0000
0100
0000
,
0100
0000
0010
0000
,
0000
0000
1000
0000
,
1000
0000
0100
0000
,
0100
0000
0010
0000
,
0010
0000
0100
0000
,
0001
0000
1000
0001
,
1000
0000
0100
0010
,
0100
0000
0001
0000
,
0001
0000
1000
0000
,
0010
0000
0000
0000
0100
0000
0000
0100
,
0000
0000
0010
0000
0010
0000
0000
1000
,
0000
0001
0001
0000
,
0000
0010
0010
0000
,
0000
0000
0000
0000
0100
0000
0000
0100
,
0000
0000
1000
0000
1000
0000
0000
0100
,
0000
0000
0010
0000
,
0010
0000
0200
0000
,
0010
0000
0310
0000
;
