#TITLE:Golden Oaks;
#SUBTITLE:;
#ARTIST:Tom Peters & Greg McDonald;
#TITLETRANSLIT:;
#SUBTITLETRANSLIT:;
#ARTISTTRANSLIT:;
#GENRE:;
#CREDIT:;
#BANNER:bn.png;
#BACKGROUND:BG.jpg;
#LYRICSPATH:;
#CDTITLE:;
#MUSIC:audio.ogg;
#OFFSET:-0.047000;
#SAMPLESTART:30.027000;
#SAMPLELENGTH:12.000000;
#SELECTABLE:YES;
#BPMS:0.000000=200.000000
,25.000000=100.000000
,29.000000=200.000000
,221.000000=100.000000
,237.000000=200.000000
;
#STOPS:
;
#BGCHANGES:;
#KEYSOUNDS:;
#ATTACKS:;

//---------------dance-single - ----------------
#NOTES:
     dance-single:
     :
     Challenge:
     12:
     0.605881,0.745065,0.363529,0.659737,0.053856,630.000000,576.000000,54.000000,98.000000,0.000000,0.000000,0.605881,0.745065,0.363529,0.659737,0.053856,630.000000,576.000000,54.000000,98.000000,0.000000,0.000000:
0000
0000
0000
0000
,
0000
0000
0000
0000
,
0000
0000
0000
0000
,
0000
0000
0000
0000
,
0000
0000
0000
0000
,
0000
0000
0000
0000
,
0000
0000
0000
0000
,
0000
0020
0000
0100
,
0030
2000
0000
3020
,
0100
0230
0000
0010
,
0000
0320
0000
2030
,
0001
3002
0000
0100
,
0000
0023
0000
0230
,
1000
2300
0000
0010
,
0000
3020
0000
1000
,
0100
0230
0000
0010
,
0000
0302
0000
0203
,
0010
0302
0000
0100
,
0000
2003
0000
3200
,
0010
0320
0000
0001
,
0000
0230
0000
2300
,
0001
3002
0000
0100
,
0000
0203
0000
0010
,
0000
0000
0320
0000
0100
0000
1000
0230
,
0010
0000
0302
0000
0100
2003
0010
0000
,
3020
0000
0000
0230
0000
0001
0000
1000
0000
0010
0000
0001
,
0000
0010
0000
0302
0000
0000
1000
0000
0000
0100
0000
0000
,
1000
2003
0010
0001
,
3020
0000
0230
0000
0010
0302
0100
0000
,
0203
0000
0000
0320
0000
0100
0000
0001
0000
0100
0000
0001
,
0000
0100
0000
1000
0000
0000
0130
0000
0000
0002
0000
0000
,
1000
2003
0010
0001
,
0100
3200
0010
0320
,
0001
0032
0100
0100
,
1000
2003
0010
0001
,
0100
0000
3020
0000
1000
0230
0010
0000
,
0302
0000
0203
0000
0001
0320
1000
0000
,
2030
3020
0100
0001
,
0100
1000
0100
0031
,
0000
0000
1010
1000
0010
0100
0001
0010
,
0001
0100
0010
1000
0100
0000
0100
0000
,
1000
0010
0100
1000
0100
0001
0100
0010
,
1000
0000
0010
0100
0001
0100
0010
0000
,
1000
0001
1000
0000
0110
0000
0110
0000
,
1000
0001
1000
0010
1000
0100
1000
0000
,
0010
0000
0001
0100
0010
1000
0010
0100
,
0010
0001
0010
0000
0101
0000
0101
0000
,
1000
0000
1001
0001
1000
0010
0100
0001
,
0100
0010
1000
0000
0010
1000
0100
0000
,
0001
1000
1001
0001
0100
0010
1000
0100
,
1000
0000
1000
0001
0010
0001
0100
0000
,
0100
0010
1010
0000
0101
0000
0101
0000
,
0001
1000
0010
0100
0010
1000
0100
0000
,
0010
0000
0110
0100
0001
0100
0010
1000
,
1001
1001
1001
1001
,
1001
0020
1000
0230
,
0001
0000
0000
0000
0000
0000
0000
0000
0000
0000
0000
0000
0320
0000
0000
0000
0030
0000
2000
0000
0000
3020
0000
0000
0230
0000
0000
0000
0302
0000
0000
0000
2003
0000
0000
0000
3002
0000
0000
0000
0000
0000
0000
0000
0000
0000
0000
0000
,
0023
0000
0230
0010
1000
0000
2300
0000
,
0010
0000
0000
0000
0000
0000
3000
0000
0000
0000
0000
0000
0200
0000
0000
0000
0300
0000
0020
0000
0000
2030
0000
0000
3002
0000
0000
0000
0203
0000
0000
0000
0302
0000
0000
0000
2003
0000
0000
0000
0000
0000
0000
0000
0000
0000
0000
0000
,
0010
3010
0100
0001
,
1000
0010
0100
0001
,
0010
1010
0100
0001
,
0010
0100
1000
0010
,
0100
0000
0101
0000
0010
1000
0100
0000
,
1000
0000
0010
0000
0010
1000
0001
0000
,
0100
1001
0010
0100
,
0001
1000
0010
0100
,
0010
0000
1020
0000
1000
0230
0010
0000
,
0302
0000
0100
2003
0100
0000
3002
0000
,
0203
0320
1000
0001
,
0100
2030
0100
0001
,
0010
0000
3002
0000
1000
0203
0001
0000
,
0302
0000
2003
0000
0001
3020
0100
0000
,
0230
0302
0010
1000
,
0100
0010
1000
0010
,
0103
1001
1001
1001
,
1001
1001
1001
1001
,
1001
0101
0101
0101
,
0101
0101
0101
0101
,
0101
0110
0110
0110
,
0110
0110
0110
0110
,
0110
1010
1010
1010
,
1010
1010
1010
1010
,
1010
0000
1000
0001
0100
0001
0000
0010
,
1000
0001
1000
0010
1000
0010
0100
1000
,
0100
0010
1000
0001
1000
0010
0000
0010
,
1000
0100
0010
0001
0010
0001
1000
0010
,
0100
1000
0100
0001
0100
0010
0000
1000
,
0010
0100
0001
1000
0001
0100
0010
0100
,
1000
0100
0001
1000
0001
0100
0000
0100
,
0010
1000
0001
0100
0010
1000
0100
0000
,
0010
0000
1010
1000
0001
1000
0000
0010
,
0100
0001
0100
0001
0100
0001
0010
0100
,
1000
0100
0010
0100
0010
0001
0000
1000
,
0010
0100
0001
0100
0001
1000
0100
0010
,
0001
0010
0001
1000
0010
1000
0000
0010
,
1000
0010
0100
0001
0100
0001
0010
0100
,
1000
0100
0010
0001
0100
0010
0000
0010
,
0100
0010
1000
0001
0010
0100
1000
0100
,
0010
0001
1001
1000
0010
0100
0000
0100
,
0010
0100
0001
1000
0001
0100
0010
0000
,
0001
1000
0010
0100
0001
0100
0000
0010
,
1000
0010
0100
0001
0010
0001
0100
0010
,
1000
0010
0100
0010
1000
0001
0000
0100
,
0001
0100
0010
1000
0001
0100
0010
0000
,
0100
0010
0100
0010
1000
0001
0000
0100
,
0010
1000
0001
0100
0010
1000
0001
0010
,
0100
1000
0020
1000
0100
1030
0000
0010
,
0002
0003
0100
0000
0020
0000
1000
0000
0100
0000
1000
0000
0100
0000
0000
0000
,
0130
0000
0001
0000
2000
0000
0010
0000
0001
3000
0020
0000
0000
0000
1000
0000
,
0230
0300
1000
0000
0002
0000
0100
0000
1000
0000
0010
0000
1003
0000
0000
0000
,
0100
0001
0200
0010
0001
0320
0000
0100
,
0230
0010
0302
0010
1000
0100
0100
0000
,
1000
0100
2003
0010
0001
3020
1000
0100
,
0230
0001
0302
1000
0010
1000
0103
1000
,
0001
1000
0001
1000
0002
0000
0000
0000
0000
0000
0000
0000
0000
0000
0000
0000
,
0000
0000
0003
0000
;

//---------------dance-single - ----------------
#NOTES:
     dance-single:
     :
     Hard:
     9:
     0.454892,0.627423,0.067320,0.612613,0.020196,473.000000,463.000000,10.000000,91.000000,0.000000,0.000000,0.454892,0.627423,0.067320,0.612613,0.020196,473.000000,463.000000,10.000000,91.000000,0.000000,0.000000:
0000
0000
0000
0000
,
0000
0000
0000
0000
,
0000
0000
0000
0000
,
0000
0000
0000
0000
,
0000
0000
0000
0000
,
0000
0000
0000
0000
,
0000
0000
0000
0000
,
0000
0002
0000
0100
,
0000
2003
0000
3020
,
0000
0230
0000
0010
,
0000
0320
0000
2030
,
0000
3002
0000
0100
,
0000
0203
0000
0320
,
0000
0230
0000
0001
,
0000
0320
0000
0100
,
0000
2030
0000
0100
,
0000
3200
0000
0320
,
0000
0032
0000
0010
,
0000
2003
0000
3020
,
0000
0230
0000
0010
,
0000
0302
0000
2003
,
0000
3020
0000
1000
,
0000
0230
0000
0010
,
0000
0302
0000
0010
,
0000
0203
0000
0302
,
1000
0203
0000
0010
,
0000
0302
0000
0100
,
1000
2003
0000
0010
,
0000
3002
0000
0203
,
0010
0320
0000
1000
,
0000
0100
0000
2030
,
0001
3002
0000
0100
,
0000
2003
0000
3020
,
0100
0230
0000
0010
,
0000
0302
0000
0100
,
0010
0000
2003
0000
0000
3020
0000
0000
,
0230
0000
0302
0000
0000
0203
0000
0000
,
0320
2030
0000
0010
,
0000
0100
0000
0001
,
3000
0000
0010
0100
0010
0100
0001
1000
,
0010
0100
0010
1000
,
0001
1000
0001
1000
0010
0100
0001
0000
,
1000
0000
0010
0100
0010
1000
0001
0000
,
0001
1000
0001
0000
0100
0000
0010
0000
,
1000
0010
1000
0010
0100
0001
0010
0000
,
1000
0000
0010
1000
0010
1000
0001
0100
,
0010
0100
0001
0000
1000
0000
0010
0000
,
0100
0000
0001
1000
0001
0100
0010
1000
,
0100
0010
1000
0001
,
0100
0010
0100
0010
1000
0001
0010
0000
,
0100
0000
0001
1000
0010
1000
0001
0000
,
0100
0010
0100
0000
0001
0000
1000
0000
,
0010
1000
0010
0100
0001
0100
0010
0000
,
0001
0000
1000
0010
1000
0010
0100
0010
,
1000
0001
0100
0000
1001
0000
1001
0000
,
1001
0002
0000
0203
,
0000
0000
0000
0000
0000
0000
0000
0000
0000
0000
0000
0000
0320
0000
0000
0000
0000
0000
2030
0000
0000
3002
0000
0000
2003
0000
0000
3000
0020
0000
0000
0000
0230
0000
0000
0000
0320
0000
0000
0000
0000
0000
0000
0000
0000
0000
0000
0000
,
2030
3002
0000
2003
,
0000
0000
0000
0000
0000
0000
3000
0000
0000
0000
0000
0000
0020
0000
0000
0000
0000
0000
0230
0000
0000
0320
0000
0000
0230
0000
0000
0000
0302
0000
0000
0000
2003
0000
0000
0000
3020
0000
0000
0000
0000
0000
0000
0000
0000
0000
0000
0000
,
0000
0130
0000
0001
,
0000
0010
0000
0010
,
1000
0101
0000
0010
,
0000
1000
0000
0001
,
0100
1010
0000
0010
,
0000
0100
0000
0001
,
0010
1010
0000
0100
,
0000
0001
0000
0010
,
0100
0000
1002
0000
0100
0203
0010
0000
,
0320
0000
0230
0000
0010
0320
1000
0000
,
2030
3002
0100
1000
,
0010
0203
0001
1000
,
0010
0000
0320
0000
0100
0230
0001
0000
,
0302
0000
0203
0000
0001
0302
1000
0000
,
0023
0230
0010
0001
,
0010
1000
0010
0001
,
1000
0320
0100
0100
,
0100
2030
0010
3020
,
1000
0230
0010
0010
,
0010
0320
0100
0100
,
0100
0000
2030
0000
0001
3002
0100
0000
,
0203
0000
0302
0000
1000
2003
0010
0000
,
3020
0230
0001
1000
,
0010
0001
0310
1001
,
1001
0000
0010
0100
0010
1000
0000
0010
,
0000
0100
0000
0001
0000
1000
0100
0010
,
0001
0000
0100
0010
0100
0001
0000
1000
,
0000
0100
0000
0001
0000
0010
1000
0010
,
0100
0001
1000
0010
1000
0001
0000
0100
,
0000
0010
0000
1000
0000
0001
0010
0100
,
1000
0000
0010
0100
0010
1000
0000
0001
,
0000
0100
0000
0010
0000
1000
0010
0000
,
0100
0000
0101
0001
1000
0010
0000
0100
,
0000
0001
0000
1000
0000
0010
0100
0001
,
1000
0000
0010
0100
0001
0100
0000
0010
,
0000
1000
0000
0001
0000
0100
0010
1000
,
0001
1000
0100
0010
0001
0100
0000
0010
,
0000
1000
0000
0010
0000
1000
0100
1000
,
0100
0010
0001
0100
0010
1000
0000
0010
,
0000
0100
1000
0010
1000
0001
0100
0010
,
0100
0001
1000
0010
1000
0010
0000
0100
,
0000
0001
0000
1000
0000
0010
0100
0000
,
0001
0100
0010
1000
0010
0100
0000
0001
,
0000
1000
0000
0010
0000
1000
0001
1000
,
0010
0100
0010
1000
0001
0010
0000
0001
,
0000
0100
0000
0010
0000
1000
0010
0000
,
0001
0010
0001
1000
0010
0100
0000
0010
,
0000
1000
0000
0010
0000
0100
0010
0100
,
0001
0100
0010
1000
0010
0100
0000
0001
,
0000
1000
0000
0010
0000
0100
0010
0000
,
1000
0010
0100
0010
1000
0100
0000
0010
,
0000
1000
0000
0010
0000
0100
0001
0100
,
0010
1000
0010
0100
0001
0010
0000
1000
,
0000
0010
0000
0100
0000
0010
1000
0000
,
0100
0001
0010
0001
0100
0010
0000
1000
,
0000
0010
0000
0100
0000
0010
1000
0010
,
0100
0010
2000
0000
0000
0000
0000
0000
,
0000
0000
3000
0000
;

//---------------dance-single - ----------------
#NOTES:
     dance-single:
     :
     Medium:
     6:
     0.222156,0.352168,0.000000,0.329869,0.000000,231.000000,231.000000,0.000000,49.000000,0.000000,0.000000,0.222156,0.352168,0.000000,0.329869,0.000000,231.000000,231.000000,0.000000,49.000000,0.000000,0.000000:
// measure 0
0000
0000
0000
0000
,  // measure 1
0000
0000
0000
0000
,  // measure 2
0000
0000
0000
0000
,  // measure 3
0000
0000
0000
0000
,  // measure 4
0000
0000
0000
0000
,  // measure 5
0000
0000
0000
0000
,  // measure 6
0000
0000
0000
0000
,  // measure 7
0000
2000
0000
0000
,  // measure 8
0000
3002
0000
0203
,  // measure 9
0000
0320
0000
0000
,  // measure 10
0000
2030
0000
0000
,  // measure 11
0000
3002
0000
0000
,  // measure 12
0000
0023
0000
0230
,  // measure 13
0000
2300
0000
0000
,  // measure 14
0000
0000
0000
0000
,  // measure 15
0000
3020
0000
0000
,  // measure 16
0000
0230
0000
0302
,  // measure 17
0000
0023
0000
0000
,  // measure 18
0000
0032
0000
0000
,  // measure 19
0000
2003
0000
0000
,  // measure 20
0000
3020
0000
0230
,  // measure 21
0000
0302
0000
0000
,  // measure 22
0000
0000
0000
0000
,  // measure 23
0000
2003
0000
0000
,  // measure 24
0000
3020
0000
0230
,  // measure 25
0000
0302
0000
0000
,  // measure 26
0000
0023
0000
0000
,  // measure 27
0000
0032
0000
0000
,  // measure 28
0000
0023
0000
0230
,  // measure 29
0000
2300
0000
0000
,  // measure 30
0000
3020
0000
0000
,  // measure 31
0000
0032
0000
0000
,  // measure 32
0000
0203
0000
0320
,  // measure 33
0000
2030
0000
0000
,  // measure 34
0000
3002
0000
0000
,  // measure 35
0000
0023
0000
0230
,  // measure 36
0000
2300
0000
3002
,  // measure 37
0000
0203
0000
0000
,  // measure 38
0000
0000
0000
0000
,  // measure 39
0000
0310
0000
1000
,  // measure 40
0000
0010
0000
0100
,  // measure 41
0000
0001
0000
0010
,  // measure 42
0000
0100
0000
1000
,  // measure 43
0000
0001
0000
0100
,  // measure 44
0000
0010
0000
1000
,  // measure 45
0000
0001
0000
0010
,  // measure 46
0000
0100
0000
1000
,  // measure 47
0000
0010
0000
0100
,  // measure 48
0000
0001
0000
1000
,  // measure 49
0000
0100
0000
0010
,  // measure 50
0000
0001
0000
1000
,  // measure 51
0000
0010
0000
0100
,  // measure 52
0000
0001
0000
1000
,  // measure 53
0000
0100
0000
1000
,  // measure 54
0000
0010
0000
0100
,  // measure 55
0000
0002
0000
0000
,  // measure 56
0000
0023
0000
0000
,  // measure 57
0000
0230
0000
0000
,  // measure 58
0000
2300
0000
0000
,  // measure 59
0000
3001
0000
0100
,  // measure 60
0000
0010
0000
1000
,  // measure 61
0000
0002
0000
0010
,  // measure 62
0000
1003
0000
0100
,  // measure 63
0000
1000
0000
0010
,  // measure 64
0000
0100
0000
0001
,  // measure 65
0000
2000
0000
0100
,  // measure 66
0000
3010
0000
0001
,  // measure 67
0000
0010
0000
0100
,  // measure 68
0000
1000
0000
0010
,  // measure 69
0000
0200
0000
0001
,  // measure 70
0000
0310
0000
0001
,  // measure 71
0000
1000
0000
0100
,  // measure 72
0000
0010
0000
0001
,  // measure 73
0000
2000
0000
0010
,  // measure 74
0000
3100
0000
0001
,  // measure 75
0000
0100
0000
0010
,  // measure 76
0000
1000
0000
0001
,  // measure 77
0000
0020
0000
0100
,  // measure 78
0000
0031
0000
0010
,  // measure 79
0000
0100
0000
0001
,  // measure 80
0000
1000
0000
0100
,  // measure 81
0000
0020
0000
0001
,  // measure 82
0000
0130
0000
0001
,  // measure 83
0000
1000
0000
0010
,  // measure 84
0000
1000
0000
0001
,  // measure 85
0100
0001
0000
1000
,  // measure 86
0000
0100
0000
0010
,  // measure 87
0100
0010
0000
0001
,  // measure 88
0000
1000
0000
0010
,  // measure 89
1000
0010
0000
0100
,  // measure 90
0000
0001
0000
0010
,  // measure 91
0100
1000
0000
0001
,  // measure 92
0100
0010
0000
1000
,  // measure 93
0001
0010
0000
0100
,  // measure 94
1000
0010
0000
0001
,  // measure 95
0010
0100
0000
0010
,  // measure 96
1000
0001
0000
0010
,  // measure 97
0100
0001
0000
0100
,  // measure 98
1000
0001
0000
0100
,  // measure 99
0010
0001
1000
0010
,  // measure 100
1000
0001
0010
0100
,  // measure 101
1000
0010
0100
0001
,  // measure 102
1000
0100
1000
0001
,  // measure 103
1000
0010
1000
0001
,  // measure 104
0010
0100
1000
0010
,  // measure 105
0100
0001
1000
0100
,  // measure 106
0010
0001
1000
0010
,  // measure 107
0100
0010
1000
0001
,  // measure 108
1000
0100
0010
0001
,  // measure 109
1000
0010
0100
0001
,  // measure 110
1000
0100
0010
0001
,  // measure 111
0010
0100
0010
0001
,  // measure 112
1000
0010
0100
0001
,  // measure 113
1000
0100
0010
0001
,  // measure 114
0010
0100
1000
0001
,  // measure 115
0100
0020
0000
0000
,  // measure 116
0000
0030
0000
0000
;

//---------------dance-single - ----------------
#NOTES:
     dance-single:
     :
     Beginner:
     1:
     0.098095,0.117389,0.000000,0.020196,0.000000,102.000000,102.000000,0.000000,3.000000,0.000000,0.000000,0.098095,0.117389,0.000000,0.020196,0.000000,102.000000,102.000000,0.000000,3.000000,0.000000,0.000000:
0000
0000
0000
0000
,
0000
0000
0000
0000
,
0000
0000
0000
0000
,
0000
0000
0000
0000
,
0000
0000
0000
0000
,
0000
0000
0000
0000
,
0000
0000
0000
0000
,
0000
1000
0000
0000
,
0000
0100
0000
0000
,
0000
0010
0000
0000
,
0000
0001
0000
0000
,
0000
0100
0000
0000
,
0000
0010
0000
0000
,
0000
0001
0000
0000
,
0000
0000
0000
0000
,
0000
0100
0000
0000
,
0000
0010
0000
0000
,
0000
0100
0000
0000
,
0000
0010
0000
0000
,
0000
1000
0000
0000
,
0000
0010
0000
0000
,
0000
0100
0000
0000
,
0000
0000
0000
0000
,
0000
0010
0000
0000
,
0000
0001
0000
0000
,
0000
0100
0000
0000
,
0000
0010
0000
0000
,
0000
0001
0000
0000
,
0000
1000
0000
0000
,
0000
0100
0000
0000
,
0000
0000
0000
0000
,
0000
0010
0000
0000
,
0000
0001
0000
0000
,
0000
0100
0000
0000
,
0000
0000
0000
0000
,
0000
0100
0000
0000
,
0000
0010
0000
0000
,
0000
1000
0000
0000
,
0000
0000
0000
0000
,
0000
0001
0000
0000
,
0000
0100
0000
0000
,
0000
0010
0000
0000
,
0000
0001
0000
0000
,
0000
0010
0000
0000
,
0000
0100
0000
0000
,
0000
1000
0000
0000
,
0000
0010
0000
0000
,
0000
0100
0000
0000
,
0000
0001
0000
0000
,
0000
1000
0000
0000
,
0000
0010
0000
0000
,
0000
0100
0000
0000
,
0000
0001
0000
0000
,
0000
0100
0000
0000
,
0000
0010
0000
0000
,
0000
2000
0000
0000
,
0000
3100
0000
0000
,
0000
0002
0000
0000
,
0000
0013
0000
0000
,
0000
0100
0000
0000
,
0000
1000
0000
0000
,
0000
0100
0000
0000
,
0000
0010
0000
0000
,
0000
0001
0000
0000
,
0000
0100
0000
0000
,
0000
0010
0000
0000
,
0000
0000
0000
0000
,
0000
1000
0000
0000
,
0000
0100
0000
0000
,
0000
0001
0000
0000
,
0000
0010
0000
0000
,
0000
0100
0000
0000
,
0000
1000
0000
0000
,
0000
0010
0000
0000
,
0000
0000
0000
0000
,
0000
0100
0000
0000
,
0000
0001
0000
0000
,
0000
0010
0000
0000
,
0000
0100
0000
0000
,
0000
0010
0000
0000
,
0000
1000
0000
0000
,
0000
0001
0000
0000
,
0000
1000
0000
0000
,
0000
0100
0000
0000
,
0000
0010
0000
0000
,
0000
0001
0000
0000
,
0000
0100
0000
0000
,
0000
0010
0000
0000
,
0000
1000
0000
0000
,
0000
0100
0000
0000
,
0000
1000
0000
0000
,
0000
0010
0000
0000
,
0000
0100
0000
0000
,
0000
0001
0000
0000
,
0000
0010
0000
0000
,
0000
0100
0000
0000
,
0000
0010
0000
0000
,
0000
1000
0000
0000
,
0000
0001
0000
0000
,
0000
0100
0000
0000
,
0000
0010
0000
0000
,
0000
0100
0000
0000
,
0000
0001
0000
0000
,
0000
1000
0000
0000
,
0000
0010
0000
0000
,
0000
0100
0000
0000
,
0000
0001
0000
0000
,
0000
0010
0000
0000
,
0000
0100
0000
0000
,
0000
0010
0000
0000
,
0000
0001
0000
0000
,
0000
1000
0000
0000
,
0000
0100
0000
0000
,
0000
0010
0000
0000
,
0000
0001
0000
0000
,
0000
2000
0000
0000
,
0000
3000
0000
0000
;

//---------------dance-single - ----------------
#NOTES:
     dance-single:
     :
     Easy:
     4:
     0.109636,0.156183,0.000000,0.255816,0.000000,114.000000,114.000000,0.000000,38.000000,0.000000,0.000000,0.109636,0.156183,0.000000,0.255816,0.000000,114.000000,114.000000,0.000000,38.000000,0.000000,0.000000:
0000
0000
0000
0000
,
0000
0000
0000
0000
,
0000
0000
0000
0000
,
0000
0000
0000
0000
,
0000
0000
0000
0000
,
0000
0000
0000
0000
,
0000
0000
0000
0000
,
0000
1000
0000
0000
,
0000
0100
0000
0000
,
0000
0020
0000
0000
,
0000
1030
1000
0000
,
0000
0001
0000
0000
,
0000
0100
0000
0000
,
0000
2000
0000
0000
,
0000
0000
3000
0000
,
0000
0002
0000
0000
,
0003
0010
0000
0000
,
0000
2000
0000
0000
,
0000
3000
0000
0000
,
0000
0200
0000
0000
,
0300
0001
0000
0000
,
0000
0020
0000
0000
,
0000
0030
0000
0000
,
0000
0200
0000
0000
,
0000
0302
0000
0000
,
0000
2003
0000
0000
,
0000
3000
0000
0000
,
0000
0020
0000
0000
,
0000
0230
0000
0000
,
0000
0302
0000
0000
,
0000
0003
0000
0000
,
0000
2000
0000
0000
,
0000
3020
0000
0000
,
0000
0230
0000
0000
,
0000
0000
0000
0300
,
0000
0002
0000
0000
,
0000
0023
0000
0000
,
0000
0230
0000
0000
,
0000
0300
0000
0000
,
0000
1000
0000
0000
,
0000
0010
0000
0000
,
0000
1000
0000
0010
,
0000
1000
0000
0000
,
0000
0001
0000
0000
,
0000
0100
0000
0000
,
0000
0001
0000
0100
,
0000
0001
0000
0000
,
0000
0010
0000
0000
,
0000
1000
0000
0000
,
0000
0001
0000
1000
,
0000
0001
0000
0000
,
0000
0010
0000
0000
,
0000
0100
0000
0000
,
0000
1000
0000
0001
,
0000
1000
0000
0000
,
0000
0020
0000
0030
,
0000
0200
0000
0300
,
0000
2000
0000
3000
,
0000
0002
0000
0003
,
0000
0100
0000
0000
,
0000
0010
0000
0000
,
0000
1000
0000
0001
,
0000
1000
0000
0000
,
0000
0100
0000
1000
,
0000
0010
0000
0000
,
0000
0002
0000
0000
,
0000
0000
0003
0000
,
0000
2000
0000
0000
,
0000
3200
0000
0000
,
0000
2300
0000
0000
,
0000
3010
0020
0000
,
0000
0230
0000
0000
,
0000
0302
0000
0000
,
0000
2003
0000
0000
,
0000
0000
0000
0000
,
0000
3200
0000
0000
,
0000
0320
0000
0000
,
0000
0032
0000
0000
,
0000
2003
0000
0000
,
0000
3020
0000
0000
,
0000
0230
0000
0000
,
0000
0302
0000
0000
,
0000
0003
0000
0000
,
0000
1000
0000
0000
,
0000
0100
0000
0000
,
0000
1000
0000
0000
,
0000
0010
0000
0000
,
0000
1000
0000
0001
,
0000
1000
0000
0000
,
0000
0010
0000
0000
,
0000
0100
0000
0000
,
0000
0001
0000
0100
,
0000
0001
0000
0000
,
0000
1000
0000
0000
,
0000
0010
0000
0000
,
0000
1000
0000
0001
,
0000
1000
0000
0000
,
0000
0100
0000
0000
,
0000
1000
0000
0000
,
0000
0010
0000
0100
,
0000
0001
0000
0000
,
0000
1000
0000
0000
,
0000
0010
0000
0000
,
0000
1000
0000
0100
,
0000
1000
0000
0000
,
0000
0001
0000
0000
,
0000
0010
0000
0000
,
0000
1000
0000
0100
,
0000
0010
0000
0000
,
0000
0001
0000
0000
,
0000
1000
0000
0000
,
0000
0010
0000
1000
,
0000
0100
0000
0000
,
0000
0001
0000
0000
,
0000
0010
0000
0000
,
0000
0200
0000
0000
,
0300
0000
0000
0000
;
