#TITLE:-Gesui Meidousite Nezumi Ippiki;
#SUBTITLE:;
#ARTIST:O-se;
#TITLETRANSLIT:;
#SUBTITLETRANSLIT:;
#ARTISTTRANSLIT:;
#GENRE:;
#CREDIT:;
#BANNER:AV.avi;
#BACKGROUND:BG.jpg;
#LYRICSPATH:;
#CDTITLE:;
#MUSIC:Gesui Meidousite Nezumi Ippiki.mp3;
#OFFSET:-0.092000;
#SAMPLESTART:99.958000;
#SAMPLELENGTH:15.000000;
#SELECTABLE:YES;
#DISPLAYBPM:*;
#BPMS:0.000000=168.100006
,39.000000=84.050003
,50.583332=195.889999
,50.916668=23.809999
,51.000000=84.050003
,55.000000=168.100006
,119.000000=42.025002
,123.000000=168.100006
,151.000000=84.050003
,153.000000=168.100006
,186.000000=84.050003
,193.000000=168.100006
,202.000000=84.050003
,234.000000=164.100006
,239.000000=168.100006
,300.000000=173.100006
,308.000000=180.100006
,316.000000=190.100006
,324.000000=200.100006
,330.000000=168.100006
;
#STOPS:28.500000=-2.498513,
39.000000=-5.710886
;
#BGCHANGES:0.000=MV.avi=1.000=1=1=1=StretchRewind==CrossFade==,
1.500=MV.avi=1.000=0=0=1=====,
99999=-nosongbg-=1.000=0=0=0 // don't automatically add -songbackground-
;
#KEYSOUNDS:;
#ATTACKS:;

//---------------dance-single - ----------------
#NOTES:
     dance-single:
     :
     Challenge:
     19:
     1.235824,2.056479,2.216312,0.564802,1.183225,1210.000000,900.000000,310.000000,79.000000,6.000000,35.000000,1.235824,2.056479,2.216312,0.564802,1.183225,1210.000000,900.000000,310.000000,79.000000,6.000000,35.000000:
// measure 0
1000
1000
0101
0000
0100
1010
0101
0000
,  // measure 1
1000
1000
0101
0000
0100
1010
0101
0000
,  // measure 2
1000
1000
0101
0000
0100
1010
0101
0000
,  // measure 3
0110
0000
0110
0000
1001
0000
1100
0011
,  // measure 4
1100
1000
0101
0000
0100
1010
0101
0000
,  // measure 5
1000
1000
0101
0000
0100
1010
0101
0000
,  // measure 6
0100
0100
1001
0000
0100
1010
0101
0000
,  // measure 7
0110
0010
0100
0010
0001
0010
0100
1000
,  // measure 8
0000
0000
0000
0000
,  // measure 9
00M0
0M00
00M0
000M
00M0
0M00
2001
3M00
,  // measure 10
00M0
0000
0000
0000
,  // measure 11
0000
0000
0000
0000
0000
0000
2000
3200
,  // measure 12
0320
0000
0000
1030
0100
0010
0001
0100
1000
0001
0000
0000
2000
0000
3200
0000
,  // measure 13
0320
0000
0030
0100
0010
0001
1000
0010
0100
0001
0010
0100
1001
0100
0010
0001
,  // measure 14
0010
0100
1000
0010
0100
1000
0100
0010
0001
0010
0100
0010
0001
0100
1000
0010
,  // measure 15
0100
1000
0100
0010
0001
0010
0200
0000
0320
0000
2030
0000
3002
0000
0023
0000
,  // measure 16
1030
0010
0100
1000
0100
0010
0001
0100
0010
0100
1000
0100
0010
0100
0010
0100
,  // measure 17
0010
0100
0010
0100
0010
0001
1000
0100
0010
0001
0100
0010
0001
0010
0100
1000
,  // measure 18
0010
0100
1000
0100
0010
0001
0100
0010
1000
0100
0010
0001
0100
0010
0001
0010
,  // measure 19
0100
1000
0100
0010
0001
0010
2000
0000
3200
0000
0302
0000
2003
0000
3020
0000
,  // measure 20
1030
0100
0010
0001
0200
0000
2300
0000
3010
0001
0100
0010
2000
0100
3010
0100
,  // measure 21
0002
0100
1003
0100
0020
0001
0130
0010
1000
0001
1000
0001
1100
0000
1100
0000
,  // measure 22
1001
1100
0110
0011
1001
0011
0110
1100
,  // measure 23
1001
0000
0110
0000
1001
0110
1001
0000
1001
0000
1100
0000
0011
0000
0110
0000
,  // measure 24
1001
1100
1100
0011
1001
1010
1100
0011
,  // measure 25
1001
1010
0110
0000
0101
1001
0110
0110
,  // measure 26
1001
0101
1010
1010
1001
0101
0110
0110
,  // measure 27
1001
0000
1100
0000
1001
0110
1001
0000
1100
0000
1001
0000
0110
0000
1100
0000
,  // measure 28
1001
0110
1100
0110
1001
0110
1001
1001
,  // measure 29
0110
0000
0000
0000
0110
0000
0000
0000
1100
0000
0000
0000
1100
0000
0000
0000
0110
0000
0000
0000
0110
0000
0000
0000
2000
3100
2000
3001
2000
3000
2000
3100
,  // measure 30
0001
0000
0100
0010
0000
0000
0010
0100
2000
3010
2000
3001
2000
3000
2000
3100
0010
0001
0000
1000
0100
1000
0000
0001
2100
0000
0000
0000
3101
0000
0000
0000
,  // measure 31
2010
3011
2100
3101
2001
3110
2001
3011
,  // measure 32
2100
3101
0210
2301
3201
1001
0321
1031
,  // measure 33
0120
0131
0021
1031
0120
1031
0120
0131
,  // measure 34
0120
1031
0210
1320
2031
0101
3201
1301
,  // measure 35
1200
0311
0210
1301
0210
1310
0210
0311
,  // measure 36
0210
0311
1200
1302
0213
0011
1320
0131
,  // measure 37
1001
0000
1010
0000
1100
0000
0110
0000
0011
0000
0110
0000
1001
0100
0010
0100
,  // measure 38
0001
0010
1000
0001
0110
0000
0110
0000
1001
0000
0110
0000
0000
0000
1010
0000
,  // measure 39
0011
0000
0201
0000
0000
0000
0301
0010
1000
0001
0100
1000
0010
0001
1010
0000
,  // measure 40
0100
1010
0000
1100
0001
1100
0000
1001
,  // measure 41
0010
0000
1001
0000
0000
0000
1001
0000
0010
0000
1100
0000
0000
0000
1000
0100
,  // measure 42
0010
0100
0001
1000
0010
0100
0001
0010
0100
1000
0100
0010
0001
1000
0010
0100
,  // measure 43
0001
0100
1000
0010
0001
0000
1100
0000
0010
0000
1001
0000
0010
0000
0101
0000
,  // measure 44
0000
0220
0000
1331
0001
2010
0000
0011
,  // measure 45
3000
0000
0000
0000
0110
1000
0100
0010
0001
0010
0100
1000
0100
0010
0001
0010
,  // measure 46
1100
0110
1001
0000
0210
0000
0000
0000
,  // measure 47
0000
0000
0300
0000
0000
0000
1002
0000
0203
0000
0320
0000
0000
1030
0100
0010
,  // measure 48
0001
0010
0100
0010
1001
0000
0100
0010
1001
0000
0100
0000
1010
0000
0100
0000
,  // measure 49
1001
0000
0000
0000
1001
0000
0010
0001
1010
0000
1001
0000
0110
0000
1100
0000
,  // measure 50
1001
0000
0000
0000
0110
0000
0000
0000
1000
0000
0100
0000
0001
0000
1000
0000
0100
0000
0010
0000
0100
0000
0001
1000
0001
0000
0100
0000
0010
0000
1000
0010
,  // measure 51
1000
0000
1000
0100
0010
0001
0010
0000
0001
0100
1000
0000
0100
0000
0010
0000
2000
0000
0000
0000
0000
0000
0010
0100
3000
0010
0000
0000
0001
0000
0100
0010
,  // measure 52
0000
0100
1000
0000
1000
0000
0100
0000
0010
0100
1000
0000
0001
1000
0100
0010
0100
0000
0000
0000
0000
0000
0000
0100
1000
0000
0000
0000
0000
0000
0100
0001
,  // measure 53
0000
0000
0001
0000
0000
1000
0100
0000
0000
1000
0010
0000
0100
0000
1000
0000
0002
0000
0000
0000
0000
0000
0000
0100
0010
0000
0000
0000
0000
0000
0000
1000
,  // measure 54
0010
0000
0000
0000
0000
0000
0003
0100
0010
0000
0010
0000
0100
0000
1000
0000
0001
0010
0100
1000
0100
0010
0001
0100
0010
0001
0010
0100
1000
0010
0100
1000
,  // measure 55
0100
0010
0001
0010
0100
1000
0010
0100
1000
0100
0010
0001
0010
0100
1000
0010
0100
0001
0010
0100
1000
0100
0010
0100
1000
0010
0100
0001
0010
0100
1000
0100
,  // measure 56
0010
0001
0010
0100
0010
1000
0100
0010
0001
0100
0010
1000
0100
0010
0001
0100
1001
0100
0010
0100
0001
0010
0100
0010
1001
0010
0100
0001
0010
1000
0100
0010
,  // measure 57
1001
0010
0100
1000
0100
0010
0001
0100
1001
0010
0100
0010
0001
0010
0100
1000
0020
0000
0032
0000
0203
0000
0000
0000
0302
0000
0000
0003
0100
0010
0001
0010
,  // measure 58
0100
0000
1000
0000
0002
0000
0000
0000
0013
0100
0001
0010
0200
1000
0001
0010
1301
0000
0000
0000
0001
0000
0000
0000
1100
0000
0001
0000
0010
0000
0100
0000
,  // measure 59
1001
0000
0001
0000
0110
1000
0010
0001
1100
0000
0001
0000
0110
1000
0100
0010
,  // measure 60
0101
0000
0001
0000
1100
0010
0001
1000
0110
0000
0001
0000
0110
0001
1000
0100
,  // measure 61
0011
0000
1000
0000
0101
1000
0010
0100
1001
0000
0100
0000
1010
0100
1000
0010
,  // measure 62
0101
0000
1000
0000
0101
1000
0010
0100
1001
0000
0000
0000
0200
0010
0001
1000
,  // measure 63
0302
0000
0000
0000
2003
0001
0010
0001
0100
0000
0100
0000
0001
0000
0100
0000
,  // measure 64
0200
0000
0000
0000
0010
0000
0000
3000
0301
0010
0100
1000
0100
0010
0001
0100
,  // measure 65
0010
1000
0100
0010
0001
0010
0100
1000
0100
0010
0001
0100
0010
0000
0101
0000
,  // measure 66
1001
0000
1100
0000
0011
0000
0110
0000
1001
0100
0010
0001
0100
0010
1000
0100
,  // measure 67
0010
0001
0010
0100
0010
0100
1000
0100
0010
0001
0010
0100
1000
0010
0100
1000
,  // measure 68
0100
0010
0001
0010
0100
1000
0010
0100
0010
0001
0010
0100
1000
0010
0100
0010
,  // measure 69
0001
0010
0100
1000
0100
0010
0100
0010
0001
0010
0100
1000
0100
0010
0001
0010
,  // measure 70
0100
0010
0001
0010
0100
1000
0100
1000
0011
0000
1100
0000
0011
0000
1100
0000
,  // measure 71
0011
1100
0011
1100
0011
1100
0011
1100
,  // measure 72
0011
0000
1100
0000
0011
0000
1100
0000
0011
1100
0011
1100
0011
1100
0011
1100
,  // measure 73
0011
0000
1100
0000
0011
0000
1100
0000
0011
0000
1100
0000
0011
0000
1100
0000
0001
0010
0100
1000
0100
0010
0001
0010
0100
1000
0100
0010
0001
0010
0100
1000
,  // measure 74
0100
0010
0001
0010
0100
1000
0100
0010
0001
0010
0100
1000
0100
0010
0001
0010
0100
0000
0000
0000
0000
0000
0000
0000
0000
0000
0000
0000
0000
0000
0000
0000
,  // measure 75
1001
0101
1010
1100
1001
0101
0110
1001
,  // measure 76
0011
0101
1010
1001
1100
0110
1001
0110
,  // measure 77
1100
1001
0110
1010
0011
0110
1001
1010
,  // measure 78
0101
1010
0101
0011
0110
1001
1100
0011
,  // measure 79
0110
1001
1100
0110
1001
0011
0101
1010
,  // measure 80
1100
0110
1001
0011
1100
1001
0110
1001
,  // measure 81
0011
1010
1100
0110
1001
0011
0110
1001
,  // measure 82
0110
1010
0101
0011
0110
1100
1001
0220
,  // measure 83
0000
0000
0000
0330
0000
0000
0000
0000
;

//---------------dance-single - Copied from----------------
#NOTES:
     dance-single:
     Copied from:
     Beginner:
     4:
     0.238994,0.383386,0.050046,0.035747,0.000000,234.000000,227.000000,7.000000,5.000000,0.000000,0.000000,0.238994,0.383386,0.050046,0.035747,0.000000,234.000000,227.000000,7.000000,5.000000,0.000000,0.000000:
0000
0000
0000
0000
,
0000
0000
0000
0000
,
0000
0000
0000
0000
,
0000
0000
0000
0000
,
1000
0001
1000
0000
,
0100
0010
0100
0000
,
0001
0010
0001
0000
,
1001
0000
0000
0000
,
0000
0000
0000
0000
,
0000
0000
0000
0000
0000
0000
2000
3000
,
0000
0000
0000
0000
,
0000
0000
0000
0000
0000
0000
0000
0100
,
0010
0000
0001
0010
0100
0000
0010
0100
,
0001
0000
1000
0010
1000
0000
0001
0000
,
0000
0010
0000
1000
,
0010
1000
0000
0100
,
0001
0100
0000
0010
,
0100
0010
0000
1000
,
0001
1000
0000
0010
,
0001
0010
0000
0100
,
0000
1000
0000
0010
,
0010
0010
0000
0100
,
0001
0010
0100
1000
,
0010
0001
0100
1000
,
0010
0100
0010
0001
,
0010
0100
0000
1000
,
0010
0001
0100
1000
,
0010
0001
0100
0010
,
0001
0010
0001
0010
,
0010
0100
0100
1000
,
0001
0100
0010
0001
,
0000
0010
1000
0100
,
0010
0001
0010
0100
,
1000
0010
0001
0100
,
0010
1000
0001
0100
,
0010
1000
0001
0010
,
0100
1000
0010
0100
,
0001
0010
0100
0001
,
0000
0000
1000
0000
0000
0001
0000
0000
,
0000
0001
0000
0000
0000
0000
0000
0100
,
0000
0100
0000
0010
0000
0010
0000
0001
,
0000
0001
0000
1000
0000
1000
0000
0000
,
0000
0100
0010
0001
,
0010
0100
1000
0010
,
0000
0001
0000
0000
0000
0001
0000
0000
,
0000
2002
0000
0000
,
0000
0000
3003
0000
0020
0000
0000
0030
,
0000
0000
0000
0000
,
0000
0001
0010
1000
,
0001
0000
0100
0010
,
1000
0001
0100
0000
,
0010
0000
0001
0000
,
0001
0000
1000
0000
,
0100
0000
0010
0000
,
0001
0000
1000
0100
,
0010
0001
0100
0010
,
1000
0010
1100
0110
,
0011
1001
0010
0100
,
0010
1000
0001
0010
,
0100
0000
1000
0001
,
1000
0000
0100
0001
,
1000
0000
0100
0010
,
0100
0000
0001
1000
,
0010
0000
0100
0001
,
0100
0000
1000
1000
,
0100
0100
0010
0010
,
0001
0100
0010
0010
,
0100
0000
1000
0001
,
1000
0000
0010
0001
,
0010
0000
0100
1000
,
0100
0000
0010
0100
,
0010
0100
0010
0100
,
0010
0100
0001
0001
,
1000
1000
2002
0000
,
0000
0000
0000
3003
0000
0000
0000
0000
,
0010
0000
0010
0000
,
0100
0000
0100
0000
,
1000
0000
0001
0000
,
0100
0000
0010
0000
,
1000
0000
0001
0000
,
0100
0000
0010
0000
,
1000
0000
0100
0000
,
0010
0000
1000
0000
;

//---------------dance-single - Copied from Copied f----------------
#NOTES:
     dance-single:
     Copied from Copied f:
     Easy:
     8:
     0.275762,0.442369,0.092942,0.092942,0.000000,270.000000,257.000000,13.000000,13.000000,0.000000,0.000000,0.275762,0.442369,0.092942,0.092942,0.000000,270.000000,257.000000,13.000000,13.000000,0.000000,0.000000:
0000
0000
0000
0000
,
0000
0000
0000
0000
,
0000
0000
0000
0000
,
0000
0000
0000
0000
,
1001
0000
0110
0000
,
1100
0000
0110
0000
,
0011
0000
1001
0000
,
0110
0000
0000
0000
,
0000
0000
0000
0000
,
0000
0000
0000
1000
,
0000
0000
0000
0000
,
0000
0000
0000
0000
,
0200
0320
0030
0002
,
0203
0320
0030
1000
,
0100
0010
0000
0001
,
0010
0100
1000
0100
,
0010
0001
0000
0100
,
0010
0100
0010
1000
,
1000
0001
0000
0100
,
0010
0100
0000
0001
,
0010
0001
0000
0100
,
1000
0010
0000
1000
,
0001
0010
0100
1000
,
0010
0100
0001
1000
,
0100
0010
0001
1000
,
0010
0100
0000
0001
,
0100
1000
0010
0001
,
0100
0010
0001
0010
,
0001
0010
0100
0010
,
0010
0000
0100
0000
0100
0000
0001
0010
,
0100
0000
1000
0001
0100
0000
0001
0000
,
0100
0010
1000
0001
,
0100
0020
0000
1030
,
0001
0100
0010
1000
,
0001
0200
0000
0301
,
1000
0100
0010
1000
,
0001
0200
0000
0310
,
1000
0001
0100
0002
,
0000
0000
1003
0000
0000
0010
0000
0000
,
0000
0001
0000
0000
0000
0000
0000
0100
,
0000
0100
0000
1000
0000
1000
0000
0010
,
0000
0010
0000
0001
0000
0001
0000
0000
,
0000
0100
0010
1000
,
0001
0100
0100
0010
,
0000
0001
0000
0000
0000
0010
0000
0000
,
0000
2200
0000
0000
,
0000
0000
3300
0000
0002
0000
0000
0003
,
0000
0000
0000
0000
,
0000
0001
0100
0010
,
1000
0000
0001
0010
,
0100
0010
1000
0001
,
0100
0010
1000
0100
,
0010
0001
0010
0100
,
1000
0010
0100
0010
,
1000
0000
0001
0000
0100
0010
0100
0000
,
0001
1000
0001
0000
0100
0010
0100
0000
,
0001
1000
0001
0000
0011
0000
1100
0000
,
0110
0000
1001
0000
0001
0100
0001
0000
,
1000
0010
1000
0000
0001
0000
0100
0000
,
0010
1000
0100
0010
,
1000
0001
0100
0010
,
0100
0000
0001
1000
0001
0000
1000
0001
,
1000
0001
0001
0100
,
0010
1000
0001
0100
,
0010
0000
1000
1000
,
0100
0100
0010
0010
,
0001
0001
0100
0010
,
1000
0001
0100
0010
,
0100
0001
0100
0010
,
1000
0001
0100
0010
,
1000
0001
0100
0100
,
0100
0100
0100
0100
,
0100
0000
0100
0000
0010
0100
0010
0100
,
0010
0100
0010
0100
0020
0000
0000
0000
,
0000
0000
0000
0030
0000
0000
0000
0000
,
0001
0000
0001
0000
,
0001
0000
0001
0000
,
1000
0001
1000
0000
,
0001
1000
0001
0000
,
0100
0010
1000
0000
,
0001
0010
0100
0000
,
1000
0001
0100
0000
,
1000
0010
1100
0000
;

//---------------dance-single - Copied from Copied f----------------
#NOTES:
     dance-single:
     Copied from Copied f:
     Medium:
     10:
     0.405473,0.737281,0.157287,0.264528,0.010724,397.000000,375.000000,22.000000,37.000000,0.000000,0.000000,0.405473,0.737281,0.157287,0.264528,0.010724,397.000000,375.000000,22.000000,37.000000,0.000000,0.000000:
0000
0000
0000
0000
,
0000
0000
0000
0000
,
0000
0000
0000
0000
,
0000
0000
0000
0000
,
1001
0000
0011
0000
,
1001
0000
1100
0000
,
0110
0000
0011
0000
,
1001
0000
0000
0000
,
0000
0000
0000
0000
,
0000
0000
0000
1000
,
0000
0000
0000
0000
,
0000
0000
0000
0000
,
0100
0010
0001
0100
,
0010
1000
0001
1001
,
0010
1000
0001
0100
,
0010
0000
0100
0001
1000
0010
1000
0001
,
0010
0100
0010
2000
,
3200
0000
0302
0000
0103
0001
0100
0001
,
0010
1000
0010
0001
,
0100
0000
1000
0001
1000
0001
1000
0001
,
0100
0000
0010
0100
0001
0000
0001
0000
,
0001
0000
0001
0000
0000
0000
1000
0010
,
0000
0001
0100
0001
0000
0010
1000
0010
,
0000
0100
0010
0100
0010
0100
0010
0100
,
0000
0001
0010
0001
0000
0100
1000
0100
,
1000
0100
1000
0000
0010
0001
0010
0001
,
0000
0100
1000
0100
0000
0010
0001
0010
,
0000
0100
1000
0100
0010
0001
0010
0100
,
1000
0100
0010
0001
0010
0100
0010
0010
,
0100
0100
0001
0001
1000
1000
0001
0000
,
0001
0100
0010
2000
,
3002
0203
0320
2030
,
3002
0000
1003
0001
2000
0000
3002
0000
,
0203
0320
0230
0320
,
0230
0000
0301
0100
0002
0000
0203
0000
,
0320
2030
3002
0203
,
0320
0000
1030
0001
2000
0000
3001
0000
,
0001
0100
0100
0001
,
0000
0000
1000
0000
0000
0110
0000
0000
,
0000
1020
0000
0000
0000
0000
0030
1000
,
0000
1000
0000
0001
0000
0001
0000
0100
,
0000
0100
0000
0010
0000
0010
0000
0000
,
1000
0100
0001
1000
0010
0001
0100
0010
,
0001
0010
1000
0000
0010
0000
0100
0000
,
0000
2001
0000
3001
0000
0120
0000
0130
,
0000
2001
0000
0000
,
0000
0000
3000
0000
0120
0000
0000
0030
,
0000
0000
0000
1000
0001
0200
0000
0310
,
0100
0001
0000
0000
1000
0000
0010
0000
,
0200
0300
0001
1000
,
0010
0100
0001
0100
,
0010
1000
0001
0100
,
0010
1000
0001
0100
,
0010
1000
0001
0100
,
0010
0000
1000
0000
0100
0001
0100
0010
,
1000
0100
0010
0001
1000
0001
0100
0010
,
0001
0010
0100
0001
2001
3001
0120
0130
,
2001
3001
0120
0130
1000
0100
0010
0100
,
0001
0010
1000
0000
0010
0001
0100
0010
1001
0000
0000
0000
0010
0000
0100
0000
,
0001
0000
0100
0010
0100
0000
1000
0010
,
1000
0000
0001
0100
0001
0000
1000
0010
,
1000
0000
0100
0010
0100
0000
0001
1000
,
0001
0000
0100
0010
0100
0000
1001
0000
,
0110
1002
0100
1000
,
0010
0000
0103
0000
1000
0100
0010
0001
,
0010
0100
1000
0100
0010
0001
0010
0100
,
0010
0100
0010
0100
0001
1000
0100
0010
,
0001
0010
0100
1000
0010
0001
0100
0010
,
0100
0001
1000
0010
0100
0001
0100
0010
,
0100
1000
0010
0001
0100
0010
0100
0001
,
0010
1000
0001
0100
0001
0001
1000
1000
,
0010
0010
0100
0100
0001
0001
0100
0100
,
0010
0010
1000
1000
0100
0010
0001
0010
,
0100
1000
0001
0100
0002
0000
0000
0000
,
0000
0000
0000
0003
0000
0000
0000
0000
,
1000
0100
0010
0001
,
0010
0100
1000
0100
,
0010
0001
0010
0100
,
1000
0100
0010
0001
,
0010
0100
1000
0100
,
0010
0001
0010
0100
,
1000
0100
0010
0001
,
0010
0100
1000
0000
;

//---------------dance-single - Copied from----------------
#NOTES:
     dance-single:
     Copied from:
     Hard:
     15:
     0.711875,0.952299,0.135838,0.564802,0.432538,697.000000,678.000000,19.000000,79.000000,6.000000,0.000000,0.711875,0.952299,0.135838,0.564802,0.432538,697.000000,678.000000,19.000000,79.000000,6.000000,0.000000:
0100
0100
0010
0000
0001
1000
0010
0000
,
0100
0100
0010
0000
0001
0100
0010
0000
,
0100
0100
0010
0000
0001
0100
0010
0000
,
1001
0000
1001
0000
0110
0000
0001
0010
,
0100
0100
0010
0000
0001
0100
0010
0000
,
0100
0100
0010
0000
0001
0100
0001
0000
,
1000
1000
0010
0000
0001
0100
0010
0000
,
0001
0010
0100
0010
0001
0010
0100
1000
,
0000
0000
0000
0000
,
00M0
0M00
00M0
000M
00M0
0M00
2000
3M00
,
00M0
0000
0000
0000
,
0000
0000
0000
0000
0000
0000
2000
3200
,
0320
0000
0000
0130
1000
0001
0010
0100
1000
0001
0000
0000
2000
0000
3200
0000
,
0320
0000
0030
0100
1000
0001
0010
0100
1000
0010
0100
0001
0010
0000
0100
0000
,
0010
0001
1000
0001
0100
0010
1000
0100
,
0010
0001
1000
0200
0320
2030
3020
0230
,
1300
0001
0100
0010
1000
0001
0020
0000
,
0230
0000
0302
0000
0103
0010
0100
0010
,
0001
0010
0100
0001
1000
0010
0001
0010
,
0001
0010
0100
0020
0032
0023
2030
3002
,
0013
0100
0020
0032
1003
0010
2000
3100
,
0002
0000
0013
0000
1000
0000
0001
0000
0010
0100
0010
0100
0010
0000
0100
0000
,
0010
1000
0001
1000
0001
1000
0010
1000
,
0010
0000
1000
0000
0001
0100
0010
0000
0010
0000
1000
0000
0001
0000
0010
0000
,
0001
0010
0100
0010
0001
1000
0010
0100
,
0001
1000
0010
0000
0010
1000
0001
1000
,
0010
0100
0001
1000
0100
1000
0001
0100
,
0010
0000
1000
0000
0001
0010
0001
0000
0010
0000
0100
0000
0001
0000
1000
0000
,
0010
1000
0001
0010
0100
0010
0001
0001
,
1000
0000
0000
0000
1000
0000
0000
0000
0010
0000
0000
0000
0010
0000
0000
0000
0100
0000
0000
0000
0100
0000
0000
0000
0020
0030
0020
0030
0020
0030
0020
0030
,
0000
0000
0000
0000
0000
0000
0000
0000
0020
0030
0020
0030
0020
0030
0020
0030
0000
0000
0000
0000
0000
0000
0000
0000
0020
0000
0000
0000
0130
0000
0000
0000
,
0020
0130
0020
0130
0020
0031
0020
0031
,
0020
0130
2000
3100
2000
0010
3002
0013
,
0002
0013
0002
0013
0002
0013
0002
0103
,
0002
0013
0002
2003
3020
0100
2030
3010
,
2000
3010
2000
3010
2000
3010
2000
3010
,
2000
3010
2000
3200
2300
0010
3002
0103
,
0010
0000
0100
0000
0010
0000
1000
0000
0001
0000
1000
0000
0010
0100
0010
0100
,
0001
0010
0100
1000
0001
0000
1000
0000
0001
0000
0100
0000
0000
0000
0100
0000
,
0010
0000
0200
0000
0000
0000
0301
1000
0001
1000
0001
1000
0001
0000
0100
0000
,
0010
0100
0000
1000
0001
1000
0000
0100
,
0010
0000
0100
0000
0000
0000
0100
0000
0001
0000
0100
0000
0000
0000
0100
1000
,
0001
1000
0100
1000
0001
1000
0001
1000
0010
1000
0001
1000
0100
1000
0100
1000
,
0001
1000
0010
1000
0001
0000
0100
0000
0010
0000
0100
0000
0010
0000
1000
0000
,
0000
1100
0000
1100
0000
0011
0000
0011
,
0000
0000
0000
0000
0001
1000
0001
1000
0001
1000
0001
1000
0001
1000
0001
1000
,
0001
0010
0110
0000
1002
0000
0000
0000
,
0003
0000
0000
0000
0000
0000
1002
0000
0203
0000
0320
0000
0000
1030
0100
0010
,
0001
0010
0100
0010
0001
0000
0100
0010
0100
0000
0001
0000
0010
0000
0100
0000
,
1000
0000
0001
0010
0100
0001
0010
0100
,
0001
0000
0100
0000
0010
0100
0010
0100
0002
0003
0200
0300
0020
0000
1000
0030
,
0100
0000
1000
0100
0010
0001
0020
0000
0032
0000
0100
0000
1000
0003
0100
0010
,
1000
0001
0200
0000
0320
0030
0100
0001
0200
0000
0000
0000
0302
0000
0000
0000
,
0000
0013
1000
0001
0100
0000
0100
0010
2000
0000
0000
0000
0010
0000
0000
0000
,
0010
3000
0000
0100
0010
0001
0100
0010
1000
0000
0100
0000
0010
0000
0100
0010
,
0100
1000
0010
0100
0001
1000
0010
0100
0001
0010
0000
0010
0001
1000
0010
0100
,
0001
1000
0000
1000
0100
0000
1000
0010
1010
0001
0100
0000
0101
0010
1000
0000
,
1010
0001
0100
0000
0101
0010
1000
0000
0110
1000
0002
0000
2003
0000
3100
0010
,
0100
1000
0001
0000
0100
0010
1000
0001
1100
0000
0001
0000
0100
0010
0100
0010
,
0100
0000
0001
0000
1000
0001
1000
0001
1000
0000
0001
0000
1000
0100
1000
0100
,
1000
0000
0001
0000
0010
0100
0010
0100
0010
0000
1000
0000
0010
1000
0010
1000
,
0010
0000
1000
0000
0100
0010
0100
0010
0100
0000
0001
0000
0010
0100
0010
0100
,
0010
0000
1000
0000
0001
1000
0001
1000
0001
0000
0100
0000
0002
0000
0000
0000
,
2003
0000
3020
0000
0100
0001
0100
1000
,
0100
0000
0000
0000
0001
0000
0000
0000
1030
0010
1000
0010
1000
0010
1000
0010
,
0001
0010
0001
0010
0001
0010
0001
0010
0100
1000
0100
0010
0001
0000
1000
0000
,
0001
1000
0001
1000
0110
0000
1010
0000
,
0011
0000
1000
0010
0100
1000
0100
0010
,
0001
0010
0100
0001
1000
0010
0000
0010
,
0100
0001
1000
0001
1000
0010
0000
0001
,
1000
0000
0010
0001
1000
0010
1000
0001
,
0100
0010
1000
0100
0010
0100
1000
0100
,
0001
0000
0010
0000
0100
0000
0001
0000
1000
0010
0100
0001
1000
0010
0100
0001
,
1000
0010
0100
0001
1000
0010
0100
0001
0010
0100
1000
0100
0010
0001
0010
0100
,
1000
0100
0010
0001
0010
0100
1000
0000
0000
0000
0000
0000
0000
0000
0000
0000
,
0010
1000
0001
1000
0010
0100
0010
0100
,
0001
1000
0100
1000
0001
1000
0010
1000
,
0010
0100
0001
1000
0100
0010
0001
1000
,
0010
0100
0001
0100
0010
1000
0001
1000
,
0010
1000
0001
0010
0100
1000
0001
0100
,
0010
1000
0001
1000
0010
1000
0010
0100
,
0010
0001
1000
0100
0010
1000
0001
0010
,
0100
1000
0001
0100
0010
1000
0010
2000
,
0000
3000
0000
0000
;
