#TITLE:-Garakuta Doll Play;
#SUBTITLE:;
#ARTIST:t+pazolite;
#TITLETRANSLIT:;
#SUBTITLETRANSLIT:;
#ARTISTTRANSLIT:;
#GENRE:;
#CREDIT:;
#BANNER:AV.avi;
#BACKGROUND:bg.jpg;
#LYRICSPATH:;
#CDTITLE:;
#MUSIC:audio.ogg;
#OFFSET:-0.056000;
#SAMPLESTART:98.542999;
#SAMPLELENGTH:15.000000;
#SELECTABLE:YES;
#DISPLAYBPM:*;
#BPMS:0.000000=256.000000
;
#STOPS:
;
#BGCHANGES:0.000=MV.avi=1.000=1=0=1===CrossFade==,
99999=-nosongbg-=1.000=0=0=0 // don't automatically add -songbackground-
;
#KEYSOUNDS:;
#ATTACKS:;

//---------------dance-single - ----------------
#NOTES:
     dance-single:
     :
     Hard:
     16:
     0.755580,0.907031,0.234375,1.109375,0.097656,677.000000,647.000000,30.000000,142.000000,0.000000,0.000000,0.755580,0.907031,0.234375,1.109375,0.097656,677.000000,647.000000,30.000000,142.000000,0.000000,0.000000:
// measure 0
0000
0000
0000
0000
,  // measure 1
0000
0000
0000
0000
,  // measure 2
0000
0000
0000
0000
,  // measure 3
0000
0000
0000
0000
,  // measure 4
0000
0000
0000
0000
,  // measure 5
0000
0000
0000
0000
,  // measure 6
0000
0000
0000
0000
,  // measure 7
0000
0000
0000
0000
,  // measure 8
0000
0000
0000
0000
,  // measure 9
2001
0000
0000
0000
3001
0100
0000
0200
,  // measure 10
0000
0000
0000
0000
1300
0001
1000
0010
,  // measure 11
0200
0000
0000
0000
0310
0100
0000
0002
,  // measure 12
0000
0000
2003
3020
,  // measure 13
2030
0000
0000
0000
3010
1000
0000
0002
,  // measure 14
0000
0000
0000
0000
1003
0010
0100
0010
,  // measure 15
2000
0000
0000
0000
3001
0100
0000
0020
,  // measure 16
0000
0000
0000
0030
0000
0000
0000
0000
,  // measure 17
1001
1000
0001
0100
,  // measure 18
0010
0000
1000
0000
1000
0000
0001
0100
,  // measure 19
0001
0000
1000
0010
0100
0000
0001
0000
,  // measure 20
0100
0000
0001
1000
0001
0000
1000
0000
0010
0000
0000
0000
0010
0000
0000
0000
,  // measure 21
0101
0100
0010
1000
,  // measure 22
0010
0000
1000
0001
1000
0000
0001
0000
0100
0000
0000
0000
2000
0000
0000
0000
,  // measure 23
0000
0000
0000
0100
0001
0100
0001
0000
,  // measure 24
3002
0000
0100
0000
1000
0010
1000
0000
,  // measure 25
1003
0000
0000
0001
0100
0000
0010
0000
,  // measure 26
1001
1001
1000
0020
,  // measure 27
0031
0000
0100
0001
0100
0000
1000
0000
,  // measure 28
0010
0000
0100
0001
0100
0000
0001
0000
1000
0000
0000
0000
1000
0000
0000
0000
,  // measure 29
0110
0010
1000
0001
,  // measure 30
0001
0000
1000
0010
1000
0000
0010
0000
0100
0000
0000
0000
0100
0000
0010
0000
,  // measure 31
1000
0010
1000
0010
1000
0010
1000
0010
,  // measure 32
0200
0320
0230
0302
2003
3002
2003
3020
,  // measure 33
0230
0300
0002
0003
0200
0300
0020
0030
,  // measure 34
1000
0000
0000
0000
0001
1000
0001
1000
0001
0000
0000
0000
0010
0000
0100
0000
,  // measure 35
0020
0030
2000
3000
0020
0030
0200
0300
,  // measure 36
0010
0000
0100
0001
1000
0000
0100
0001
,  // measure 37
0200
0300
0020
0030
0200
0300
0002
0003
,  // measure 38
0100
0000
0010
1000
0010
0000
0001
2000
,  // measure 39
0000
0000
0000
0100
0001
0100
0001
0000
,  // measure 40
3002
0000
1000
0000
1000
0010
0100
0000
,  // measure 41
0203
0300
0020
0030
2000
3000
0002
0003
,  // measure 42
0100
0000
0000
0000
0001
1000
0001
1000
0001
0000
0000
0000
0100
0000
0010
0000
,  // measure 43
0200
0300
0020
0030
2000
3000
0020
0030
,  // measure 44
0100
0000
0100
0001
1000
0000
0001
0100
,  // measure 45
0001
0000
0100
0000
0010
1000
0010
1000
,  // measure 46
0010
0000
0000
0000
1000
0000
0000
0000
0001
0100
0001
0100
0001
0000
0000
0000
,  // measure 47
0101
0000
0000
0110
0000
1010
0000
1001
,  // measure 48
0000
0000
0020
2030
,  // measure 49
3010
0000
0000
0010
0100
0000
0010
0000
,  // measure 50
0001
0100
0001
0100
0010
1000
0010
0000
,  // measure 51
0100
0001
0100
0001
1000
0000
0010
0000
,  // measure 52
0010
0001
1000
0001
0010
0000
0100
0000
,  // measure 53
0100
0000
0001
1000
0001
1000
0000
0000
0010
0100
0010
0100
,  // measure 54
0000
0000
0001
0100
0001
0100
0000
0000
0100
0010
0100
0010
,  // measure 55
0000
0000
0000
0000
1000
0000
0001
0000
1000
0000
0001
0000
1000
0000
0000
0010
0000
0000
1000
0000
0000
0010
0000
0000
,  // measure 56
0000
1000
0010
0100
0001
0100
0010
1000
,  // measure 57
1010
0000
0000
0010
0000
0000
1000
0000
,  // measure 58
1001
0000
0000
0110
0000
0000
0101
0000
,  // measure 59
0101
0100
0010
1000
,  // measure 60
1001
0000
0000
1010
0000
0000
0110
0000
,  // measure 61
1010
0000
0100
0001
,  // measure 62
1001
0000
0010
1000
,  // measure 63
1001
0010
0110
1000
,  // measure 64
0002
0203
0320
0000
,  // measure 65
1030
0010
1000
0001
1000
0000
0100
0010
,  // measure 66
0100
0001
0100
0000
0010
0000
0100
0000
,  // measure 67
0001
0100
0010
1000
0010
0000
0001
0100
,  // measure 68
0001
0100
0010
0000
0100
0000
0001
0000
,  // measure 69
1000
0010
1000
0010
0001
0000
0100
0001
,  // measure 70
0100
0010
0100
0000
0010
0000
1000
0001
,  // measure 71
1000
0001
0100
0010
1000
0000
0001
0100
,  // measure 72
0002
2003
3020
0230
,  // measure 73
0301
0100
0010
1000
0010
0000
0001
0100
,  // measure 74
0001
0100
1000
0000
0001
0000
1000
0010
,  // measure 75
0100
0001
0100
0010
0100
0000
0001
1000
,  // measure 76
0010
0100
0010
0000
1000
0000
0010
0000
,  // measure 77
1000
0010
1000
0001
0100
0000
0001
0100
,  // measure 78
0010
1000
0010
0100
0001
0100
0001
0100
,  // measure 79
0010
1000
0020
0000
0230
0000
0302
0000
,  // measure 80
1003
0010
2000
0000
3002
0000
0203
0000
,  // measure 81
0320
0000
0000
0000
1030
0002
0003
0200
,  // measure 82
0000
0000
0000
0000
0310
1000
0010
0100
,  // measure 83
0002
0000
0000
0000
1003
0020
0030
0200
,  // measure 84
0000
0300
0200
0302
,  // measure 85
2003
0000
0000
0000
3010
0200
0300
0002
,  // measure 86
0000
0000
0000
0000
0103
0010
0100
0001
,  // measure 87
2000
0000
0000
0000
3010
0200
0300
0002
,  // measure 88
0000
0000
0000
0003
0002
0000
0203
0000
,  // measure 89
0320
0030
0020
0030
0100
0010
0100
0001
,  // measure 90
2000
3000
1000
0010
0200
0000
0302
0000
,  // measure 91
2003
3000
1000
0010
0100
0001
1000
0001
,  // measure 92
0200
0300
0001
0100
0001
2000
0000
3010
,  // measure 93
0200
0300
0200
0300
0010
1000
0010
0100
,  // measure 94
0002
0003
0001
0100
0001
0000
1000
0001
,  // measure 95
0100
0010
1000
0010
0100
0001
1000
0001
,  // measure 96
0200
0000
0000
0300
,  // measure 97
2001
3000
2001
3000
0001
0100
0010
1000
,  // measure 98
0002
0003
0001
0100
0020
0030
2000
0010
,  // measure 99
3020
0000
0130
0001
0100
0001
1000
0010
,  // measure 100
0200
0300
0001
1000
0020
0030
0200
0300
,  // measure 101
1002
0003
1002
0003
1000
0010
0100
0001
,  // measure 102
2000
3000
1000
0001
0200
0300
0100
0020
,  // measure 103
0000
2030
3020
0230
0302
2003
3002
0203
,  // measure 104
0320
0000
0000
0000
2030
3000
0002
0003
,  // measure 105
0210
0300
0210
0300
0010
1000
0001
1000
,  // measure 106
0020
0030
0100
0001
2000
3000
0020
0100
,  // measure 107
0230
0000
0301
1000
0001
0100
0010
1000
,  // measure 108
0020
0030
0020
1030
0001
0200
0000
0300
,  // measure 109
2010
3000
2010
3000
0010
1000
0010
0100
,  // measure 110
0002
0003
0001
1000
0020
0030
0020
0230
,  // measure 111
0000
0302
2003
3020
0230
0320
2030
3002
,  // measure 112
0203
0000
0000
0000
,  // measure 113
0310
0100
0000
0100
0001
0000
0001
0010
,  // measure 114
0000
0010
0100
0000
0100
1000
0001
1000
,  // measure 115
0001
0100
0000
0100
0010
0000
0010
1000
,  // measure 116
0000
1000
0001
0000
0001
0100
0010
1000
,  // measure 117
0100
1000
0000
1000
0100
0000
0100
0010
,  // measure 118
0000
0010
0001
1000
0010
1000
0010
0100
,  // measure 119
0001
0010
0000
0010
0100
0000
0100
1000
,  // measure 120
0000
1000
0010
0000
0010
0100
0010
0100
,  // measure 121
0001
1000
0010
1000
0001
0100
0001
0100
,  // measure 122
0010
0100
0001
1000
0100
0010
0001
1000
,  // measure 123
0001
1000
0010
1000
0001
0100
0010
1000
,  // measure 124
0001
1000
0010
0100
0001
0010
0100
0010
,  // measure 125
0001
1000
0010
1000
0001
0100
0001
1000
,  // measure 126
0010
1000
0001
0010
0100
1000
0100
0020
,  // measure 127
0030
0020
0032
2003
3002
0203
0320
2030
,  // measure 128
3020
1000
1000
0000
,  // measure 129
0130
0000
0000
0000
;

//---------------dance-single - ----------------
#NOTES:
     dance-single:
     :
     Challenge:
     18:
     1.235491,1.562109,2.570313,1.039063,0.234375,1107.000000,778.000000,329.000000,133.000000,0.000000,31.000000,1.235491,1.562109,2.570313,1.039063,0.234375,1107.000000,778.000000,329.000000,133.000000,0.000000,31.000000:
0000
0000
0000
0000
,
0010
0000
0000
0000
0001
0100
0000
0010
,
0000
0000
1000
0000
0001
0010
0100
1000
,
0001
0000
0000
0000
0010
1000
0000
0100
,
0000
0000
0010
0000
0001
1000
0001
1000
,
0010
0000
0010
0100
1000
0001
0100
0001
,
0000
0100
0010
0000
1000
0100
0010
0001
,
1000
0000
0010
0000
0001
0100
0010
1000
,
0000
0020
0230
0302
,
2013
0000
0000
0000
3010
0100
0000
0002
,
0000
0000
0000
0000
0103
0010
0100
0010
,
2000
0000
0000
0000
3001
0100
0000
0020
,
0000
0000
0000
0000
0000
0000
0030
0000
0010
0000
0010
0100
1000
0000
0010
0000
,
1001
0000
0100
0010
0001
0000
0010
0000
0100
0000
1000
0000
0010
0000
0100
0000
,
1001
0000
0100
0010
0001
0000
1000
0000
0001
0000
0010
0100
1000
0000
0100
0000
,
0001
0010
0100
1000
0001
0010
0100
1000
0001
0010
0100
1000
0020
0000
0000
0000
,
0032
0023
0230
2300
,
3011
0011
1001
1001
,
0110
0000
1010
0100
1001
0000
0011
1100
,
0011
0000
1010
0100
1001
0000
0011
0000
,
1010
0000
0100
0010
1001
0000
0100
0000
0011
0000
0000
0000
0011
0000
0000
0000
,
1100
0110
0011
1010
,
1100
0000
0001
0010
1100
0000
0010
0000
0101
0000
0000
0000
1001
0000
0200
0000
,
0000
0000
0000
0001
0010
1000
0010
0000
,
0320
0000
1000
0000
0001
0100
0001
0000
,
1031
0000
0000
1100
0011
0000
1001
0000
,
1001
0000
1010
0100
0011
0000
0100
0000
,
1010
0000
1001
0100
1001
0000
0101
0000
,
1010
0000
0100
0010
1001
0000
0100
0000
0011
0000
0000
0000
0011
0000
0000
0000
,
1010
1100
0101
1001
,
0110
0000
0001
0010
1100
0000
0001
0000
0110
0000
0000
0000
0110
0000
2000
0000
,
0001
0001
0001
0001
0001
0001
0001
0001
,
3002
0023
0230
2300
3200
0320
0032
0203
,
1310
1010
0101
0110
,
1010
0000
0000
0000
0001
1000
0001
1000
0001
0000
0000
0000
0110
0000
1001
0000
,
0110
1010
0101
0011
,
1010
0000
0101
0010
0101
0000
1001
0110
,
1001
1010
0110
1001
,
0101
0000
1100
0011
1100
0000
1001
0020
,
0000
0000
0000
1000
0001
1000
0100
0000
,
0230
0000
0010
0000
0001
0010
0001
0000
,
1301
0101
1001
1010
,
0110
0000
0000
0000
0001
1000
0001
1000
0001
0000
0000
0000
0110
0000
1001
0000
,
0110
1001
1010
0110
,
0101
0000
1001
0100
1010
0000
0011
1100
,
0011
0000
0100
0000
0011
1100
0011
1100
,
0011
0000
0000
0000
0100
0000
0000
0000
0001
1000
0001
1000
0001
0000
0110
0000
,
0110
0000
0000
1001
0000
1010
0000
0101
,
0000
0000
0020
0230
,
1301
0000
0000
0001
0110
0000
0001
1100
,
0001
0010
0101
0010
1100
0001
0110
1000
,
0110
0001
1000
0001
1100
0000
0010
0101
,
0010
1000
0101
0010
1001
0100
1010
0001
,
1010
0000
0100
0001
0100
0001
0000
0000
0100
0010
0100
0010
,
0000
0000
0001
0100
0001
0100
0000
0000
0010
1000
0010
1000
,
0000
0000
0000
0000
0100
0000
0010
0000
0100
0000
0010
0000
0100
0000
0000
0010
0000
0000
0001
0000
0000
1100
0000
0000
,
0000
0100
0011
0100
1001
0010
1100
0001
,
1100
0000
0000
0010
0000
0000
1001
0000
,
0110
0000
0000
1001
0000
0000
0011
0000
,
0110
1000
0010
1100
,
0011
0000
0000
0110
0000
0000
1001
0000
,
1100
0000
0000
0010
0000
0000
1001
0000
0000
0100
1000
0100
,
0011
0000
0000
1000
0000
0000
0001
0000
0000
0010
0100
1000
,
0011
1100
0011
1100
,
0012
0203
2300
3000
,
0011
0100
0011
1000
0011
0000
0011
1000
,
0011
0100
0011
0000
1001
0000
1100
0011
,
1100
0010
1100
0001
1100
0000
1100
0010
,
1100
0000
0001
0010
1100
0000
0011
0000
1100
0000
0000
0000
1100
0000
0000
0000
,
0011
0100
0011
1000
0011
0000
0011
0100
,
0011
0000
1000
0100
0011
0000
1100
0000
0011
0000
0000
0000
1000
0100
0010
0001
,
1100
0001
1100
0010
1100
0000
1100
0001
,
0200
0320
0032
2003
,
3110
0001
0110
1000
0110
0000
0110
1000
,
0110
0001
0110
0000
1010
0000
1100
0011
,
1100
0001
1100
0010
1100
0000
1100
0001
,
1100
0000
0001
0010
1100
0000
0010
0000
1100
0000
0000
0000
0101
0000
0000
0000
,
0011
0100
0011
1000
0011
0000
0011
0100
,
0011
0000
1000
0100
0011
0000
1000
0000
0011
0000
1100
0000
0011
0000
1100
0000
,
0010
0010
0020
0000
2030
0000
3020
0000
,
0031
0010
0200
0000
2300
0000
3200
0000
,
0321
0000
0000
0000
1030
0200
0300
0002
,
0000
0000
0000
0000
1003
0100
0010
0001
,
0200
0000
0000
0000
0310
2000
3000
0002
,
0000
0000
0000
0003
0002
0000
0023
0000
,
0230
0000
0000
0000
1300
0020
0030
0002
,
0000
0000
0000
0000
0013
0100
1000
0100
,
0020
0000
0000
0000
0130
0002
0003
2000
,
0000
0000
0000
3000
2000
0000
3200
0000
,
0321
0030
0020
0030
1000
0001
1000
0001
,
0200
0300
0010
0100
2000
0000
3200
0000
,
0321
0030
1000
0010
1000
0010
0100
0010
,
0002
0003
0001
1000
0010
0200
0000
1300
,
0110
0000
0001
0000
0010
0100
1000
0000
0010
0000
0001
0000
1000
0000
0001
0000
,
0110
0000
1000
0100
0010
0000
0100
0000
0001
0000
0010
0100
1000
0000
0001
0100
,
0001
0100
0002
0000
0023
0000
0230
0000
2300
0000
3200
0000
0320
0000
0032
0000
,
2203
0320
0032
0000
,
3123
0030
0120
0030
1001
0100
1001
0010
,
1200
0300
0101
0010
1200
0300
0011
1100
,
0021
0000
1031
0100
0011
0100
1001
0010
,
1200
0000
0300
0000
0101
0000
0010
0000
1002
0000
0000
0000
2013
0000
3001
0010
,
1200
0300
1200
0300
0101
0010
1001
0100
,
2010
3000
0101
0010
1200
0300
0011
1200
,
0000
0302
0023
0230
2301
3200
1320
0032
,
2003
3200
0320
0032
,
0213
0300
0210
0300
1001
0010
1100
0010
,
1002
0003
0110
1000
0201
0300
0011
1100
,
0012
0000
1103
0010
1001
0010
1100
0010
,
0201
0000
0300
0000
0110
0000
1000
0000
0011
0000
1200
0000
0000
0000
0301
0010
,
2100
3000
2100
3000
0101
0010
1001
0100
,
2010
3000
0011
0100
1002
0003
1100
0021
,
0000
2030
3200
0320
1032
0023
0231
2300
,
3022
0230
2300
0000
,
3113
0110
1000
0110
0110
0001
0110
0110
,
1000
0110
0110
0001
0110
0110
1000
0100
,
0011
0011
0100
0011
0011
1000
0011
0011
,
1000
0110
0110
1000
0110
0110
0001
0010
,
1100
1100
0010
1100
1100
0001
1100
1100
,
0010
1100
1100
0001
1100
1100
0010
0001
,
0110
0110
0001
0110
0110
1000
0110
0110
,
1000
0011
0011
0100
1001
0010
1100
0001
,
1100
1100
0010
1100
1100
0001
1100
1100
,
0010
0000
1100
0000
1100
0000
0001
0000
1100
0000
1100
0000
0001
0010
0100
1000
,
0011
0011
1000
0011
0011
0100
0011
0011
,
1000
0000
0110
0000
0110
0000
0001
0000
0110
0000
0110
0000
1000
0100
0010
0001
,
1100
1100
0010
1100
1100
0001
1100
1100
,
0001
0010
0100
1000
0001
0010
0100
1000
0002
0000
0000
0000
0000
0000
2103
0000
,
0000
3020
0230
0302
1023
0230
0312
0203
,
2301
0001
0200
0000
,
3311
0000
0000
0000
;

//---------------dance-single - ----------------
#NOTES:
     dance-single:
     :
     Beginner:
     3:
     0.162946,0.251953,0.031250,0.046875,0.000000,146.000000,142.000000,4.000000,6.000000,0.000000,0.000000,0.162946,0.251953,0.031250,0.046875,0.000000,146.000000,142.000000,4.000000,6.000000,0.000000,0.000000:
0000
0000
0000
0000
,
0000
0000
0000
0000
,
0000
0000
0000
0000
,
0000
0000
0000
0000
,
0000
0000
0000
0000
,
0000
0000
0000
0000
,
0000
0000
0000
0000
,
0000
0000
0000
0000
,
0000
0000
0000
0000
,
0010
0000
0000
0000
,
0000
0000
0000
0000
,
0100
0000
0000
0000
,
0000
0000
0000
0000
,
0001
0000
0000
0000
,
1000
0000
0000
0000
,
0010
0000
0100
0000
,
0010
0000
0000
0000
,
0100
0000
0000
0000
,
0010
0000
0000
0000
,
1000
0000
0000
0000
,
0010
0000
0000
0000
,
0100
0000
0000
0000
,
0001
0000
0000
0000
,
2000
0000
0000
0000
,
3020
0000
0000
0000
,
0130
0000
0000
0000
,
0010
0000
0000
0000
,
1000
0000
0000
0000
,
0100
0000
0000
0000
,
0010
0000
0000
0000
,
0001
0000
0000
0000
,
0020
0000
0000
0000
,
0130
0000
0000
0000
,
0010
0000
1000
0000
,
0000
0000
0000
0000
,
0100
0000
0010
0000
,
0000
0000
0000
0000
,
0100
0000
0001
0000
,
0000
0000
0000
0000
,
0020
0000
0000
0000
,
2030
0000
0000
0000
,
3010
0000
0100
0000
,
0000
0000
0000
0000
,
0001
0000
0100
0000
,
0000
0000
0000
0000
,
1000
0000
0010
0000
,
1000
0000
0010
0000
,
0100
0000
0000
0000
,
0000
0000
0000
0000
,
0101
0000
0000
0000
,
1000
0000
0000
0000
,
0010
0000
0000
0000
,
0100
0000
0000
0000
,
0001
0000
1000
0000
,
0001
0000
1000
0000
,
0010
0000
0100
0000
,
0010
0000
1000
0000
,
0001
0000
0000
0000
,
0100
0000
0000
0000
,
0010
0000
0000
0000
,
1000
0000
0000
0000
,
0010
0000
0000
0000
,
0100
0000
0000
0000
,
0001
0000
0100
0000
,
0010
0000
1000
0000
,
0010
0000
0000
0000
,
0100
0000
0010
0000
,
0001
0000
0000
0000
,
0100
0000
0010
0000
,
1000
0000
0000
0000
,
0010
0000
0100
0000
,
0001
0000
0000
0000
,
0010
0000
0000
0000
,
1000
0000
0000
0000
,
0010
0000
0100
0000
,
0010
0000
0000
0000
,
0001
0000
0100
0000
,
0001
0000
0000
0000
,
1000
0000
0010
0000
,
0100
0000
0000
0000
,
0010
0000
0000
0000
,
1001
0000
0000
0000
,
0000
0000
0000
0000
,
0010
0000
0000
0000
,
0000
0000
0000
0000
,
1000
0000
0000
0000
,
0000
0000
0000
0000
,
0001
0000
0000
0000
,
0000
0000
0000
0000
,
0100
0000
0000
0000
,
0010
0000
0000
0000
,
1000
0000
0000
0000
,
0001
0000
0000
0000
,
0010
0000
0000
0000
,
0100
0000
0000
0000
,
1000
0000
0010
0000
,
1000
0000
0000
0000
,
0010
0000
0000
0000
,
0100
0000
0001
0000
,
1000
0000
0000
0000
,
0010
0000
0100
0000
,
0010
0000
0000
0000
,
1000
0000
0001
0000
,
0100
0000
0000
0000
,
0010
0000
0000
0000
,
1000
0000
0000
0000
,
0001
0000
0100
0000
,
0001
0000
0000
0000
,
0010
0000
1000
0000
,
0010
0000
0000
0000
,
0100
0000
0010
0000
,
1000
0000
0000
0000
,
0011
0000
0000
0000
,
0100
0000
0000
0000
,
0010
0000
1000
0000
,
0010
0000
0000
0000
,
0001
0000
0100
0000
,
0001
0000
0000
0000
,
0100
0000
0010
0000
,
1000
0000
0000
0000
,
0010
0000
0100
0000
,
0001
0000
0000
0000
,
0010
0000
0100
0000
,
0010
0000
0000
0000
,
1000
0000
0001
0000
,
0100
0000
0000
0000
,
0020
0000
0000
0000
0000
0000
0000
0030
,
0000
0000
0000
0000
,
0010
0000
1000
0000
,
1001
0000
0000
0000
;

//---------------dance-single - Copied from----------------
#NOTES:
     dance-single:
     Copied from:
     Medium:
     10:
     0.543527,0.655078,0.218750,1.109375,0.000000,487.000000,459.000000,28.000000,142.000000,0.000000,0.000000,0.543527,0.655078,0.218750,1.109375,0.000000,487.000000,459.000000,28.000000,142.000000,0.000000,0.000000:
0000
0000
0000
0000
,
0000
0000
0000
0000
,
0000
0000
0000
0000
,
0000
0000
0000
0000
,
0000
0000
0000
0000
,
0000
0000
0000
0000
,
0000
0000
0000
0000
,
0000
0000
0000
0000
,
0000
0000
0000
0000
,
0210
0000
0300
0000
,
2000
0000
3010
0100
,
0102
0000
0003
0000
,
0020
0000
1030
0010
,
0210
0000
0300
0000
,
0102
0000
0103
0010
,
0210
0000
0310
0000
,
2000
3200
0320
0032
,
0103
0010
0001
1000
,
0001
0100
0100
0010
,
0010
0100
1000
0010
,
0100
0000
0010
0100
0010
0000
1000
0000
,
1000
0010
0100
0001
,
1000
0000
0010
0100
0001
0000
0002
0000
,
0000
0000
0000
0000
,
0203
0000
0000
0000
,
0310
0000
0001
0100
,
0010
0010
0100
2000
,
3001
0100
0100
0010
,
1000
0000
0001
0100
0001
0000
0100
0000
,
1000
0001
0010
0100
,
0010
0000
1000
0010
0100
0000
0002
0000
,
0000
0000
0000
0000
,
0203
0320
0230
0320
2030
3200
2300
3020
,
0230
0300
0002
0003
0200
0300
0020
0030
,
1000
0000
0010
0100
0010
0000
1000
0000
,
2000
3000
0020
0030
0002
0003
0200
0300
,
1000
0000
0100
0010
0100
0000
0001
0000
,
0002
0003
0020
0030
0200
0300
2000
3000
,
0010
0000
0100
0010
0100
0000
2000
0000
,
0000
0000
0000
0000
,
3020
0000
0000
0000
,
0230
0300
2000
3000
0200
0300
0020
0030
,
0001
0000
0100
0010
0100
0000
0001
0000
,
0002
0003
0020
0030
0200
0300
2000
3000
,
0010
0000
0100
0001
0100
0000
0010
0000
,
0010
0000
0100
0000
0001
0100
0001
0000
,
0100
0000
1000
0000
0001
0100
0001
1000
,
0010
0000
0000
0100
0000
0010
0000
0100
,
0000
0000
2000
3020
,
0130
0000
0001
1000
,
0010
0010
0100
1000
,
0001
0001
0100
0010
,
1000
0010
0100
0001
,
0200
0300
0020
0030
,
0200
0300
2000
3000
,
0020
0030
0200
0310
,
0100
0001
0100
0010
,
1010
0000
0000
0100
,
0110
0000
0000
1000
0000
0000
0010
0000
,
1010
0000
0000
0001
,
0101
0000
0000
0001
0000
0000
0100
0000
,
0110
0000
1000
0010
,
0110
0000
1000
0001
,
0101
1000
1001
0100
,
0020
0230
0302
0000
,
0103
0010
0100
0000
0001
0000
1000
0010
,
1000
0010
0001
0100
,
0010
1000
0010
0000
0100
0000
0001
0010
,
0001
0100
0010
1000
,
0001
0100
0001
0000
0100
0000
0010
1000
,
0010
0100
1000
0100
,
0100
0010
0100
0000
0001
0000
0010
0100
,
0020
0230
0320
2030
,
3010
0100
0010
0000
0100
0000
0100
0001
,
0100
0010
0001
0100
,
1000
0010
1000
0000
0010
0000
0010
0100
,
0010
0001
0010
0100
,
1000
0100
1000
0000
0010
0000
0010
1000
,
0010
0100
0001
0100
,
1000
0010
2000
0000
3002
0000
2003
0000
,
3020
0230
0320
0230
,
0302
0000
0000
0000
0103
0020
0030
2000
,
0000
0000
0000
3000
0010
0100
0010
1000
,
0020
0000
0000
0000
0130
0002
0003
0200
,
0000
0000
0302
2003
,
3020
0000
0000
0000
0130
0002
0003
0200
,
0000
0000
0000
0000
0301
1000
0001
0100
,
0020
0000
0000
0000
1030
0002
0003
0200
,
0000
0000
0000
0300
0200
0000
0302
0000
,
2003
3000
2000
3000
0001
1000
0001
0000
,
0200
0300
0100
0010
2000
0000
3020
0000
,
0230
0300
0001
1000
0001
1000
0010
0000
,
0200
0300
0100
0010
0100
0000
0010
0000
,
0002
0003
0002
0003
0100
0010
0100
0000
,
2000
3000
0010
0100
0020
0030
1000
0000
,
0010
0000
1000
0100
1000
0010
0100
0010
,
0200
0000
0300
0000
,
0110
0110
1000
1000
,
0020
0030
0010
0100
0002
0000
0023
0000
,
0230
1300
1000
0010
,
0200
0300
0100
0010
0100
0000
0020
0030
,
0102
0003
0102
0003
0100
0000
0010
0000
,
1000
0000
0010
0100
0002
0003
0000
0200
,
0000
0320
2030
3020
0230
0302
0023
0032
,
0203
0000
0000
0000
0310
0000
2000
3000
,
1020
0030
1020
0030
0100
0000
0100
0000
,
0002
0003
0001
1000
0020
0000
0230
0000
,
0302
0103
0100
1000
,
2000
3000
0010
0100
0010
0100
0001
0000
,
0201
0300
0201
0300
0001
0000
0010
0000
,
0200
0300
0010
1000
0020
0030
0000
0200
,
0000
0320
0230
0320
2030
3020
0230
0320
,
2030
0000
0000
3000
,
0010
0000
0000
0010
0000
0000
0010
0000
,
0000
0010
0000
0000
0010
0000
1001
0000
,
0100
0000
0000
0100
0000
0000
0100
0000
,
0000
0001
0000
0000
0001
0000
0101
0000
,
0100
0000
0000
0100
0000
0000
0100
0000
,
0000
0100
0000
0000
0100
0000
0110
0000
,
0010
0000
0000
0010
0000
0000
0010
0000
,
0000
0001
0000
0000
0100
0000
1100
0000
,
1000
0000
0000
1000
0000
0000
1000
0000
,
0000
1000
0000
0000
1000
0000
1010
0000
,
0010
0000
0000
0010
0000
0000
0010
0000
,
0000
0100
0000
0000
0100
0000
0101
0000
,
0001
0000
0000
0001
0000
0000
0001
0000
,
0000
0001
0000
0000
0001
0000
0000
0101
,
0000
0200
0320
2030
3020
0230
0302
0203
,
0320
0000
0000
0000
,
0030
0000
0000
0000
;

//---------------dance-single - Copied from Copied f----------------
#NOTES:
     dance-single:
     Copied from Copied f:
     Easy:
     7:
     0.404018,0.503906,0.195313,0.812500,0.000000,362.000000,337.000000,25.000000,104.000000,0.000000,0.000000,0.404018,0.503906,0.195313,0.812500,0.000000,362.000000,337.000000,25.000000,104.000000,0.000000,0.000000:
0000
0000
0000
0000
,
0000
0000
0000
0000
,
0000
0000
0000
0000
,
0000
0000
0000
0000
,
0000
0000
0000
0000
,
0000
0000
0000
0000
,
0000
0000
0000
0000
,
0000
0000
0000
0000
,
0000
0000
0000
0000
,
0200
0000
0000
0000
,
0300
0000
1000
0010
,
0210
0000
0000
0000
,
0300
0000
0100
0001
,
0102
0000
0000
0000
,
1003
0000
0001
0100
,
0120
0000
0000
0000
,
0230
0320
2030
3020
,
0130
0000
0010
0000
,
0100
0000
0010
0000
,
0001
0010
1000
0001
,
0100
0000
0001
0001
,
1000
0000
0010
0000
,
1000
0001
0100
0200
,
0000
0000
0000
0000
,
0320
0000
0000
0000
,
0031
0000
0100
0000
,
0001
0001
0010
2000
,
3100
0010
0010
0001
,
1000
0000
0100
0000
,
1000
0000
0001
0000
,
0100
1000
0010
0200
,
0000
0000
0000
0000
,
0320
0030
0020
0030
2000
3000
2000
3000
,
0020
0030
0200
0300
0020
0030
0002
0003
,
0100
0000
1000
0000
,
2000
3000
0002
0003
0200
0300
0020
0030
,
1000
0000
0010
0000
,
0200
0300
0002
0003
0020
0030
2000
3000
,
0001
0100
0010
2000
,
0000
0000
0000
0000
,
3002
0000
0000
0000
,
0023
0030
2000
3000
0020
0030
0002
0003
,
0100
0000
0010
0100
,
0200
0300
0002
0003
0020
0030
2000
3000
,
0001
0000
0010
0000
,
0001
0010
0100
0100
,
0010
1000
0100
0100
,
0001
0000
0000
0010
0000
0100
0000
0010
,
0000
0000
0000
0000
,
0110
0000
0000
0000
0100
0000
0000
0001
,
0000
0001
0010
1000
,
1000
0000
0000
0000
0010
0000
0000
0100
,
0000
0001
0010
0100
,
0020
0030
0002
0003
,
0020
0030
2000
3000
,
0200
0300
0020
0031
,
0100
0100
0010
0001
,
1001
0000
0000
0100
,
0101
0000
0000
0001
,
1001
0000
0000
0100
,
0110
0000
0000
0001
,
1001
0000
1000
0001
,
0011
0000
1000
0100
,
0110
0000
0101
0000
,
0002
0023
0230
0000
,
0310
0010
0100
1000
,
1000
0001
0100
0010
,
0001
0001
1000
0100
,
0100
0010
1000
0000
,
0100
0100
0010
0001
,
0001
0010
1000
0010
,
0010
0010
0100
0001
,
1000
0000
0000
0000
,
0110
0100
0010
0010
,
0010
0001
0100
0010
,
1000
1000
0001
0001
,
0001
0100
0001
0000
,
1000
1000
0001
0001
,
0001
0010
0100
0010
,
1000
0000
0000
0000
,
0000
0000
2000
3020
,
0230
0000
0000
0000
0310
0000
0000
2000
,
0000
0000
0000
3000
0001
0000
0100
0000
,
0002
0000
0000
0000
1003
0000
0000
0020
,
0000
0000
0230
2300
,
3002
0000
0000
0000
1003
0000
0000
0020
,
0000
0000
0130
0100
,
0002
0000
0000
0000
1003
0000
0000
0020
,
0000
0000
0000
0030
0020
0000
0230
0000
,
2300
3000
2000
3000
0100
0000
0100
0000
,
0020
0030
0010
0000
2000
0000
3002
0000
,
0023
0030
0100
0000
0100
0000
0001
0000
,
0010
1000
0010
0001
,
0101
0000
1000
0010
,
1010
0000
0000
0000
,
1001
0000
1010
0000
,
0120
0000
0030
0000
,
0002
0003
0002
0003
1000
0000
1000
0000
,
0002
0003
0001
0000
0200
0000
0302
0000
,
0023
1030
1000
0001
,
0020
0030
0010
0000
0010
0000
0002
0003
,
0200
0300
0200
0300
0010
0000
0001
0000
,
2000
3000
0001
0000
0200
0300
0000
0010
,
0000
0000
2000
3000
0020
0030
0002
0003
,
0020
0000
0000
0000
0031
0000
2000
3000
,
0002
0003
0002
0003
0010
0000
0010
0000
,
0200
0300
0100
0000
0002
0000
0023
0000
,
0230
0310
0010
1000
,
2000
3000
0001
0000
0001
0100
0000
0000
,
0020
0030
0020
0030
0100
0000
0001
0000
,
0020
0030
0001
0000
0002
0003
0000
0100
,
0000
0000
0020
0030
2000
3000
0020
0030
,
2000
0000
0000
3000
,
0001
0000
0001
0000
,
0001
0000
0001
1100
,
0010
0000
0010
0000
,
0010
0000
0100
0110
,
0010
0000
0010
0000
,
0010
0000
0010
0011
,
0001
0000
0001
0000
,
0001
0000
0010
1010
,
1000
0000
1000
0000
,
1000
0000
1000
1001
,
0001
0000
0001
0000
,
0001
0000
0010
0110
,
0100
0000
0100
0000
,
0100
0000
0000
0000
0100
0000
0000
0110
,
0000
0000
0002
0003
2000
3000
2000
3000
,
0020
0000
0000
0000
,
0030
0000
0000
0000
;
