#TITLE:Fuck I'm Lonely;
#SUBTITLE:;
#ARTIST:Lauv, Anne Marie;
#TITLETRANSLIT:;
#SUBTITLETRANSLIT:;
#ARTISTTRANSLIT:;
#GENRE:;
#CREDIT:;
#BANNER:AV.avi;
#BACKGROUND:BG.png;
#LYRICSPATH:;
#CDTITLE:;
#MUSIC:Fuck i'm lonely.mp3;
#OFFSET:-0.275000;
#SAMPLESTART:44.419998;
#SAMPLELENGTH:15.000000;
#SELECTABLE:YES;
#BPMS:0.000000=95.019997
;
#STOPS:
;
#BGCHANGES:0.000=MV.avi=1.200=1=1=1=StretchRewind==CrossFade==,
4.500=MV.avi=1.000=0=0=1=====,
99999=-nosongbg-=1.000=0=0=0 // don't automatically add -songbackground-
;
#KEYSOUNDS:;
#ATTACKS:;

//---------------dance-single - ----------------
#NOTES:
     dance-single:
     :
     Challenge:
     14:
     0.525737,0.596632,0.669120,0.620330,0.536690,528.000000,432.000000,96.000000,89.000000,0.000000,44.000000,0.525737,0.596632,0.669120,0.620330,0.536690,528.000000,432.000000,96.000000,89.000000,0.000000,44.000000:
0000
0000
0000
0000
,
0000
0000
0000
0000
0000
0000
0000
0000
1000
0000
0000
0100
0000
0000
0020
0000
,
0000
1000
0000
0030
0001
0000
2000
0000
3100
0000
0000
0010
0000
0000
2000
0000
,
0000
0010
0000
0000
3100
0000
0011
0000
0001
0000
0000
0100
0000
0000
0020
0000
,
0000
1000
0000
0000
0031
0000
0002
0000
0103
0000
0000
0010
0000
0000
2000
0000
,
0000
0001
0000
0000
3100
0000
0110
1000
0000
0010
0000
0100
0000
0001
0000
0100
,
0000
1000
0000
0100
0000
0010
0000
0001
0000
1000
0000
0010
0000
1000
0000
0010
,
0000
0001
0000
0000
0100
0000
1001
0010
0000
1000
0000
0001
0000
0100
0000
1000
,
0000
0010
0000
0100
0000
0010
0000
1000
0001
0000
0000
1000
0000
0000
0010
0000
,
0000
0100
0000
0000
0001
0000
1001
0010
0000
1000
0000
0100
0000
0010
0000
0001
,
0000
1000
0000
0010
0000
0100
0000
0010
0000
0001
0000
0010
0000
0100
0000
0010
,
0000
1000
0000
0000
0001
0000
1001
0010
0000
0001
0000
0010
0000
0100
0000
0010
,
0000
1000
0000
0001
0000
0100
0000
0010
1000
0000
0000
0100
0000
0000
0010
0000
,
0000
0001
0000
0000
0010
0000
1001
0000
0100
0000
0010
0100
0010
0000
1000
0000
,
0001
0100
0001
0000
0100
0000
0010
0000
0001
0000
0010
0000
0100
0000
0001
0000
,
2000
0000
0000
0000
3200
0000
0000
0000
0301
0000
1000
0001
1000
0000
0010
0000
,
0100
0010
0100
0000
0001
0000
0100
0000
1000
0000
0100
0000
0010
0000
0001
0000
,
0020
0000
0000
0000
0230
0000
0000
0300
1001
0000
0000
0000
1001
0000
0102
1000
,
0000
0000
0100
0000
1013
0000
1000
0100
1001
0000
0100
1020
0000
0000
2031
0100
,
0001
0000
0100
0000
3020
0000
0000
0000
0131
0000
0000
1020
0000
0000
1032
0100
,
0000
0000
0010
0000
1013
0000
0100
0010
1100
0000
0001
1020
0000
0000
1032
0100
,
0010
0000
0100
0000
1013
0000
0100
0000
0010
0000
0100
2010
0001
0000
3201
0000
,
0010
0000
0000
0000
1300
0000
0010
0000
1000
0000
0000
0012
0100
0000
1023
0000
,
0100
0000
0000
0000
1030
0000
0000
0000
1001
0000
0000
1020
0000
0000
0132
1000
,
0000
0000
0100
0000
1013
0000
1000
0100
1001
0000
0100
1020
0000
0000
2031
0100
,
0001
0000
0100
0001
3000
0000
1000
0100
1001
0000
0010
0100
0010
0000
1000
0001
,
0000
0010
0100
0000
0010
0000
1000
0000
0010
0000
0001
1000
0100
0000
0010
1000
,
0000
1000
0010
0000
0100
0000
0010
0000
0100
0000
0001
1000
0010
0000
0100
0010
,
0000
0010
1000
0000
0001
0000
0100
0000
0010
0000
0010
0001
1000
0000
1000
0010
,
0000
0010
0100
0000
0001
0000
0100
0000
1001
0000
0010
0001
0100
0000
1100
0010
,
0000
0100
0001
0000
1000
0000
0010
0000
0110
0000
0001
0010
1000
0000
0110
0001
,
0000
1000
0010
0000
0100
0000
0001
0000
1100
0000
0010
0001
0100
0000
1001
0010
,
0000
0100
0001
0000
1000
0000
0010
0000
1100
0000
0010
0001
0100
0000
1001
0010
,
0000
0100
0001
0000
1000
0000
0010
0000
0110
0000
0000
0100
0000
0000
1000
0000
,
0000
0100
2000
0000
0010
3000
0000
0000
0002
0000
0000
0100
0003
0000
0020
0000
,
0000
1000
0030
0100
0001
0000
1000
0000
0100
0000
0000
0010
0000
0000
1000
0000
,
0000
0100
0000
0000
0010
0000
0000
0000
0002
0000
0000
1003
0000
0000
0020
0000
,
0000
0130
0000
0000
0000
0000
0000
0000
1001
0000
0000
0000
1001
0000
2010
0001
,
0000
0000
0010
0000
3101
0000
0001
0010
1001
0000
0010
0201
0000
0000
1302
0010
,
2000
0003
0000
0000
0000
0000
0000
0000
0000
0000
0000
0000
0000
0000
0000
0000
0000
0000
0000
0000
0000
0000
0000
0000
0100
0000
0000
0000
0000
0000
0000
0000
0000
0000
0000
0000
0000
0000
0000
0000
0000
0000
0000
0000
0000
0000
0000
0000
3020
0000
0000
0000
0000
0000
0000
0000
0000
0000
0000
0000
0000
0000
0000
0000
0000
0000
0000
0000
0000
0000
0000
0000
0000
0000
0000
0000
0000
0000
0000
0000
0000
0000
0000
0000
0000
0000
0000
0000
0000
0000
0000
0000
0000
0000
0000
0000
0131
0000
0000
0000
0000
0000
0000
0000
0000
0000
0000
0000
0000
0000
0000
0000
0000
0000
0000
0000
0000
0000
0000
0000
0000
0000
0000
0000
0000
0000
0000
0000
0000
0000
0000
0000
1020
0000
0000
0000
0000
0000
0000
0000
0000
0000
0000
0000
0000
0000
0000
0000
0000
0000
0000
0000
0000
0000
0000
0000
0000
0000
0000
0000
0000
0000
0000
0000
0000
0000
0000
0000
1032
0000
0000
0000
0000
0000
0000
0000
0000
0000
0000
0000
0100
0000
0000
0000
0000
0000
0000
0000
0000
0000
0000
0000
,
0000
0000
0200
0000
1313
0000
0100
0010
1100
0000
0001
1020
0000
0000
1032
0100
,
0010
0000
0100
0000
1023
0000
0230
0000
0320
0000
0230
2001
0320
0000
3231
0000
,
0002
0000
0003
0000
2300
0000
3020
0000
2030
0000
3000
0012
0200
0000
2323
0000
,
3200
0000
0000
0000
1030
0000
0000
0000
1301
0000
0000
0000
1010
0000
0102
1000
,
0000
0000
1200
0000
1313
0000
1000
0100
1001
0000
0100
1020
0000
0000
2031
0100
,
0001
0000
0100
0001
3110
0000
1000
0100
1001
0000
0010
0102
0010
0000
2003
0010
,
0000
0010
0100
0000
3011
0000
2001
0000
3010
0000
0001
2010
0100
0000
3022
0230
,
0300
2000
3020
0000
1233
0000
0320
0000
0130
0000
0010
2001
0010
0000
3201
0020
,
0030
0020
2030
0000
3312
0000
0203
0000
0310
0000
0010
0102
1000
0000
2103
0010
,
0000
0010
0100
0000
3011
0000
0100
0000
1001
0000
0010
1002
0100
0000
2103
0010
,
0000
0100
0001
0000
3001
0000
0010
0000
1010
0000
0100
2001
0010
0000
3210
0001
,
0000
1000
0010
0000
0310
0000
0001
0000
1100
0000
0010
1002
0100
0000
1203
0010
,
0000
1000
0001
0000
1300
0000
0010
0000
1100
0000
0010
1002
0100
0000
2103
0010
,
0000
0100
0001
0000
3001
0000
0010
0000
0110
0000
0000
0000
0000
0000
0000
0000
;

//---------------dance-single - Copied from----------------
#NOTES:
     dance-single:
     Copied from:
     Hard:
     9:
     0.363436,0.410185,0.090610,0.146370,0.310165,365.000000,352.000000,13.000000,21.000000,0.000000,0.000000,0.363436,0.410185,0.090610,0.146370,0.310165,365.000000,352.000000,13.000000,21.000000,0.000000,0.000000:
// measure 0
0000
0000
0000
0000
,  // measure 1
0000
0000
0000
0000
0000
0000
0000
0000
1000
0000
0000
0100
0000
0000
0010
0000
,  // measure 2
0000
0001
0000
0000
0010
0000
0000
0000
0100
0000
0000
0010
0000
0000
1000
0000
,  // measure 3
0000
0001
0000
0000
0100
0000
0000
0000
0010
0000
0000
0100
0000
0000
0010
0000
,  // measure 4
0000
1000
0000
0000
0001
0000
0000
0000
0100
0000
0000
0010
0000
0000
1000
0000
,  // measure 5
0000
0010
0000
0000
0100
0000
0000
0000
0001
0000
0000
0100
0000
0000
0010
0000
,  // measure 6
0000
1000
0000
0000
0010
0000
0000
0000
1000
0000
0000
0010
0000
0000
0100
0000
,  // measure 7
0000
0001
0000
0000
0100
0000
0000
0000
0010
0000
0000
1000
0000
0000
0001
0000
,  // measure 8
0000
0100
0000
0000
0010
0000
0000
0000
1000
0000
0000
0010
0000
0000
0100
0000
,  // measure 9
0000
0001
0000
0000
0100
0000
0000
0000
0010
0000
0000
1000
0000
0000
0100
0000
,  // measure 10
0000
0010
0000
0000
0001
0000
0000
0000
1000
0000
0000
0010
0000
0000
0100
0000
,  // measure 11
0000
0001
0000
0000
1000
0000
0000
0000
0010
0000
0000
0100
0000
0000
1000
0000
,  // measure 12
0000
0001
0000
0000
0010
0000
0000
0000
1000
0000
0000
0001
0000
0000
0010
0000
,  // measure 13
0000
0100
0000
0000
0010
0000
0000
0000
0001
0000
0001
1000
0001
0000
0100
0000
,  // measure 14
0010
0100
0010
0000
1000
0000
0001
0000
0000
0000
0100
0000
1000
0000
0100
0000
,  // measure 15
0010
0000
0000
0000
0001
0000
0000
0000
0010
0000
0100
0010
0100
0000
0001
0000
,  // measure 16
1000
0001
1000
0000
0010
0000
0100
0000
0000
0000
1000
0000
0100
0000
0010
0000
,  // measure 17
0001
0000
0000
0000
0100
0000
0000
0000
1001
0000
0000
0000
0101
0000
0001
2000
,  // measure 18
0000
0000
3010
0000
0000
0000
0010
0200
0000
0000
0301
0000
0000
0000
0010
0200
,  // measure 19
0000
0000
0301
0000
2000
0000
0000
0000
3010
0000
0000
0000
0000
0000
0001
0200
,  // measure 20
0000
0000
0310
0000
0000
0000
0001
0200
0000
0000
0310
0000
0000
0000
0001
0200
,  // measure 21
0000
0310
1000
0100
0010
0001
0010
0100
,  // measure 22
0010
0000
1000
0001
0100
0000
1000
0010
,  // measure 23
0100
0000
0000
0000
0001
0000
0000
0000
1000
0000
0000
0000
0010
0000
0100
0002
,  // measure 24
0000
0000
1003
0000
0000
0000
0100
0020
0000
0000
1030
0000
0000
0000
0100
0020
,  // measure 25
0000
0000
1030
0001
0000
0000
0100
0000
1001
0000
0010
0000
0100
0000
0100
0010
,  // measure 26
0000
0010
0100
0000
0010
0000
0100
0000
1001
0000
0100
0000
1000
0000
0100
0010
,  // measure 27
0000
0010
0100
0000
0010
0000
0100
0000
1001
0000
0010
0000
0100
0000
0100
0001
,  // measure 28
0000
0001
0100
0000
0001
0000
0100
0000
0101
0000
0001
0000
0100
0000
0100
0010
,  // measure 29
0000
0010
0100
0000
0010
0000
0100
0000
1010
0000
0010
0000
1000
0000
1000
0010
,  // measure 30
0000
0010
1000
0000
0010
0000
1000
0000
0101
0000
0001
0000
0100
0000
0100
0001
,  // measure 31
0000
0001
0100
0000
0001
0000
0100
0000
0110
0000
0010
0000
0100
0000
0100
0010
,  // measure 32
0000
0010
0100
0000
0100
0000
0010
0000
1001
0000
1000
0000
0001
0000
1000
0001
,  // measure 33
0000
0001
1000
0000
0001
0000
1000
0000
0010
0000
0000
0010
0000
0000
0100
0000
,  // measure 34
0000
0100
0000
0000
0001
0000
0000
0000
0010
0000
0000
0010
0000
0000
0100
0000
,  // measure 35
0000
0100
0000
0000
0100
0000
0000
0000
1000
0000
0000
1000
0000
0000
0100
0000
,  // measure 36
0000
0010
0000
0000
0010
0000
0000
0000
0001
0000
0000
0001
0000
0000
0100
0000
,  // measure 37
0000
0100
0000
0000
0000
0000
0000
0000
1001
0000
0000
0000
0010
0000
0100
0020
,  // measure 38
0000
0000
0130
0000
0000
0000
0001
2000
0000
0000
3001
0000
0000
0000
0010
0200
,  // measure 39
0000
0000
0301
0000
1000
0000
0000
0000
0010
0000
0000
0000
0000
0000
0001
2000
,  // measure 40
0000
0000
3010
0000
0000
0000
0001
0200
0000
0000
0310
0000
0000
0000
0001
2000
,  // measure 41
0000
3010
0100
0010
1000
0001
0100
0010
,  // measure 42
0100
0000
1000
0100
0010
0000
0001
0100
,  // measure 43
0010
0000
0000
0000
0100
0000
0000
0000
1001
0000
0000
0000
0000
0000
0100
0002
,  // measure 44
0000
0000
0103
0000
0000
0000
1000
0020
0000
0000
0130
0000
0000
0000
1000
0002
,  // measure 45
0000
0000
0103
0002
0000
0000
1003
0200
0310
0000
0100
0000
0001
0000
1000
0010
,  // measure 46
0000
0010
0100
0000
0010
0000
0100
0000
1000
0000
0100
0000
0010
0000
0001
0010
,  // measure 47
0000
0010
0100
0000
0010
0000
0100
0000
1000
0000
0100
0000
0010
0000
0001
0010
,  // measure 48
0000
0010
0100
0000
0010
0000
0100
0000
1000
0000
0100
0000
0010
0000
0001
0010
,  // measure 49
0000
0010
0100
0000
0010
0000
0100
0000
1000
0000
0100
0000
0010
0000
0100
0001
,  // measure 50
0000
0001
0100
0000
0010
0000
0100
0000
1000
0000
0100
0000
0010
0000
1000
0010
,  // measure 51
0000
0010
1000
0000
0010
0000
0100
0000
0010
0000
0001
0000
0010
0000
0100
0010
,  // measure 52
0000
0010
1000
0000
0001
0000
0100
0000
0010
0000
1000
0000
0001
0000
1000
0001
,  // measure 53
0000
0001
1000
0000
0010
0000
0100
0000
1010
0000
0000
0000
0000
0000
0000
0000
;

//---------------dance-single - Copied from Copied f----------------
#NOTES:
     dance-single:
     Copied from Copied f:
     Medium:
     6:
     0.275813,0.279671,0.132430,0.006970,0.000000,277.000000,258.000000,19.000000,1.000000,0.000000,0.000000,0.275813,0.279671,0.132430,0.006970,0.000000,277.000000,258.000000,19.000000,1.000000,0.000000,0.000000:
0000
0000
0000
0000
,
0000
0000
1000
0100
,
0010
0001
0100
0010
,
1000
0001
0100
0010
,
1000
0001
0100
0010
,
0100
0000
0010
0000
1000
0001
1000
0000
,
0100
0010
0100
0000
0001
0100
0010
0100
,
0001
0000
0100
0000
1000
0010
1000
0000
,
0100
0001
0100
0000
1001
0000
0110
0000
,
1100
0000
0011
0000
1000
0001
1000
0000
,
0100
0001
0100
0000
0010
0100
0001
0100
,
0010
0000
1000
0000
0100
0010
1000
0000
,
0001
0100
0010
0000
1000
0010
0100
0000
,
0010
0000
1001
0000
0100
0010
0100
0000
,
0001
1000
0001
0000
0100
0000
0010
0000
,
1000
0000
0001
0000
0100
1000
0100
0000
,
0010
0001
0010
0000
0100
0000
0010
0000
,
1000
0010
0101
0010
,
1000
0010
1000
0000
0010
0000
0100
0000
,
0001
0100
0001
0000
1000
0000
0100
0000
,
0010
0100
0010
0000
1000
0000
0001
0000
,
0100
0001
0100
0000
1000
0000
0010
0000
,
1000
0010
1000
0000
0100
0000
0010
0000
,
1000
0001
1000
0000
0010
0000
0100
0000
,
0001
0100
0001
0000
1000
0000
0010
0000
,
0100
0010
0100
0000
1000
0010
0100
0000
,
0001
0010
0100
0000
1000
0001
1000
0000
,
0100
0010
0100
0000
0001
1000
0010
0000
,
0100
1000
0100
0000
0010
0001
0010
0000
,
0100
1000
0100
0000
1001
0000
0010
0000
,
0100
0010
1100
0010
,
0100
0010
1001
0001
,
0100
0010
1010
0010
,
0100
0010
1010
0000
,
0101
0000
0110
0000
,
1100
0000
1001
0000
,
1100
0000
0110
0000
,
1001
0000
0000
0100
,
1000
0100
0010
0100
,
0001
0000
0100
0000
0010
0000
1000
0001
,
1000
0000
0010
0000
0100
0000
0010
0001
,
0010
0000
0100
1000
0100
0000
0010
0001
,
0010
0000
0100
0010
0100
0000
0001
1000
,
0002
0100
1003
0010
,
0100
1000
0001
0000
0010
0100
0001
0000
,
1000
0100
1000
0000
0010
0100
0001
0000
,
1000
0010
0100
0000
0001
0100
0010
0000
,
1000
0001
1000
0000
0100
0010
0100
0000
,
0001
1000
0010
0000
0100
0010
0100
0000
,
0001
1000
0010
0000
0100
0001
0100
0000
,
1000
0001
1000
0000
0010
0001
0010
0000
,
0100
1000
0010
0000
0100
0010
0100
0000
,
0001
1000
0001
0000
0100
0010
0100
0000
,
1000
0001
1000
0000
0110
0000
0000
0000
;

//---------------dance-single - Copied from Copied f----------------
#NOTES:
     dance-single:
     Copied from Copied f:
     Easy:
     3:
     0.147366,0.149158,0.006970,0.000000,0.000000,148.000000,147.000000,1.000000,0.000000,0.000000,0.000000,0.147366,0.149158,0.006970,0.000000,0.000000,148.000000,147.000000,1.000000,0.000000,0.000000,0.000000:
0000
0000
0000
0000
,
0000
0000
1000
0100
,
0010
0000
0001
0100
,
0010
0000
1000
0001
,
0100
0000
0010
0001
,
0010
0000
1000
0001
,
0010
0000
1000
0100
,
0010
0000
1000
0100
,
0001
0000
0010
0100
,
0001
0000
1000
0001
,
1000
0000
0100
0001
,
0100
0000
1000
0001
,
1000
0000
0100
0001
,
0100
0000
0010
1000
,
0100
0000
0010
0001
,
0100
0000
0010
1000
,
0010
0000
0100
0001
,
0010
0000
0000
1000
,
0010
0000
0000
0001
,
0100
0000
0000
1000
,
0010
0000
0000
0001
,
0100
0000
0010
0100
,
0001
0000
1000
0010
,
1000
0000
1001
0000
,
0010
0000
0010
0100
,
0001
0000
1000
0100
,
0010
0000
0001
0010
,
1000
0000
0100
0010
,
1000
0000
1000
0001
,
1000
0000
0100
0010
,
0001
0000
1000
0010
,
0100
0000
1000
0001
,
0100
0000
0010
0001
,
1000
0000
1000
0000
,
0100
0000
1000
0000
,
0001
0000
1000
0000
,
0010
0000
0100
0000
,
0001
0000
0000
1000
,
0100
0000
0010
0001
,
0010
0000
0100
1000
,
0100
0000
0001
1000
,
0001
0000
0010
0010
,
0100
0000
1000
0001
,
0100
0000
0010
0001
,
1000
0000
0100
1000
,
0001
0000
1000
0001
,
1000
0000
0100
0010
,
0100
0000
0001
1000
,
0001
0000
0100
0010
,
0001
0000
1000
0001
,
0010
0000
0100
0001
,
0100
0000
1000
0010
,
1000
0000
0001
1000
,
0001
0000
0001
0000
;

//---------------dance-single - Copied from Copied f----------------
#NOTES:
     dance-single:
     Copied from Copied f:
     Beginner:
     1:
     0.095589,0.092788,0.000000,0.000000,0.000000,96.000000,96.000000,0.000000,0.000000,0.000000,0.000000,0.095589,0.092788,0.000000,0.000000,0.000000,96.000000,96.000000,0.000000,0.000000,0.000000,0.000000:
0000
0000
0000
0000
,
0000
0000
1000
0000
,
0001
0000
1000
0000
,
1000
0000
0100
0000
,
1000
0000
0001
0000
,
0010
0000
1000
0000
,
0100
0000
1000
0000
,
1000
0000
0001
0000
,
0100
0000
1000
0000
,
0010
0000
0001
0000
,
1000
0000
0010
0000
,
0100
0000
1000
0000
,
0001
0000
0010
0000
,
0001
0000
1000
0000
,
0001
0000
1000
0000
,
0001
0000
0010
0000
,
1000
0000
0100
0000
,
0010
0000
0000
1000
,
0000
0001
0000
0100
,
0000
0001
0000
1000
,
0000
1000
0000
0010
,
0000
1000
0000
0001
,
0000
0100
0000
0010
,
0000
1000
0000
0001
,
0000
0100
0000
1000
,
0000
0001
0000
1000
,
0000
1000
0000
0100
,
0000
1000
0000
0001
,
0000
0010
0000
1000
,
0000
0001
0000
1000
,
0000
0001
0000
0010
,
0000
0100
0000
1000
,
0000
0001
0000
0100
,
0000
0010
0000
1000
,
0000
0000
0000
0000
,
0000
0000
0000
0000
,
0000
0000
0000
0000
,
0000
0000
0000
1000
,
0000
0001
0000
0100
,
0000
1000
0000
0001
,
0000
1000
0000
0010
,
0000
0001
0000
1000
,
0000
0001
0000
1000
,
0000
0000
0000
0001
,
0000
0001
0000
1000
,
0000
0100
0000
0010
,
0000
0001
0000
1000
,
0000
0001
0000
0100
,
0000
0010
0000
1000
,
0000
0001
0000
1000
,
0000
0100
0000
0010
,
0000
0001
0000
1000
,
0000
0100
0000
0010
,
0000
0001
0000
0000
;
