#TITLE:-Excalibur ~Revived resolution~;
#SUBTITLE:;
#ARTIST:Project Grimoire;
#TITLETRANSLIT:;
#SUBTITLETRANSLIT:;
#ARTISTTRANSLIT:;
#GENRE:;
#CREDIT:;
#BANNER:AV.avi;
#BACKGROUND:bg.png;
#LYRICSPATH:;
#CDTITLE:;
#MUSIC:Excalibur.mp3;
#OFFSET:-0.079000;
#SAMPLESTART:107.420998;
#SAMPLELENGTH:15.000000;
#SELECTABLE:YES;
#DISPLAYBPM:*;
#BPMS:0.000000=99.989998
,17.000000=199.979996
,89.000000=99.989998
,113.000000=199.979996
,161.000000=99.989998
,173.000000=49.994999
,177.000000=99.985001
,180.000000=199.985001
,276.000000=99.987999
,282.000000=199.975006
;
#STOPS:173.000000=0.600000
;
#BGCHANGES:0.000=MV.avi=1.000=1=0=1===CrossFade==,
99999=-nosongbg-=1.000=0=0=0 // don't automatically add -songbackground-
;
#KEYSOUNDS:;
#ATTACKS:;

//---------------dance-single - ----------------
#NOTES:
     dance-single:
     :
     Challenge:
     19:
     1.136840,1.590828,1.458446,0.792796,1.065787,1064.000000,869.000000,195.000000,106.000000,0.000000,46.000000,1.136840,1.590828,1.458446,0.792796,1.065787,1064.000000,869.000000,195.000000,106.000000,0.000000,46.000000:
2000
0000
0000
0000
,
0000
0000
0000
0000
0000
0000
0000
0000
3011
0000
0000
0000
0100
0000
1000
0000
0000
0000
1000
0000
0010
0000
0000
0000
0010
0000
0100
0000
0000
0000
0001
0010
,
0100
1000
0010
0100
0001
0010
1000
0000
1000
0100
0000
0000
1001
0000
0010
0100
,
0000
0000
0100
0000
0010
0000
0000
0000
0010
0000
0001
0000
0000
0000
0010
0100
1000
0000
0100
0000
0001
0000
0010
0000
0100
0000
0010
0000
0001
0000
0000
0000
,
0001
0100
0000
0000
1001
0000
0000
0000
0100
0000
1000
0000
0010
0000
1000
0000
,
0001
0010
0100
0000
0010
0000
1000
0000
0100
0000
0001
0010
1000
0000
0001
0000
,
0100
0001
0010
0100
1000
0000
0010
0010
,
0100
1000
0011
0000
0100
1000
0001
0010
,
0100
0001
1000
0000
0010
0000
0001
0000
0100
0000
1000
0100
0010
0001
1000
0100
,
0010
0001
1000
0100
0010
0001
1000
0100
0011
0000
0200
0000
1301
0000
0020
0000
,
1130
0000
0000
0000
0011
0100
1000
0010
0100
0001
0010
0000
1100
0000
0001
0000
,
0100
0010
0001
1000
0100
0001
0010
0000
0101
0000
1000
0000
0010
0100
1000
0001
,
0100
0010
0001
0000
1010
0000
0100
0000
0010
0100
1000
0100
0010
0001
0100
0000
,
1001
0000
0010
0000
0001
0100
0010
1000
0100
0010
0001
0000
0110
0000
1000
0000
,
0010
0100
0001
0010
1000
0100
0010
0000
1001
0000
0100
0000
0010
0100
1000
0001
,
0100
0010
1000
0000
0101
0000
0010
0000
1100
0000
0000
0000
0110
0000
0000
0000
,
0011
0000
0110
0000
1001
0100
0001
0010
0100
1000
0010
0000
1001
0000
0100
0000
,
0010
1000
0001
0010
0100
1000
0010
0000
1100
0000
0001
0000
0100
0010
0100
1000
,
0001
0010
0100
0000
1010
0000
0001
0000
0100
1000
0010
0100
0001
0010
1000
0000
,
0101
0010
1001
0100
0010
0100
1000
0100
,
0011
0000
1000
0000
0100
0000
0010
0000
0100
0000
0010
0000
1001
0100
0010
0001
,
1000
0100
0010
0001
1000
0100
0010
0001
1100
0000
0000
0000
0110
0000
0000
0000
,
0011
1100
0011
1100
0012
0000
0100
0000
0013
0000
2000
0000
0001
0000
3200
0320
,
0032
0000
0013
0000
0200
0000
2300
0000
0010
3000
0200
0320
0230
0000
1000
0000
,
0302
0000
0023
0000
0100
2030
3200
0000
0302
0000
0010
0000
0100
0000
1000
0000
,
0100
0003
2000
3020
2031
0000
0010
0000
3001
0000
0102
0000
1000
0000
0023
0230
,
2301
0000
3010
0101
0020
0000
1032
0000
0023
0000
0230
0000
2301
0000
0010
0000
,
0100
0000
0000
0000
3012
0000
0000
0000
1000
0000
0000
0000
1000
0000
0003
0000
0120
0000
0000
0000
1000
0000
0101
0000
2030
0000
3002
0000
1003
0100
0010
0001
,
1000
0100
0010
0001
1000
0100
0010
0001
1200
0000
0000
0000
0000
0000
0000
0000
0001
0000
0000
0000
0010
0000
0000
0000
1300
0000
0000
0000
0000
0000
0000
0000
,
0120
0000
0100
0000
2031
3200
0321
0000
,
2130
3201
1320
0001
,
1130
0000
0010
0000
0101
0010
1000
0001
0110
0000
1000
0000
0021
0000
0230
0000
,
2301
3210
0312
2103
,
0001
0010
0001
0000
3110
1000
0011
0100
,
1001
0110
1002
0000
0010
0000
1203
0000
,
2310
0000
0001
0000
3102
0023
1230
0000
,
0312
1023
0231
2310
,
3120
0000
0131
1000
0010
1000
0010
1000
,
0011
0000
0100
0000
0001
0000
0100
0000
0001
0000
0100
0000
1001
0010
0100
1000
,
0001
0010
0100
1000
0001
0010
0100
1000
0011
0000
0200
0000
1310
0000
0002
0000
,
0113
0000
0000
0000
1002
0003
0100
0010
0000
0010
0201
0300
1000
0000
0010
0100
,
0012
0003
0000
1000
0001
1000
0102
0003
0010
0000
0000
0000
0022
0030
0000
0000
,
2003
3200
0322
0003
0000
0000
0032
0000
2203
0300
0000
0000
0000
0000
0000
0000
,
0000
0000
0000
0000
3000
0000
0000
0000
0000
0000
0000
0000
0000
0000
0010
0001
0000
0000
0000
0000
0000
0000
0000
0000
0000
0000
0000
0000
0000
0000
0000
0000
1000
0000
0000
0000
0100
0000
0010
0000
0000
0000
0010
0000
0001
0000
0000
0000
0001
0000
1000
0000
0000
0000
0010
0100
1000
0000
0001
0000
1000
0000
0100
0000
,
0010
0001
0010
0000
0010
1000
0000
0000
0101
0000
0000
0000
0010
0000
1000
0000
0000
0000
1000
0000
0011
0000
0000
0000
0010
0000
0100
0000
0000
0000
0001
0010
,
1000
0001
1000
0001
1000
0001
1000
0001
1000
0001
1000
0001
1010
0000
0200
0000
,
0311
2000
3110
0001
1010
0000
0101
0010
,
1001
0000
0010
0000
0101
0000
0000
0000
1010
0000
0000
0000
0011
0000
0100
0010
,
1001
0000
0000
0000
1100
0010
0001
0000
1010
0000
0000
0000
0101
0000
1000
0000
,
0110
0000
0001
0000
1100
0000
0001
0010
1100
0000
0010
0000
1001
0000
0100
1000
,
0011
0000
0000
0000
1010
0000
0000
0000
0101
0000
0000
0000
1010
0000
0001
0010
,
1100
0000
0101
1000
0110
0001
1100
0000
,
0110
0000
0011
1100
0011
0100
1000
0010
,
0100
0001
1010
0100
0010
0001
0010
0100
,
1001
0000
0010
0000
0100
0000
1000
0000
0001
0000
0010
0000
1100
0000
0000
0110
,
0000
0000
0011
0000
0000
1100
0000
0000
1001
0000
0010
0100
1000
0000
0100
0000
,
0010
0100
0001
0000
1010
0000
0001
0010
0100
0000
0001
0000
0100
1000
0010
0000
,
0101
0000
0010
0001
0100
0000
1000
0000
0100
0001
0010
0000
1001
0000
0100
0001
,
0010
1000
0100
0000
0001
0000
0010
0000
1100
0000
0011
0000
1100
0000
0011
0000
,
1100
0000
0011
0000
1100
0011
1100
0011
1100
0011
1100
0011
1100
0011
1100
0011
,
2100
0000
0000
0000
0010
0100
0001
0010
3100
0000
0000
0000
0102
0000
0000
0000
,
0023
1000
0001
1000
0230
0000
0000
0000
2301
0000
0000
0000
0010
0100
0001
0010
,
3100
0000
0001
0000
1020
0100
0001
0100
2030
0001
0010
0100
3010
0000
0000
0000
,
0021
0000
0000
0000
0100
1000
0001
0100
0032
0000
0000
0000
1203
0000
0000
0000
,
0301
1000
0010
0100
0002
0000
0000
0000
2103
0000
0000
0000
0100
0010
0001
0010
,
3200
0000
0320
0000
1032
0000
0000
0000
0023
0100
1000
0001
0230
0000
0000
0000
,
2301
0000
0000
0000
0010
0001
0100
0010
3002
0000
0000
0000
1023
0000
0000
0000
,
0130
1000
0010
0100
0002
0000
0000
0000
2013
0000
0000
0000
0001
0010
0100
0001
,
3010
0000
0100
0000
1002
0010
0100
0000
0023
0000
0000
0000
0230
0000
0000
0000
,
2301
0000
0000
0000
0010
0000
0100
0000
3001
0000
0010
0000
1002
0000
0000
0000
0100
0000
0000
0000
0013
0000
1100
0000
1100
0001
0010
0100
1000
0001
0010
0100
,
1000
0001
0010
0100
1001
0000
0000
0000
0110
0000
0000
0000
1100
0011
1100
0011
1100
0000
0010
0000
0001
0000
0100
0000
0010
0000
1000
0000
0100
0000
0010
0000
,
0001
0010
0100
1000
0010
0100
0001
0010
0100
1000
0001
0010
0100
1000
0010
0100
,
1000
0100
0010
0001
0010
0100
1000
0100
0010
0001
1000
0100
0010
0001
0010
0100
,
1000
0010
0100
0001
0010
0100
1000
0100
0010
0001
1000
0100
0010
0100
0001
0010
,
0100
1000
0010
0100
0001
0010
1000
0100
0010
0001
1000
0100
0010
0001
0010
0100
,
1000
0010
0100
0001
0010
0100
1000
0100
0010
1000
0001
0100
0010
1000
0100
0010
,
0001
0010
0100
1000
0001
0010
0100
1000
0010
0100
0001
1000
0100
0010
0001
0010
,
0100
1000
0100
0010
0001
0100
1000
0010
0100
0001
0010
0100
1000
0100
0010
0001
,
0100
0010
1000
0100
0010
0001
0010
0100
0001
1000
0010
0100
0001
0010
0100
1000
,
0100
0010
0001
0100
0010
1000
0100
0010
1001
0000
0010
0000
1000
0000
0010
0000
,
1000
0010
1100
0010
0100
0010
0100
0010
,
1001
0010
0100
1000
0001
0010
0100
1000
0001
0010
0100
1000
0011
0000
0200
0000
,
0311
0000
2000
0000
3110
0000
0011
0000
1100
0010
0001
0100
0010
1000
0100
0010
,
0001
1000
0010
0100
1001
0010
0100
1000
0001
0010
0100
1000
0100
0010
0001
0010
,
1100
0011
1100
0011
1100
0011
1100
0011
1100
0011
1100
0011
1100
0000
0000
0000
,
0110
0000
0000
0000
0011
1100
0011
1100
0012
0000
0000
0000
0000
0000
0000
0000
,
0000
0000
0000
0000
,
0000
0000
0000
0000
,
0000
0000
0000
0000
0000
0003
0000
0000
;

//---------------dance-single - ----------------
#NOTES:
     dance-single:
     :
     Beginner:
     3:
     0.134626,0.191842,0.029917,0.149584,0.000000,126.000000,122.000000,4.000000,20.000000,0.000000,0.000000,0.134626,0.191842,0.029917,0.149584,0.000000,126.000000,122.000000,4.000000,20.000000,0.000000,0.000000:
0000
0000
0000
0000
,
1000
0000
1000
0000
0000
0100
0000
0000
,
0010
0000
0000
0001
0000
0000
0010
0000
,
0000
1000
0000
0000
0010
0000
0000
0100
,
0000
0001
0000
0000
,
0010
0000
0000
1000
,
0000
0000
0100
0000
,
0000
0100
0000
0000
,
1000
0000
0000
0001
,
0000
0000
0100
0000
,
0000
0010
0000
0000
,
1000
0000
0000
0100
,
0000
0000
0010
0000
,
0000
0001
0000
0000
,
0100
0000
0000
0010
,
0000
0000
0100
0000
,
0000
1001
0000
0000
,
0010
0000
0000
1000
,
0000
0000
0010
0000
,
0000
0001
0000
0000
,
0100
0000
0000
0010
,
0000
0000
1000
0000
,
0000
0000
0001
0000
0000
1000
0000
0000
,
0010
0000
0000
0001
0000
0000
0100
0000
,
0000
1000
0000
0000
0010
0000
0000
0100
,
0000
0000
0001
0000
0000
0010
0000
0000
,
1000
0000
0000
0010
0000
0000
0100
0000
,
0000
0001
0000
0000
1000
0000
0000
0010
,
0000
1000
0000
0000
,
0100
0000
0000
0010
,
0000
0000
0001
0000
,
0000
0100
0000
0000
,
1000
0000
0000
0010
,
0000
0000
0100
0000
,
0000
1000
0000
0000
,
0001
0000
0000
0100
,
0000
0000
0010
0000
,
0000
1000
0000
0000
,
0001
0000
0000
0100
,
0000
0000
0010
0000
,
0000
1000
0000
0000
,
0010
0000
0000
0001
,
0000
0000
1000
0000
,
0000
0000
0000
0000
0010
0000
0000
0100
,
0000
1000
0000
0000
,
2000
0000
0000
0000
,
0000
0000
3100
0000
,
0000
0001
0000
0000
,
0010
0000
0000
1000
,
0000
0000
0100
0000
,
0000
0010
0000
0000
,
1000
0000
0000
0001
,
0000
0000
0110
0000
,
0000
1000
0000
0000
,
0001
0000
0000
0010
,
0000
0000
0010
0000
,
0000
0100
0000
0000
,
0001
0000
0000
1000
,
0000
0000
0200
0000
,
0000
0000
0000
0000
,
0310
0000
0000
0010
,
0000
0000
1000
0000
,
0000
0001
0000
0000
,
0100
0000
0000
0010
,
0000
0000
1000
0000
,
0000
0100
0000
0000
,
0001
0000
0000
0010
,
0000
0000
1000
0000
,
0000
0001
0000
0000
,
0010
0000
0000
0000
,
0000
0000
1002
0000
,
0000
0203
0000
0000
,
0320
0000
0000
2030
,
0000
0000
3200
0000
,
0000
0320
0000
0000
,
2030
0000
0000
3002
,
0000
0000
0203
0000
,
0000
0320
0000
0000
,
2030
0000
0000
3002
,
0000
0000
0203
0000
,
0000
0320
0000
0000
,
2030
0000
0000
0000
,
0000
0000
3020
0000
,
0000
0230
0000
0000
,
0302
0000
0000
0003
,
0000
0000
1001
0000
;

//---------------dance-single - ----------------
#NOTES:
     dance-single:
     :
     Easy:
     6:
     0.321606,0.511578,0.037396,0.216897,0.014958,301.000000,296.000000,5.000000,29.000000,0.000000,0.000000,0.321606,0.511578,0.037396,0.216897,0.014958,301.000000,296.000000,5.000000,29.000000,0.000000,0.000000:
0000
0000
0000
0000
,
0000
0000
0010
0000
0000
0100
0000
0000
,
0010
0000
0000
0100
0000
0000
0010
0000
0000
0000
0000
0000
1000
0000
0000
0000
,
0000
0000
0010
0000
0000
0000
0000
0000
0001
0000
0000
0100
0000
0000
0001
0000
,
0000
1000
0000
0000
,
0001
0000
0000
0100
,
0001
1000
0010
0000
,
0000
0100
0000
0000
,
0001
0000
0000
0100
,
0010
1000
0001
0000
,
0000
0020
0100
0130
,
0000
0000
0000
0002
,
1000
1003
0000
0000
,
0000
2000
0001
3001
,
0000
0000
0000
0020
,
0100
0130
0000
0000
,
0000
2000
0100
3100
,
0000
0000
0000
0002
,
0100
0103
0000
0000
,
0000
0020
0100
0130
,
0000
0000
0000
2000
,
0001
3001
0000
0000
,
0000
0000
1000
0100
0010
1000
0100
0010
,
0001
0010
0100
0010
0000
1000
0001
0100
,
0010
1000
0010
0100
0010
0000
0000
1000
,
0000
0000
0100
0010
0001
0010
0000
0000
,
1000
0001
1000
0010
0000
0000
0100
0001
,
0100
0010
0000
0000
1000
0100
0010
0100
,
0000
0001
0100
0010
,
1000
0000
0100
0010
,
0001
0010
0100
0000
,
1000
0001
0100
0010
,
0010
1000
0001
0200
,
0000
0000
0310
0000
,
0001
1000
0000
0010
,
0100
0000
1000
0010
,
0100
0010
0010
1000
,
0001
0100
0000
0010
,
1000
0000
0001
0100
,
0000
0010
1000
0001
,
0100
0000
0010
0000
0000
1000
0000
0000
,
0010
0000
0000
0100
0000
0000
0001
0000
,
0000
0001
0000
0000
0001
0000
0000
0000
,
0000
0100
0000
0000
,
0000
0000
1001
0000
0000
0110
0000
0000
,
2000
0000
0000
0000
,
0000
0000
3100
0010
,
0100
0000
0001
0000
1000
0000
0010
0100
,
0010
1000
0001
0100
,
0010
0000
1000
0001
1000
0000
0010
0000
,
0100
0000
0010
0000
1000
0000
0001
0100
,
0001
1000
0010
0100
,
1000
0010
1001
0010
,
0100
0001
0100
0000
1000
0000
0010
0000
,
0100
0000
0000
0000
0001
0000
0000
0000
1000
0000
0000
0000
0010
0000
0000
0100
,
0000
0000
0001
0000
0000
1000
0000
0000
0010
0000
0000
0000
0100
0000
0000
0000
,
0001
1000
0100
0010
,
0001
1000
0010
0100
,
1000
0000
0001
1000
0200
0000
0010
0000
,
0010
0301
0000
1000
,
0020
0100
0130
2000
,
0100
3100
0002
0100
,
0103
0020
1000
1030
,
0002
0100
0103
0200
,
1000
1300
0020
0100
,
1030
0002
1000
0103
,
2000
0100
3010
0002
,
0100
1003
0020
0100
,
1030
2000
0100
3010
,
0001
0000
0000
0100
0000
0000
1000
0000
,
0000
0010
0000
0000
1000
0000
0010
0000
,
0100
0000
0001
0100
0001
0000
1000
0000
,
0010
0000
0100
0000
0001
0000
1000
0001
,
1000
0010
0100
1000
,
0010
0000
0100
0001
0100
0000
0010
0000
,
1000
0000
0100
0000
0010
0000
0100
0010
,
0100
0001
1001
0100
,
0010
0000
1000
0001
1000
0000
0010
0000
,
0100
0000
1000
0000
0100
0000
0010
0100
,
0010
0100
0002
1000
,
0103
0020
1000
0130
,
0002
1000
0100
0013
,
1000
0100
2000
0100
,
3010
0002
0100
1003
,
2001
0010
0001
0100
,
0010
0100
3001
0000
;

//---------------dance-single - ----------------
#NOTES:
     dance-single:
     :
     Medium:
     10:
     0.603679,0.639472,0.209418,0.112188,0.119667,565.000000,537.000000,28.000000,15.000000,0.000000,0.000000,0.603679,0.639472,0.209418,0.112188,0.119667,565.000000,537.000000,28.000000,15.000000,0.000000,0.000000:
0000
0000
0000
0000
,
0000
0000
0000
0000
1000
0000
0000
0100
0000
0000
0010
0000
0000
0100
0000
0000
,
1000
0001
0000
0100
0010
0000
0100
0000
0000
0001
0000
0000
1000
0000
0000
0100
,
0000
0000
0010
0000
0000
0100
0000
0000
1000
0010
0000
0100
0001
0000
1000
0000
,
0000
0010
0000
0000
1000
0000
0000
0000
0010
0000
0000
0000
0100
0000
0000
0000
,
0001
0000
1000
0000
0010
0000
0100
0001
,
0100
0010
0100
0001
0100
0000
0010
0000
,
1000
0100
0010
0001
,
0100
0000
0010
0000
0100
0000
1000
0010
,
1000
0010
1000
0010
0100
0001
0100
0010
,
1000
0010
0100
0010
0100
0001
0100
0000
,
1000
0001
0100
0001
0100
0000
1000
0001
,
1000
0010
1000
0000
0001
0010
0100
1000
,
0010
0000
0010
0100
0010
1000
0001
0000
,
0001
0100
0010
0100
0001
0000
1000
0010
,
0100
0001
0100
0000
1001
0000
0110
0000
,
1001
0000
0100
0001
0100
0010
0100
0000
,
1000
0001
0100
0010
0100
0000
0010
0001
,
0100
0010
0100
0000
1000
0001
0100
0010
,
1000
0000
0010
0001
0100
0010
0100
0000
,
1000
0001
0100
0010
0100
0000
0001
0100
,
0010
1000
0100
0010
1010
0000
0110
0000
,
2000
0000
0000
0000
3001
0000
0100
0000
0010
0000
0100
0000
0001
0000
1000
0010
,
1000
0000
0010
0000
0100
0000
0001
0000
1000
0000
0100
0010
0100
0000
0001
0000
,
1000
0010
0100
0001
0200
0010
0001
0310
,
0001
0000
1000
0010
1000
0000
0010
0000
0100
0000
0001
0000
1000
0000
0010
0100
,
0010
1000
0001
0010
0100
0001
2000
0010
,
0001
3020
0100
1000
0230
0001
0010
0302
,
0100
1000
0103
0000
0010
0000
0100
0000
,
0001
0000
1000
0000
0010
0100
0010
0000
,
1000
0001
0100
0010
,
1000
0001
0100
0010
0100
0001
0100
0010
,
0100
0001
1000
0010
,
0100
0010
0100
0000
0010
0100
0010
0000
,
1000
0001
1000
0000
0010
0000
0100
0000
,
0010
0000
0100
0000
0001
1000
0001
0000
,
0100
0010
0100
0001
,
1000
1100
0010
0100
,
0101
0000
0001
0000
0100
0000
0001
1000
,
0001
1000
0001
1000
0001
0200
0310
2000
,
3010
0000
0100
0000
0001
0000
0010
0100
0000
0001
0100
0000
0010
0000
1000
0100
,
0010
0000
0000
0001
0100
0010
0100
0000
0010
0000
0000
0000
1001
0000
0000
0000
,
0001
0100
0001
0000
0000
0000
1010
0000
0020
0000
0000
0000
0000
0000
0000
0000
,
0000
0000
0000
0000
0030
0000
0000
0000
0000
0000
0000
0000
0000
0000
0000
0000
0100
0000
0010
1000
0000
0100
0001
0000
0010
1000
0000
0000
0010
0000
0000
0100
,
0000
0000
0001
0000
0000
0010
0000
0000
0001
0000
0000
0000
0000
0000
1000
0000
0000
0000
0000
0000
0010
0000
0000
0000
0000
0000
0001
0000
0000
0000
0000
0000
,
0100
0010
0100
0010
0100
0010
1000
0002
,
0103
0020
0130
0010
1000
0100
0010
0001
,
0010
0000
0010
1000
0010
1000
0010
0000
,
0001
1000
0010
0100
0001
0000
1000
0100
,
0010
0100
1000
0000
0100
0010
0100
0001
,
0100
0000
0010
0100
0001
0100
0010
0000
,
1000
0100
0010
0001
0100
0000
0100
0010
,
0100
0001
1000
0010
1000
0100
0010
0001
,
0010
0001
0010
0100
1000
0001
0100
0010
,
0100
0000
0010
0000
1000
0000
0001
0000
0100
0000
0010
0000
0100
0000
0000
0010
,
0000
0000
1000
0000
0000
0001
0000
0000
0100
0000
0010
0000
1000
0000
0001
0000
,
0100
0000
0010
1000
0001
0100
0010
0000
,
0100
0010
1000
0010
0100
0000
0100
0010
,
0100
0001
0100
0010
1000
0010
0100
0001
,
0010
0100
1000
0100
0010
0001
0100
0010
,
1010
0001
0100
1010
,
0100
0010
0101
0010
,
0100
1001
0010
0100
,
1001
0100
0010
0101
,
0010
1000
0110
0001
,
0010
1010
0100
0010
,
0011
0001
0010
0110
,
1000
0100
1001
0010
,
0100
1100
0010
0100
,
1001
0000
0000
1010
0000
0000
0101
0000
,
0000
0010
0100
0010
1001
0001
0100
0001
,
0100
0010
1000
0010
0100
0001
0010
0100
,
1000
0100
0010
0001
0100
0010
1000
0001
,
0100
0010
0100
0010
1000
0001
0100
0010
,
1000
0100
0010
0001
0010
0100
1000
0010
,
0100
0001
0100
0010
1000
0001
0100
0010
,
0100
0001
1000
0010
1000
0010
0100
0010
,
0100
0001
1000
0010
0100
0001
0010
0100
,
1000
0010
0100
0001
0010
0001
0100
0010
,
1000
0100
0010
0100
0002
0000
1000
0000
,
1003
0020
0100
0130
,
1000
0100
0010
0001
0010
0100
1000
0100
,
0010
0001
0010
0100
0020
0000
0100
0000
,
0130
0002
1000
1003
,
1000
0100
0010
0001
0100
0010
1010
0000
,
1010
0000
0010
0100
0101
0000
0000
0000
;

//---------------dance-single - ----------------
#NOTES:
     dance-single:
     :
     Hard:
     17:
     0.757537,1.131604,0.336564,0.433794,0.433794,709.000000,664.000000,45.000000,58.000000,0.000000,0.000000,0.757537,1.131604,0.336564,0.433794,0.433794,709.000000,664.000000,45.000000,58.000000,0.000000,0.000000:
// measure 0
0000
0000
0000
0000
,  // measure 1
0000
0000
0000
0000
,  // measure 2
0000
0000
0000
0000
,  // measure 3
0000
0000
0000
0000
,  // measure 4
0000
0000
0110
0000
1000
1000
0010
0100
,  // measure 5
0001
1000
0100
1000
0000
0000
0001
0010
,  // measure 6
0001
0100
0010
1000
0010
0000
0001
0001
,  // measure 7
0010
0100
1000
0001
1000
0001
1000
0001
,  // measure 8
0100
0000
0001
0000
0100
0000
0001
0000
0100
0000
0001
0000
1000
0001
1000
0001
,  // measure 9
1000
0001
1000
0001
1000
0001
1000
0001
2000
0000
0000
0000
3200
0000
0000
0000
,  // measure 10
0320
0000
0031
0010
0100
1000
1010
0000
,  // measure 11
0001
1000
0010
0100
0101
0000
1000
0100
,  // measure 12
0010
0001
0101
0000
0001
0100
0010
1000
,  // measure 13
0010
0100
0001
1000
0001
1000
1001
0000
,  // measure 14
0001
1000
0100
0010
0011
0000
1000
0001
,  // measure 15
1000
0100
0110
0000
1001
0000
1010
0000
,  // measure 16
0100
0001
0100
0010
1000
0010
0110
0000
,  // measure 17
0001
1000
0100
0010
0011
0000
0001
0100
,  // measure 18
0010
1000
1001
0000
1000
0001
0010
0001
,  // measure 19
1001
0000
0100
0010
0100
0010
0100
0010
,  // measure 20
1000
0000
0010
0000
1000
0000
0010
0000
1000
0000
0010
0000
1000
0001
1000
0001
,  // measure 21
1000
0001
1000
0001
1000
0001
1000
0001
1000
0000
0000
0000
0010
0000
0000
0000
,  // measure 22
1000
0001
1000
0001
2000
0000
0000
0000
3200
0000
0320
0000
0000
0000
0031
1000
,  // measure 23
0002
0000
0023
0000
0230
0000
2300
0000
3000
0000
0010
0100
0020
0000
0000
0000
,  // measure 24
0230
0000
0302
0000
0000
0013
1000
0000
0020
0000
0000
0000
0000
0000
0000
0000
,  // measure 25
0000
0000
1030
0100
2000
0000
0001
0000
3200
0000
0302
0000
1003
0000
0010
0001
,  // measure 26
0020
0230
2300
3200
0320
0032
0203
0001
,  // measure 27
1000
0000
0302
0000
0100
0000
0010
0000
0203
0000
0010
0000
0301
1000
0020
0000
,  // measure 28
0100
0001
1030
0001
0100
0010
1010
0000
,  // measure 29
0100
1000
0010
0100
1001
0000
0001
0100
,  // measure 30
0010
1000
1001
0000
0100
1000
0001
0010
,  // measure 31
0011
0001
1000
0001
0100
0010
0100
0001
,  // measure 32
0002
0023
0230
2300
,  // measure 33
0001
0100
0001
0000
0010
3100
0010
0100
,  // measure 34
0001
1000
1001
0001
1000
0001
0101
0000
,  // measure 35
0010
1000
0001
1000
1010
0000
0100
0001
,  // measure 36
0100
0010
1010
0000
0010
0100
0001
1000
,  // measure 37
1010
0000
0010
0100
0010
0100
0010
0100
,  // measure 38
0001
0000
0100
0000
0001
0000
0100
0000
0001
0000
0100
0000
0001
1000
0001
1000
,  // measure 39
0001
1000
0001
1000
0001
1000
0001
1000
0001
0000
0200
0000
0301
0000
2000
0000
,  // measure 40
3010
0000
1000
0000
1001
0000
0001
0100
0000
0100
0010
0000
0001
0000
1000
0010
,  // measure 41
1000
0000
0000
0100
0001
0100
0001
0000
0010
0000
0000
0000
0200
0000
0000
0000
,  // measure 42
1300
0001
2000
0000
0000
0000
3100
0000
0020
0000
0000
0000
0000
0000
0000
0000
,  // measure 43
0030
0000
0000
0000
0000
0000
0000
0000
0000
0000
0000
0000
0000
0000
0000
0000
1000
0000
0010
0100
0000
0100
0010
0000
0010
1000
0000
0001
0010
0100
1000
0010
,  // measure 44
0100
0001
0100
0000
0001
0010
0000
0000
1001
0000
0000
0000
1000
0000
0001
0000
0000
0000
0001
0000
0100
0000
0000
0000
0100
0000
0010
0000
0000
0000
0000
0000
,  // measure 45
0010
0100
0010
0100
0010
0100
0010
0100
0010
0100
0010
0100
0010
0000
2000
0000
,  // measure 46
3001
0200
0310
1000
0020
0000
0000
0130
,  // measure 47
0010
1000
0200
0000
0320
0000
0031
0100
,  // measure 48
0001
0000
0010
0001
0010
0000
0100
1000
,  // measure 49
0010
0000
0100
0000
0001
0000
1000
0010
2000
0000
0000
0000
0000
0000
3010
0100
,  // measure 50
0020
0000
0000
0000
0230
0000
0000
0000
0301
0000
0000
0000
0100
0000
0001
1000
,  // measure 51
0001
0100
0010
1000
0100
0010
1001
0000
,  // measure 52
0110
0000
1001
0100
0001
0100
0001
0100
,  // measure 53
0001
0100
0010
1000
0010
1000
0010
1000
,  // measure 54
0001
0000
0100
0000
0001
0000
0100
0000
0001
0000
0100
0000
0101
0000
0000
0110
,  // measure 55
0000
0000
1010
0000
0000
1000
0000
0000
0110
0000
0010
0000
1000
0000
0010
0000
,  // measure 56
0100
0001
1001
1000
0010
0100
0010
1000
,  // measure 57
1001
0001
0100
0001
1000
0001
0101
0100
,  // measure 58
0001
1000
0010
1000
0010
0100
0010
0100
,  // measure 59
0010
0000
0100
0000
0010
0100
0010
0100
0010
0100
0010
0100
0010
0100
0010
0100
,  // measure 60
0001
0000
0000
0000
0010
0100
0010
0100
0010
0000
0000
0000
1001
0000
0000
0000
,  // measure 61
0100
0001
0100
0001
0100
0000
0000
0000
1010
0000
0000
0000
0100
0001
0100
0001
,  // measure 62
0100
0000
0000
0000
0001
1000
0001
0100
0001
1000
0001
0100
0001
0000
0000
0000
,  // measure 63
0101
0000
0000
0000
0010
1000
0010
1000
0010
0000
0000
0000
1001
0000
0000
0000
,  // measure 64
1000
0001
1000
0001
1000
0000
0000
0000
0101
0000
0000
0000
0001
1000
0001
1000
,  // measure 65
0001
2010
3200
0320
,  // measure 66
0031
0000
0000
0000
1000
0100
1000
0100
1000
0000
0000
0000
0110
0000
0000
0000
,  // measure 67
0001
1000
0001
1000
0001
0000
0000
0000
1010
0000
0000
0000
0100
0010
0100
0010
,  // measure 68
0100
1002
0023
0230
,  // measure 69
2300
0000
0000
3010
0010
0100
0002
0000
0023
0000
0230
0000
2300
0000
0000
0000
,  // measure 70
3010
0100
0010
0000
0100
0000
1000
0001
1000
0000
0100
0000
0010
0000
0100
0000
,  // measure 71
0001
1000
0010
1000
0010
0100
0001
0010
,  // measure 72
0100
1000
0100
0010
0001
0100
0010
1000
,  // measure 73
0100
0010
0001
0100
0010
1000
0001
0010
,  // measure 74
0100
1000
0010
0100
1000
0100
0010
0001
,  // measure 75
0100
0010
1000
0001
0100
0010
0100
0001
,  // measure 76
1000
0010
1000
0010
1001
0001
0100
0010
,  // measure 77
1000
0010
0100
0010
0100
0010
0010
0100
,  // measure 78
0001
1000
0010
0100
0001
0010
0100
1000
,  // measure 79
0001
0100
0010
0100
0001
1000
0001
1000
,  // measure 80
0001
1000
0010
0100
0010
0100
0010
0100
,  // measure 81
0001
1000
0001
1000
0001
1000
0001
1000
0001
1000
0001
1000
0001
0000
0002
0000
,  // measure 82
0103
0000
2000
0000
3010
0000
0010
0000
1000
0010
0100
0001
0100
0010
1000
0001
,  // measure 83
0010
0001
0010
0001
1000
0010
0100
0010
1000
0001
1000
0010
0100
0001
0100
0010
,  // measure 84
1000
0001
1000
0001
1000
0001
1000
0001
1000
0001
1000
0001
1000
0000
0000
0000
,  // measure 85
0110
0000
0000
0000
0001
1000
0001
1000
0002
0000
0000
0000
0000
0000
0000
0000
,  // measure 86
0000
0000
0000
0000
,  // measure 87
0000
0000
0000
0000
,  // measure 88
0000
0000
0000
0000
,  // measure 89
0003
0000
0000
0000
;
