#TITLE:-Cyaegha;
#SUBTITLE:;
#ARTIST:USAO;
#TITLETRANSLIT:;
#SUBTITLETRANSLIT:;
#ARTISTTRANSLIT:;
#GENRE:;
#CREDIT:;
#BANNER:Cyaegha.png;
#BACKGROUND:Cyaegha-bg.png;
#LYRICSPATH:;
#CDTITLE:;
#MUSIC:Cyaegha.ogg;
#OFFSET:-0.214000;
#SAMPLESTART:116.593979;
#SAMPLELENGTH:15.000000;
#SELECTABLE:YES;
#DISPLAYBPM:*;
#BPMS:0.000000=200.000000
,64.000000=100.000000
,66.000000=200.000000
,258.000000=400.000000
,259.375000=32.000000
,259.500000=400.000000
,260.875000=30.000000
,261.000000=200.000000
,262.000000=400.000000
,263.375000=32.000000
,263.500000=400.000000
,264.875000=30.000000
,265.000000=200.000000
,266.000000=400.000000
,267.375000=32.000000
,267.500000=400.000000
,268.875000=30.000000
,269.000000=200.000000
,288.000000=350.000000
,288.875000=50.000000
,289.000000=200.000000
,318.000000=100.000000
,320.000000=200.000000
,352.000000=350.000000
,352.875000=50.000000
,353.000000=200.000000
,374.000000=350.000000
,374.875000=50.000000
,375.000000=350.000000
,375.875000=50.000000
,376.000000=200.000000
,380.000000=350.000000
,380.625000=62.000000
,380.750000=350.000000
,381.375000=64.000000
,381.500000=200.000000
,382.000000=350.000000
,382.875000=50.000000
,383.000000=350.000000
,383.875000=50.000000
,384.000000=200.000000
,416.000000=350.000000
,416.875000=50.000000
,417.000000=200.000000
,444.000000=350.000000
,444.625000=62.000000
,444.750000=350.000000
,445.375000=64.000000
,445.500000=200.000000
;
#STOPS:
;
#BGCHANGES:;
#KEYSOUNDS:;
#ATTACKS:;

//---------------dance-single - ----------------
#NOTES:
     dance-single:
     :
     Challenge:
     18:
     1.201121,1.601495,2.275808,2.542724,0.305548,1197.000000,873.000000,324.000000,362.000000,0.000000,104.000000,1.201121,1.601495,2.275808,2.542724,0.305548,1197.000000,873.000000,324.000000,362.000000,0.000000,104.000000:
2000
0000
0000
0000
0000
0000
0000
0000
0000
0000
0000
0000
0001
0100
0001
0100
,
3011
0000
0000
0000
0000
1000
0020
0000
,
0230
0300
2000
3020
,
0230
0000
0300
0000
0001
0010
0100
0010
,
2000
3010
0200
0320
,
1031
0000
0010
0000
1100
0001
0020
0001
,
0230
0301
1020
0230
,
0302
0023
1230
0320
,
0132
0003
0002
0003
0020
0000
2030
0000
3010
0000
0100
0010
0001
0000
0100
0000
,
1010
0000
0000
0000
0100
0000
0001
0000
1010
0100
0001
0000
0010
0000
1000
0100
,
0011
0000
1000
0000
0100
0000
0010
0100
1001
0010
0100
0000
0010
0000
0001
0010
,
1100
0000
0010
0000
0001
0000
0100
0001
1010
0001
0100
0000
0010
0000
0001
0010
,
1200
0000
0000
0000
0302
0003
0002
0003
0020
0000
0000
0000
2030
0000
0000
0000
,
3110
0002
1103
0020
0131
2000
3110
0002
,
1103
0020
0131
2000
3011
0200
1310
0002
,
1103
0000
0010
0000
0100
0000
0010
0000
0100
0010
0100
0010
0100
0010
0100
0010
,
1001
0000
0000
0000
0000
0000
0000
0000
0000
0000
0011
1100
0011
0000
0011
0000
2100
0000
0000
0000
0000
0000
0000
0000
3002
0000
0000
0000
0000
0000
0000
0000
,
0113
0000
0000
0000
2000
3000
2000
3000
0110
0000
0002
0003
0002
0003
0002
0003
,
1010
0000
0200
0300
0020
0030
0002
0003
1100
0000
0020
0030
0002
0003
0200
0300
,
1010
0000
0200
0300
0002
0003
2000
3000
0110
0000
0002
0003
0002
0003
0002
0003
,
1010
0000
0200
0300
0002
0000
0000
0000
1103
0000
0020
0030
0002
0003
0020
0030
,
1100
0000
0002
0003
0200
0300
2000
3000
0011
0000
0200
0300
0200
0300
0200
0300
,
1020
0030
0002
0003
0200
0300
0020
0030
1001
0000
0200
0300
0020
0000
1030
0000
,
0101
0000
2000
3000
0020
0030
0200
0300
1002
0000
0023
0000
0032
0000
0203
0000
,
0320
0000
2030
0000
3200
0000
2300
0000
3011
0000
0200
0300
2000
3000
2000
3000
,
0110
0000
0002
0003
2000
3000
0002
0003
0110
0000
2000
3000
2000
3000
2000
3000
,
0201
0300
0020
0030
2000
3000
2000
3000
0011
0000
0200
0300
0200
0300
0010
0000
,
1001
0000
0200
0300
0020
0030
0200
0300
0011
0000
1000
0000
0210
0001
0010
0001
,
2310
0000
0002
0003
3200
0000
0000
0000
0311
0000
1000
0000
0200
0300
0200
0300
,
1010
0000
0002
0003
0200
0300
0002
0003
0110
0000
2000
3000
2000
3000
2000
3000
,
0012
0003
0200
0300
0020
0030
0200
1300
0011
0000
2000
3010
0200
0300
1000
0000
,
0101
0010
2000
3000
0020
0031
0200
0300
1010
0000
1000
0000
0101
0000
0010
0000
,
0001
0000
1100
0011
2100
0000
0000
0000
3101
0000
0000
0000
0001
0000
0100
0000
,
1020
0030
0020
0030
0020
0000
0031
0000
1020
0000
0130
0000
0002
0003
0002
0003
,
1100
0000
0020
0030
0200
0300
0002
0003
0110
0000
2000
3000
0200
0000
0310
0000
,
1002
0003
0002
0003
0002
0003
0200
0300
0210
0000
0301
0000
2000
3000
2000
3000
,
0011
0000
0200
0300
0020
0000
0000
0000
1031
0000
0020
0030
0200
0300
0020
0030
,
1001
0000
0200
0300
0020
0030
0002
0003
1100
0000
0020
0030
0020
0030
0020
0030
,
2001
3000
0200
0300
0020
0030
0200
0300
0011
0000
2000
3000
0020
0030
0100
0000
,
1001
0000
0200
0300
0020
0030
0002
0003
1100
0000
0000
0000
0100
0000
0010
0000
,
0100
0000
0000
0000
0000
0000
0000
0000
0001
0010
0100
1000
0001
0010
0100
1000
0011
0000
0000
0000
0000
0000
0000
0000
0200
0000
0300
0000
0000
0000
0000
0000
,
1002
0003
0002
0003
0002
0000
1003
0000
0012
0000
0103
0000
2020
3030
0020
0030
,
0101
0000
0200
0300
0020
0030
2000
3000
0101
0000
0020
0030
2200
3300
0010
0000
,
2001
3000
2000
3000
2000
3000
0200
0300
0201
0000
0310
0000
2002
0103
0002
0103
,
3021
0000
0200
0300
0032
0000
0000
0000
1103
0000
0020
0030
0202
0303
0020
0030
,
1001
0000
0200
0300
0200
0300
0200
0300
0011
0000
2000
3000
0220
0030
0001
0300
,
1001
0000
0020
0030
2200
3300
0020
0030
0101
0000
2000
3000
0022
0003
0130
0000
,
2001
0000
3010
0000
0200
0300
0200
0300
1020
0000
0032
0000
0023
0000
0230
0000
,
2300
0000
3011
1100
0011
0000
0011
0000
2100
0000
0000
0000
3020
0000
0000
0000
,
0231
0302
2003
3020
,
0231
0302
2003
3200
,
0321
0032
0023
0032
,
1203
0320
0230
2300
,
3201
0320
0032
0023
,
1230
2300
3002
0203
,
1302
0023
0230
2300
,
3021
0000
0230
0000
2301
0100
3020
0001
,
1230
1000
0302
0100
1023
0100
2030
0001
,
3210
0010
0302
1000
0123
1000
0230
0001
,
2310
0010
3002
0010
1203
0001
0320
0100
,
2031
0010
3200
0001
0312
0100
2003
0010
,
3201
1000
0320
0100
0132
1000
0023
1000
,
0231
0010
2300
0001
3021
1000
0230
1000
,
0312
0100
0023
0100
1032
0010
0203
1000
,
0321
0100
2030
0100
3011
0000
0000
0110
,
0000
0000
0000
0000
1100
0000
0011
1100
0011
0000
0000
0000
0000
0000
1001
0000
,
0000
0000
0000
0000
0110
0000
1001
0110
1001
0000
0000
0000
0000
0000
1010
0000
,
0000
0000
0000
0000
0011
0000
1100
0011
1200
0000
0000
0000
0310
0000
0001
0000
,
1010
0000
0001
0010
1100
0000
1000
0100
0011
0000
0011
0000
1100
0000
0011
0000
,
0100
0010
1001
0000
0010
0100
1000
0100
0011
0000
1001
0000
0110
0000
1000
0001
,
1000
0010
0101
0000
0100
1000
0010
0100
0011
1100
0011
0100
1000
0010
0100
0001
,
1100
0011
1100
0001
0010
0100
0010
0100
1001
0000
0010
0000
0100
0000
0010
0000
,
0002
0000
0000
0000
0000
0000
0000
0000
1003
0100
0010
0001
1000
0100
0010
0001
1100
0000
0000
0000
0010
0000
0000
0000
0100
0000
0000
0000
0010
0000
0000
0000
,
1001
0100
0010
0000
0001
0000
0010
0100
1001
0000
0100
0000
0010
0000
0001
0000
,
1100
0010
0001
0000
1000
0000
0001
0010
1100
0000
0010
0000
1000
0000
0001
0000
,
0110
1000
0001
0000
0001
0010
0100
1000
0011
0000
0100
0000
1000
0000
0010
0100
,
1001
0010
0100
0000
0010
0000
1000
0100
0011
0000
2000
0000
3110
0000
0002
0000
,
1103
0020
1031
0200
0311
2000
3110
0002
,
1103
0020
1031
0200
0311
1100
0011
1100
,
0011
1100
0011
1100
0011
1100
0011
1100
0011
0000
0000
0000
0000
0000
0110
0110
,
1001
0010
0101
0010
1001
0100
1010
0100
,
0011
0000
1000
0000
0101
0000
0010
0000
0101
0000
1000
0000
0011
0000
0011
1100
,
0011
0200
1301
0020
1130
0020
0131
2000
,
3011
0200
1310
0002
1103
0020
0131
2000
,
3011
0011
1100
0010
1001
0100
0011
1000
,
0101
0010
1100
0001
1010
0100
0011
0100
,
1002
0000
0010
0000
0123
0000
1000
0000
1230
0000
0001
0000
2301
0000
0010
0100
,
3021
1000
1230
0001
0321
1000
0032
1000
,
0113
0000
0000
0000
1001
0000
0100
0000
0021
0030
0020
0030
0120
0000
1030
0000
,
1200
0000
0301
0000
0012
0003
0002
0003
1100
0000
0010
0000
1001
0000
0100
0000
,
0011
0000
1000
0000
0110
0000
0001
0000
1200
0300
0200
0300
0201
0300
0020
0030
,
0120
0000
1030
0000
2001
3000
2000
3000
0011
0000
0100
0000
1010
0000
0001
0000
,
1100
0010
0100
0010
1001
0100
0010
0100
,
0011
1000
0100
0010
1001
0000
1100
0000
,
0011
1100
0011
1100
0011
1100
0011
1100
,
0011
0000
0000
0110
0000
0000
1100
0000
0012
0000
0000
0000
0203
0000
0000
0000
,
1320
0001
0132
1000
0023
1000
0231
0010
,
2300
0010
3201
1000
0320
0100
1032
0100
,
2003
0010
3210
0001
0320
0001
1230
0010
,
0302
0000
0100
0000
1023
0100
1000
0100
2030
0000
0001
0000
3210
0000
0001
0000
,
0320
0100
1032
0100
0023
0001
1230
0010
,
0302
1000
0123
1000
0230
0010
2301
0100
,
3020
1000
0231
0010
0302
1000
0123
1000
,
0032
0100
2013
0001
3200
0010
0301
1000
,
0011
0000
0000
0000
2200
3000
0001
0000
1320
0000
0001
0000
0132
0000
1000
0000
,
0213
1000
0321
1000
0132
0010
2103
0010
,
3120
0001
1230
0001
2310
0001
3210
1000
,
0312
0000
0100
0000
2013
0100
0010
0100
3021
0000
0100
0000
1230
0000
0010
0000
,
1301
0000
0010
0000
1100
0000
0011
1100
0011
0000
0100
0000
1001
0000
1100
0000
,
0110
0000
0011
0000
1100
0000
0011
1100
0011
0000
0000
0011
0000
0000
1100
0000
,
1100
1100
0011
1100
1100
1100
0011
1100
,
1001
0000
0000
0110
0000
0000
0011
0000
0011
0000
1100
0011
1100
0000
0011
0000
,
1200
0000
0000
0000
,
0000
0000
0000
0000
,
0300
0000
0000
0000
;

//---------------dance-single - ----------------
#NOTES:
     dance-single:
     :
     Hard:
     16:
     0.848913,1.081009,0.351205,1.671736,0.200187,846.000000,796.000000,50.000000,238.000000,0.000000,0.000000,0.848913,1.081009,0.351205,1.671736,0.200187,846.000000,796.000000,50.000000,238.000000,0.000000,0.000000:
// measure 0
0000
0000
0000
0000
,  // measure 1
0000
0000
0000
0000
,  // measure 2
0000
0000
0000
0000
,  // measure 3
0000
0000
0000
0000
,  // measure 4
0000
0000
0000
0000
,  // measure 5
0000
0000
0000
0000
,  // measure 6
0000
0000
0000
0000
,  // measure 7
0000
0000
0000
0000
,  // measure 8
0000
0000
0000
0000
,  // measure 9
1001
0000
0001
0000
0100
0000
0010
0000
1000
0001
1000
0000
0100
0000
0010
0001
,  // measure 10
0010
0000
0001
0000
1000
0000
0010
0100
0010
0000
1000
0000
0001
0000
0100
0010
,  // measure 11
0100
0000
0010
0000
1000
0000
0001
0100
0001
0000
0100
0000
0100
0000
0001
1000
,  // measure 12
0002
0000
0000
0000
0203
0300
0200
0300
0020
0000
0000
0000
2030
0000
0000
0000
,  // measure 13
3001
0200
0310
0020
1030
2000
3100
0200
,  // measure 14
0310
0020
0031
0002
0103
0200
0310
0020
,  // measure 15
1030
0000
0001
0000
1000
0000
0001
0000
1000
0001
1000
0001
1000
0001
1000
0001
,  // measure 16
1000
0000
0000
0000
0000
0000
0110
0100
0101
0000
0002
0003
2000
3000
2000
3000
,  // measure 17
0010
0000
0200
0300
0002
0003
0002
0003
1000
0000
0200
0300
0200
0300
0200
0300
,  // measure 18
0010
0000
0200
0300
0020
0030
0002
0003
1000
0000
0020
0030
0200
0300
0002
0003
,  // measure 19
0010
0000
0200
0300
2000
3000
0020
0030
0100
0000
0002
0003
0002
0003
0002
0003
,  // measure 20
1000
0000
0020
0030
0200
0300
0020
0030
0110
0000
0200
0300
0002
0003
0002
0003
,  // measure 21
1000
0000
0200
0300
0020
0030
0002
0003
0100
0000
0020
0030
0020
0030
0020
0030
,  // measure 22
1000
0000
0002
0003
0100
0000
0002
0003
0010
0000
0100
0000
0010
0000
0001
0000
,  // measure 23
0100
0000
0020
0030
2000
3000
0200
0300
0020
0000
0032
0000
0203
0000
0320
0000
,  // measure 24
2030
0000
3020
0000
2030
0000
3001
0000
1001
0000
2000
3000
0020
0030
0020
0030
,  // measure 25
0100
0000
0020
0030
2000
3000
0020
0000
0031
0000
0200
0300
0020
0030
0020
0030
,  // measure 26
0001
0000
2000
3000
0002
0003
0002
0003
0100
0000
0020
0030
0020
0000
0130
0000
,  // measure 27
0001
0000
2000
3000
0020
0030
2000
3000
0010
0000
0100
0000
0001
1000
0001
1000
,  // measure 28
0001
0000
0200
0000
0320
0000
0000
0000
1030
0000
0001
0000
0200
0300
0200
0300
,  // measure 29
0010
0000
2000
3000
0002
0003
2000
3000
0001
0000
0020
0030
0020
0030
0020
0030
,  // measure 30
0100
0000
2000
3000
0002
0003
0020
0030
0001
0000
2000
3000
0020
0000
1030
0000
,  // measure 31
0001
1000
0010
0100
0001
0100
0001
1000
,  // measure 32
0001
0000
0100
0010
0200
0000
0000
0000
0320
0000
0000
0000
2030
0000
0000
0000
,  // measure 33
3002
0003
0002
0003
0002
0000
0103
0000
0020
0000
1030
0000
0200
0300
0200
0300
,  // measure 34
1000
0001
1000
0010
0100
0001
1000
0001
,  // measure 35
0200
0300
0200
0300
0200
0300
0002
0003
0002
0003
0010
0000
0200
0300
0200
0300
,  // measure 36
1000
0000
0001
0000
1000
0000
0001
0000
0100
0000
0010
0000
2000
3000
2000
3000
,  // measure 37
0010
0000
0020
0030
2000
3000
0020
0030
0001
0000
0200
0300
0200
0300
0200
0300
,  // measure 38
0010
0000
2000
3000
0002
0003
2000
3000
0001
0000
2000
3000
0020
0000
0130
0000
,  // measure 39
0001
0100
0010
1000
1010
0000
0001
1000
,  // measure 40
0001
0000
0000
0000
0100
0010
0100
0010
0100
0000
0000
0000
1000
0000
0100
0000
,  // measure 41
0002
0003
0002
0003
0002
0000
0103
0000
0020
0000
1030
0000
0002
0003
0002
0003
,  // measure 42
0100
0000
0020
0030
0002
0003
2000
3000
0100
0000
0020
0030
0002
0000
0103
0000
,  // measure 43
0020
0030
0020
0030
0020
0030
0100
0000
0002
0000
0103
0000
0020
0030
0020
0030
,  // measure 44
1000
0000
1000
0000
0002
0000
0000
0000
0103
0000
0020
0030
2000
3000
2000
3000
,  // measure 45
0100
0000
0020
0030
0020
0030
0020
0030
0001
0000
0200
0300
0020
0000
0130
0000
,  // measure 46
0001
0000
2000
3000
0020
0000
0130
0000
0002
0000
1003
0000
0020
0000
0130
0000
,  // measure 47
2000
0000
3001
0000
0200
0300
0200
0300
0101
0000
0001
0000
1000
0000
0010
0000
,  // measure 48
1000
0000
0001
1000
0001
0000
0100
0000
0201
0000
0000
0000
0320
0000
0000
0000
,  // measure 49
2030
3200
0320
0230
,  // measure 50
2300
3020
2030
3200
,  // measure 51
0320
0032
2003
3020
,  // measure 52
0230
0302
2003
3020
,  // measure 53
0230
0320
2030
3020
,  // measure 54
0230
0302
0023
0230
,  // measure 55
2300
3020
0230
0302
,  // measure 56
0203
0000
0320
0000
1030
1000
0001
0100
,  // measure 57
0101
0001
1000
0001
0100
0010
0100
0001
,  // measure 58
1001
1000
0010
0100
0001
0100
0010
1000
,  // measure 59
1100
0100
1000
0010
0100
0001
0100
0010
,  // measure 60
1010
1000
0010
0100
0101
0001
0100
0010
,  // measure 61
1010
1000
0100
0010
0001
1000
0001
1000
,  // measure 62
1100
0100
1000
0010
0100
0001
0100
0001
,  // measure 63
0011
0010
0001
1000
0010
0100
0001
1000
,  // measure 64
0100
0010
0001
0010
0011
0000
0000
1001
,  // measure 65
0000
0000
0000
0000
0010
0000
1000
0001
1000
0000
0000
0000
0000
0000
0110
0000
,  // measure 66
0000
0000
0000
0000
0001
0000
0100
0010
0100
0000
0000
0000
0000
0000
1010
0000
,  // measure 67
0000
0000
0000
0000
1000
0000
0010
0100
0020
0000
0000
0000
0130
0000
0100
0000
,  // measure 68
0001
0000
1000
0010
1000
0000
0001
0100
0001
0000
1000
0000
0010
0000
0010
1000
,  // measure 69
0010
0000
0001
0000
0100
0000
0100
0001
0100
0000
1000
0000
0010
0000
0010
1000
,  // measure 70
0010
0000
0100
0000
0010
0000
1000
0001
0100
0010
1000
0010
1000
0001
0100
0001
,  // measure 71
0100
0001
1000
0001
1000
0010
0100
0010
0100
0000
0000
0000
0010
0000
0010
0000
,  // measure 72
0200
0000
0000
0000
0301
1000
0001
1000
0001
0000
0100
0000
0010
0000
1000
0000
,  // measure 73
0010
0100
0010
0000
0001
0000
0100
0010
0100
0000
0001
0000
0010
0000
0100
0000
,  // measure 74
1000
0001
1000
0000
0010
0000
0001
1000
0001
0000
0100
0000
1000
0000
0010
0000
,  // measure 75
0100
0001
0100
0000
0010
0000
0010
1000
0010
0000
0100
0000
0001
0000
0100
0000
,  // measure 76
0001
1000
0001
0000
0100
0000
0010
1000
0010
0000
0200
0000
0301
0000
0002
0000
,  // measure 77
0013
0020
0130
0200
1300
2000
3010
0020
,  // measure 78
0130
0200
0301
0002
1003
0010
1000
0001
,  // measure 79
1000
0001
1000
0001
1000
0001
1000
0001
1000
0000
0000
0000
0000
0000
0110
0010
,  // measure 80
1010
1000
0100
0010
0001
1000
0001
0100
,  // measure 81
0001
0000
1000
0000
0010
0000
0100
0000
0010
0000
0100
0000
0001
0000
1000
0001
,  // measure 82
1000
0020
0130
0002
1003
0002
1003
0020
,  // measure 83
0130
0002
0103
0200
0310
2000
3010
1000
,  // measure 84
1100
0100
0100
2000
3001
0200
0310
0200
,  // measure 85
0301
0000
0200
0000
0310
0000
2000
0000
3010
0000
2000
3000
0002
0003
2000
3000
,  // measure 86
0200
0000
0000
0000
0320
0000
0000
0000
0032
0000
0000
0000
1003
0000
1000
0001
,  // measure 87
2000
3200
0320
0032
,  // measure 88
0203
0000
0000
0000
0310
0000
1000
0000
0002
0003
0002
0003
0102
0000
0103
0000
,  // measure 89
0020
0000
1030
0000
1010
0000
0020
0030
0020
0030
0200
0000
0301
0000
2000
0000
,  // measure 90
3001
0000
0200
0000
0310
0000
2000
0000
3020
0030
0020
0030
0120
0030
0200
0300
,  // measure 91
0200
0000
0301
0000
2001
3000
2000
3000
0010
0000
0100
0000
0101
0000
0001
0000
,  // measure 92
1001
1000
0010
1000
1010
0010
0100
0010
,  // measure 93
0110
0100
0001
0100
0101
0000
1001
0000
,  // measure 94
1000
0001
1000
0001
1000
0001
1000
0001
,  // measure 95
1001
0000
0000
1010
0000
0000
0101
0000
0002
0000
0000
0000
0203
0000
0000
0000
,  // measure 96
0310
1000
0010
0100
0010
1000
0010
0100
,  // measure 97
0010
1000
0001
1000
0001
0100
0001
0001
,  // measure 98
0100
0010
0100
0001
0100
0010
0100
0001
,  // measure 99
0100
0010
1000
0001
1000
0010
0100
0010
,  // measure 100
1010
1000
0001
0100
0001
1000
0001
0100
,  // measure 101
0001
1000
0010
0100
0010
1000
0010
0100
,  // measure 102
0001
1000
0010
1000
0001
0100
0010
1000
,  // measure 103
0010
0010
0100
0001
1000
0001
0100
0010
,  // measure 104
0210
0000
0301
1000
0001
0100
0110
0010
,  // measure 105
1000
0000
0101
0001
1000
0000
0110
0000
,  // measure 106
0001
1000
1010
0010
0100
0001
0101
0100
,  // measure 107
0010
1000
1001
0001
1000
0010
0100
0010
,  // measure 108
0110
0000
0000
0000
1000
0000
0001
1000
0001
0000
0000
0000
0010
0000
1000
0000
,  // measure 109
0010
0000
0100
0000
0001
0000
1000
0001
1000
0000
0000
0010
0000
0000
0100
0000
,  // measure 110
0010
0100
0001
0100
0010
0100
0001
1000
,  // measure 111
1001
0000
0000
0110
0000
0000
1001
0000
1001
0000
0001
1000
0001
0000
0100
0000
,  // measure 112
0120
0000
0000
0000
,  // measure 113
0000
0000
0000
0000
,  // measure 114
0030
0000
0000
0000
;

//---------------dance-single - ----------------
#NOTES:
     dance-single:
     :
     Medium:
     10:
     0.521790,0.630764,0.273940,0.955278,0.010536,520.000000,481.000000,39.000000,136.000000,0.000000,0.000000,0.521790,0.630764,0.273940,0.955278,0.010536,520.000000,481.000000,39.000000,136.000000,0.000000,0.000000:
2000
0000
0000
0000
,
3010
0000
0000
0002
,
0203
0300
0000
0020
,
2030
3000
0000
0000
,
0002
0003
2000
3020
,
0130
0001
1010
0100
,
0010
0100
1001
0100
,
0010
0001
0110
1000
,
0201
0300
0200
0300
0020
0030
0200
0300
0002
0000
0000
0000
0103
0000
0000
0000
,
1010
0100
0010
0001
,
0100
0010
1000
0010
,
0001
0100
0010
1000
,
0120
0030
0100
0001
,
1000
0100
0010
0001
,
0010
0100
0010
0001
,
1000
0001
1000
0001
1000
0001
1000
0001
,
1001
0000
0110
0001
,
1001
0100
0010
0100
,
1100
0010
0100
0001
,
0011
1000
0010
0100
,
0101
0020
1030
0010
,
0110
0001
1000
0010
,
1010
0100
0010
0001
,
0100
0000
0010
0000
1000
0010
0100
0001
,
0010
0001
0100
0010
1000
0000
0010
0000
,
0101
1000
0010
0100
,
0101
0010
1000
0100
,
0011
0100
0001
0200
,
0310
2000
3100
0010
,
0101
0010
1000
0010
,
1010
0100
0001
0010
,
1100
0000
0010
0000
0100
0001
0100
0000
,
0020
0230
0301
0010
,
0100
0001
0010
0000
1000
0000
0010
0100
,
0010
0001
0010
1000
,
0010
0100
0010
0100
0010
0000
1000
0001
,
1000
0020
0130
1000
,
0110
0001
0100
0010
,
1000
0010
0100
0001
,
0100
0010
1010
0200
,
0320
0030
1001
0100
,
0010
1000
0010
0000
0100
0000
0010
0100
,
0001
1000
0001
0010
,
0001
1000
0001
1000
0001
0000
0200
0000
,
0310
2000
3100
0010
,
0100
0100
0100
0001
,
0010
1000
0010
0100
,
0001
0010
2100
3200
,
0320
0032
0203
0320
,
2030
3200
0320
0230
,
2300
3020
2030
3002
,
0203
0320
2030
3200
,
2300
3020
0230
0302
,
2003
3020
0230
0320
,
2030
3002
0203
0320
,
2030
3002
0203
0320
,
2030
3020
0130
0010
,
1010
0100
0010
0100
,
0101
0010
0100
0010
,
1010
0100
0020
0230
,
0320
2030
3010
0100
,
1001
0010
0100
0010
,
1001
0100
0020
0230
,
0302
0203
0320
2030
,
3002
0000
0203
0000
0310
0000
0000
0110
,
0000
0000
0000
0000
1001
0000
0000
1001
,
0000
0000
0000
0000
0110
0000
0000
0110
,
0000
0000
2001
3000
,
0020
0230
0310
1000
,
0010
0001
0010
1000
,
0010
0000
0001
0000
0010
0001
0100
0010
,
1000
0100
1000
0010
0100
0010
1000
0001
,
2000
3020
0130
1000
,
0010
0001
0100
1000
,
0010
0100
0010
1000
,
0001
0100
0010
2000
,
0010
0001
3010
1000
,
0010
0100
1000
0010
,
0100
0001
1000
0010
,
0100
0010
0100
0010
0100
0000
0000
0000
,
1001
0000
0100
0000
0010
0100
0010
0000
,
1000
0000
0001
0100
0001
0000
0010
0000
,
1000
0001
0100
0010
,
1000
0100
0010
0001
,
1000
0010
1000
0000
0001
0100
0001
0000
,
1000
0000
0010
0100
0010
0000
1000
0000
,
0002
0023
0230
2300
,
3200
0320
0032
0203
,
0310
0000
1010
0000
0100
0001
1000
0000
,
0010
0000
0100
0001
0100
0000
0010
0000
,
1000
0000
0100
0000
0010
0100
0010
0100
,
0010
0000
1000
0001
1000
0000
0100
0000
,
0001
0000
0010
0000
0001
1000
0001
0000
,
0100
0000
0010
1000
0010
0000
0100
0000
,
0010
0100
0010
0100
0010
0100
0010
0100
,
0010
0000
0000
0010
0000
0000
0010
0000
0100
0000
0000
0000
0010
0000
0000
0000
,
2001
3020
0230
0302
,
2003
3020
0230
0320
,
2030
3200
0320
0032
,
0203
0302
0203
2300
,
3020
0230
0302
2003
,
3002
0203
0320
0230
,
0302
2003
3020
0230
,
0302
0203
0320
2030
,
3000
1020
0230
0302
,
2003
3002
0203
0320
,
2030
3020
0230
0302
,
2003
3200
0320
0032
,
1003
0000
0010
0100
0010
0000
1000
0001
,
0100
0000
0001
0000
1000
0000
0010
0000
0100
0000
0000
0100
0000
0000
0100
0000
,
0010
1000
0010
0100
0001
0100
0010
1000
,
0010
0000
0000
0010
0000
0000
0010
0000
0200
0000
0000
0000
0320
0000
0000
0000
,
2030
3000
0000
0000
;

//---------------dance-single - ----------------
#NOTES:
     dance-single:
     :
     Easy:
     5:
     0.356222,0.433650,0.063217,0.252868,0.003512,355.000000,346.000000,9.000000,36.000000,0.000000,0.000000,0.356222,0.433650,0.063217,0.252868,0.003512,355.000000,346.000000,9.000000,36.000000,0.000000,0.000000:
0020
0000
0000
0000
,
0130
0000
0000
0002
,
0203
0300
0000
0200
,
0320
0030
0000
0000
,
2000
3000
0020
0230
,
0301
0000
0010
0000
,
1000
0000
0100
0000
,
0010
0000
0001
1000
,
0020
0230
0302
0000
,
1003
0000
0010
0000
,
0100
0000
0001
0000
,
0010
0000
0001
0000
,
0100
0000
0010
0000
,
1000
0010
0100
0010
,
1000
0010
0100
0010
,
1000
0010
0100
0001
,
0010
0000
1000
0001
,
1000
0000
0100
0010
,
0100
0000
0010
1000
,
0010
0000
0100
0001
,
0100
0010
1000
0010
,
0001
0000
0100
0010
,
1000
0000
0100
0010
,
0001
0000
0020
0230
,
0320
2030
3001
0100
,
0001
0000
0010
1000
,
0010
0000
0100
0010
,
0100
0000
0010
1000
,
0010
0100
0001
0010
,
0001
0000
1000
0010
,
1000
0000
0010
0100
,
0010
0000
1000
0100
,
0010
0002
0103
0000
,
0010
0010
1000
0100
,
0001
0000
0010
0000
,
1000
0001
0100
0010
,
0001
1000
0010
0100
,
0001
0000
0010
1000
,
0100
0000
0010
0100
,
0001
0000
1001
0000
,
0000
0000
0110
0000
,
1000
0001
1000
0010
,
0100
0000
0010
0000
,
0001
0100
0010
1000
,
0100
0010
0001
0000
,
1000
0010
0100
0000
,
0010
0100
0001
0000
,
1000
0100
0010
0000
,
0000
0000
0110
0000
,
1000
0000
0010
0000
,
0100
0000
0001
0000
,
1000
0000
0010
0000
,
0100
0000
0001
0000
,
1000
0000
0010
0000
,
0100
0000
0001
0000
,
1000
0000
0010
0000
,
0100
0000
0001
1000
,
0010
0100
0001
1000
,
0010
0100
0010
1000
,
0100
0010
0001
0100
,
0010
1000
0010
0001
,
1000
0100
0010
0100
,
0001
1000
0010
0100
,
0001
0100
0010
0100
,
0001
1000
0020
0000
,
0000
0000
0000
0000
,
0000
0000
0000
0000
,
0000
0030
0100
0000
,
0010
1000
0100
0010
,
0100
0001
0010
1000
,
0010
0001
0100
0010
,
1000
0010
0100
0010
,
0002
0000
0103
0000
,
0010
0000
1000
0000
,
0100
0000
0010
0000
,
0001
0000
0100
0000
,
0010
0000
1000
0100
,
0001
0100
1000
0100
,
0001
0100
1000
0010
,
0100
0001
0010
0000
,
1001
0010
0100
0001
,
1000
0010
0100
0001
,
1000
0010
0100
0001
,
0100
0010
1000
0010
,
0100
0100
0001
1000
,
0010
0100
0001
1000
,
0020
2030
3020
0230
,
0302
0203
0320
2030
,
3001
0000
0010
0010
,
0010
0100
1000
0010
,
0100
0001
0100
0100
,
0100
0010
0001
0010
,
1010
0000
0110
0000
,
1001
0000
0110
0000
,
0000
1000
0001
0010
,
0200
0000
0000
0000
,
0301
1000
0010
0100
,
0001
1000
0010
0100
,
0001
0010
1000
0001
,
0100
0010
1000
0001
,
0100
0010
1000
0010
,
0100
0010
1000
0001
,
0200
0320
2030
3200
,
0320
0230
0302
0023
,
0030
1000
0010
0100
,
0001
1000
0010
0100
,
0001
0010
0001
1000
,
0010
0100
0001
1000
,
0010
0100
0001
0010
,
0001
0100
0010
1000
,
0010
0100
0001
0010
,
0001
0000
0000
1000
0000
0000
0001
0000
0100
0000
0000
0000
0010
0000
0000
0000
,
0210
0300
0000
0000
;

//---------------dance-single - ----------------
#NOTES:
     dance-single:
     :
     Beginner:
     3:
     0.173596,0.275345,0.021072,0.028096,0.000000,173.000000,170.000000,3.000000,4.000000,0.000000,0.000000,0.173596,0.275345,0.021072,0.028096,0.000000,173.000000,170.000000,3.000000,4.000000,0.000000,0.000000:
0000
0000
0000
0000
,
0010
0000
0000
0000
,
1000
0000
0000
0000
,
0010
0000
0000
0000
,
0100
0000
0001
0000
,
1000
0000
0000
0000
,
0001
0000
0000
0000
,
0100
0000
0000
0000
,
0010
0000
1000
0000
,
0001
0000
0100
0000
,
0010
0000
1000
0000
,
0001
0000
0100
0000
,
0010
0000
0000
0000
,
1000
0000
0010
0000
,
0100
0000
0001
0000
,
0010
0000
0000
0000
,
1000
0000
0000
0000
,
0010
0000
0000
0000
,
1000
0000
0000
0000
,
0010
0000
0000
0000
,
0100
0000
0010
0000
,
0001
0000
0000
0000
,
0010
0000
0000
0000
,
1000
0000
0000
0000
,
0000
0000
0110
0000
,
0001
0000
0000
0000
,
1000
0000
0000
0000
,
0010
0000
0000
0000
,
0100
0000
0001
0000
,
1000
0000
0000
0000
,
0010
0000
0000
0000
,
0100
0000
0001
0000
,
0010
0000
1000
0000
,
0100
0000
0000
0000
,
0010
0000
0000
0000
,
0001
0000
0000
0000
,
0100
0000
0010
0000
,
1000
0000
0000
0000
,
0010
0000
0000
0000
,
0100
0000
0001
0000
,
0010
0000
1000
0000
,
0010
0000
0000
0000
,
0100
0000
0000
0000
,
0001
0000
0000
0000
,
1000
0000
0010
0000
,
0100
0000
0001
0000
,
0010
0000
1000
0000
,
0010
0000
0200
0000
,
0300
0000
0001
0000
,
1000
0000
0000
0000
,
0001
0000
0000
0000
,
0010
0000
0000
0000
,
0100
0000
0000
0000
,
0001
0000
0000
0000
,
1000
0000
0000
0000
,
0010
0000
0000
0000
,
0100
0000
0001
0000
,
0010
0000
1000
0000
,
0100
0000
0010
0000
,
0100
0000
0001
0000
,
1000
0000
0010
0000
,
0100
0000
0001
0000
,
0010
0000
0001
0000
,
0100
0000
0010
0000
,
1000
0000
0020
0000
,
0000
0000
0000
0000
,
0000
0000
0000
0000
,
0000
0030
0000
0000
,
0000
0000
0010
0000
,
1000
0000
0010
0000
,
0100
0000
0001
0000
,
0100
0000
0010
0000
,
0000
0000
0010
0000
,
0000
0000
0100
0000
,
0000
0000
0001
0000
,
0000
0000
0010
0000
,
0000
0000
0001
0000
,
0100
0000
0010
0000
,
1000
0000
0010
0000
,
0100
0000
0001
0000
,
0000
0100
0000
0010
,
0000
1000
0000
0001
,
0000
0100
0000
0010
,
0000
1000
0000
0001
,
0000
0010
0000
1000
,
0000
0010
0000
0100
,
0000
0001
0000
0100
,
0000
0010
0000
0000
,
0000
1010
0000
0100
,
0000
0001
0000
0010
,
0000
1000
0000
0001
,
0000
0100
0000
0010
,
1000
0000
0000
0000
,
0010
0000
0000
0000
,
0010
0000
0100
0000
,
0020
0000
0000
0000
,
0030
0001
0000
0100
,
0000
0001
0000
1000
,
0000
0010
0000
0100
,
0000
0010
0000
1000
,
0000
0001
0000
0100
,
0000
0010
0000
1000
,
0000
0001
0000
0100
,
0000
0010
0000
0000
,
0000
1001
0000
0010
,
0000
0100
0000
0001
,
0000
0100
0000
0010
,
0000
1000
0000
0001
,
0000
0100
0000
0010
,
0000
1000
0000
0001
,
1000
0010
0100
0001
,
0020
0000
0000
0000
,
0130
0000
0000
0000
;
