#TITLE:-Celestial Horizon;
#SUBTITLE:;
#ARTIST:Fractal Dreamers;
#TITLETRANSLIT:;
#SUBTITLETRANSLIT:;
#ARTISTTRANSLIT:;
#GENRE:;
#CREDIT:;
#BANNER:Celestial Horizon.png;
#BACKGROUND:Celestial Horizon-bg.png;
#LYRICSPATH:;
#CDTITLE:;
#MUSIC:Celestial Horizon.ogg;
#OFFSET:-0.149000;
#SAMPLESTART:28.749027;
#SAMPLELENGTH:15.000007;
#SELECTABLE:YES;
#BPMS:0.000000=200.000000
;
#STOPS:
;
#BGCHANGES:0.000=Celestial Horizon-bg.png=1.000=0=0=1=====,
99999=-nosongbg-=1.000=0=0=0 // don't automatically add -songbackground-
;
#KEYSOUNDS:;
#ATTACKS:;

//---------------dance-single - ----------------
#NOTES:
     dance-single:
     :
     Challenge:
     18:
     1.275010,1.337318,1.783616,0.377707,0.549074,1276.000000,1021.000000,255.000000,54.000000,0.000000,16.000000,1.275010,1.337318,1.783616,0.377707,0.549074,1276.000000,1021.000000,255.000000,54.000000,0.000000,16.000000:
1000
0100
0010
0001
0000
0001
0010
0100
,
0001
0010
0100
1000
0000
1000
1000
0010
,
0100
0010
0001
0010
0000
0010
0100
0001
,
1000
0100
0010
0001
0000
0001
0100
1000
,
0001
0010
0100
1000
0000
1000
0010
0100
,
0001
0010
0100
1000
0000
1000
0010
0001
,
1000
0100
0010
0001
0000
0001
0100
1000
,
0001
0000
0010
0000
0100
0000
1000
0000
0000
0000
0010
0000
1000
0100
0010
0001
,
0200
0010
1000
0001
0000
0001
1000
0010
,
1000
0001
1000
0010
0000
0010
0010
1000
,
0302
0010
0100
1000
0000
1000
0100
0010
,
1000
0100
0010
0100
0000
0100
0010
1000
,
0023
0100
1000
0001
0000
0001
1000
0100
,
0001
0100
1000
0001
0000
0001
1000
0100
,
2030
0100
0010
0001
0000
0001
0100
0010
,
0100
0000
0001
0000
0010
0000
0100
0000
0000
0000
0100
0000
0001
0100
0001
0100
,
3011
0100
0010
0001
1100
0001
0010
0010
,
1001
0000
0010
0000
0100
1000
0100
0000
0011
0000
0000
0000
0010
0000
0000
0000
,
1001
0100
0010
0100
0011
0000
0100
0000
,
1001
0001
0000
1000
0110
0000
0001
0000
,
1010
0100
0010
0001
1100
0001
0010
0010
,
1001
0000
0010
0000
0100
1000
0100
0000
0011
0000
0000
0000
0100
0000
0000
0000
,
1001
0010
0100
1000
0011
0100
0010
1000
,
0001
1000
0100
0010
0001
0010
0100
0000
,
1001
0100
1010
0100
0001
1100
0011
1000
,
0001
0000
1010
0000
0101
0000
0000
0110
0000
0000
0001
0010
0100
1000
0100
0010
,
1001
0000
0010
0000
1100
0000
0010
0000
0001
0000
1010
0000
0101
0000
0010
0100
,
1000
0001
0010
0100
1000
0100
0010
0001
1000
0001
0010
0100
1000
0100
0010
0001
,
1100
0000
0010
0000
1001
0000
0100
0000
0010
0000
1100
0000
0011
0000
0100
1000
,
0100
0000
0011
0000
1100
0000
0000
0110
0000
0000
0011
0000
1100
0000
0010
0000
,
1002
0000
0010
0000
0100
0000
1000
0010
2003
0010
0100
3001
0010
0000
0001
0000
,
0200
0000
1301
0000
0020
0000
1130
0000
0001
0010
0100
1000
0100
0010
0001
0010
,
1100
0000
0100
0000
1001
0000
0010
1000
0101
0000
1000
0000
0011
0000
0100
0000
,
1010
0000
0001
0000
1010
0001
0100
0010
1001
0010
0100
1000
0011
0000
1000
0000
,
0110
0000
0010
0000
1100
0000
0010
0100
1001
0000
0010
0000
0101
0000
1000
0000
,
0110
0000
0001
0000
1010
0000
0100
1000
0011
0100
1000
0001
0110
0000
0001
0000
,
1100
0000
0100
0000
1001
0000
0010
1000
0101
0000
1000
0000
0110
0000
0001
0000
,
1010
0000
0100
0000
1001
0000
0100
1000
0011
1000
0100
0001
1010
0000
0001
0000
,
1010
0000
0100
0000
1001
0000
0100
1000
0011
0000
1000
0000
0110
0000
1000
0000
,
0101
0000
0010
0000
1001
0000
0100
0001
1010
0001
0100
0010
1001
0000
0100
0000
,
0011
0000
1000
0000
0110
0000
0001
0100
1010
0000
0100
0000
1001
0000
0010
0000
,
0101
0000
1000
0000
0110
1000
0001
0010
1100
0010
0001
0100
1010
0000
0100
0000
,
0011
0000
1000
0000
0101
0000
0010
0100
1001
0000
0010
0000
1100
0000
0001
0000
,
0110
0000
1000
0000
0001
0000
0010
0100
0010
0000
0100
0000
1001
0000
0100
0000
,
0011
0000
1000
0000
0110
0000
0001
0000
1000
0000
0011
0000
1100
0000
0010
0100
,
1000
0100
0010
0001
0100
0001
0010
1000
0100
0000
0011
0000
1100
0000
1000
0100
,
0011
0000
0100
0000
1001
0000
0100
0000
0010
0000
0101
0000
1010
0000
0001
0010
,
1000
0100
0010
0001
0100
0010
0100
1000
0100
0010
0001
0010
0100
1000
0010
0100
,
0011
0100
1001
0010
0100
0011
1100
1000
,
0010
0000
0101
0000
1010
0000
0001
0010
0100
1000
0100
0010
0100
0010
0001
0010
,
1100
0000
0010
0000
1001
0000
0100
0000
0010
0000
0101
0000
1010
0000
0001
0010
,
1000
0100
0010
0001
0010
0100
1000
0010
0100
0001
0010
0100
1000
0001
1000
0001
,
0110
0110
1001
0010
1000
0110
1001
0110
,
0001
0000
1010
0000
0101
0000
0010
0000
0100
0000
1001
0000
0110
0000
1000
0100
,
0011
0011
1100
0010
0001
1100
0011
0100
,
1000
0000
0110
0000
1001
0000
0000
0110
0000
0000
0011
0000
1100
0000
0010
0100
,
0011
0011
1100
0010
0001
1100
0011
1100
,
0010
0000
0101
0000
1010
0000
0001
0000
0010
0000
1100
0000
0011
0000
0100
0010
,
1100
0001
0010
1100
0001
1100
0011
0100
,
1001
0010
0100
1000
0100
0010
1001
0010
,
1100
0001
0110
1000
0010
1100
0011
0100
,
0001
0000
1010
0000
0101
0000
0010
0100
1001
0000
0101
0000
1010
0000
0100
0010
,
0101
1000
0110
0001
1000
0110
1001
0010
,
0100
0000
1010
0000
0101
0000
0000
1010
0000
0000
0011
0000
1100
0000
0010
0100
,
1001
0100
0011
1000
0100
0011
1100
0010
,
0001
0000
1100
0000
0011
0000
0100
0010
0100
0000
1001
0000
0110
0000
0001
0010
,
1100
0010
0001
0100
0010
1000
0100
0001
,
0010
0100
1000
0100
0010
0001
0100
0010
,
2100
0001
3010
0100
2000
0010
3001
0100
,
2000
3020
0230
0302
1000
0023
0230
2300
,
3020
0001
0230
0302
1000
0023
1000
0230
,
0001
2300
3020
0230
0302
0203
0320
2030
,
3200
0010
0001
0320
0100
1000
0032
1000
,
0100
2003
0010
0001
3200
0001
0320
1000
,
0032
0100
0010
2003
0100
0001
3020
0100
,
0001
1000
0230
0001
2300
0010
3200
0010
,
0302
0010
0100
1000
0100
1000
0010
0100
,
1000
0010
0100
0010
0100
1000
0010
1000
,
0113
1000
0001
1100
0010
0001
0100
0010
,
1100
0001
0010
0101
1000
0010
0100
0001
,
0110
1000
0001
1010
0100
0010
0001
1000
,
0011
0100
1000
0110
0001
0010
1000
0100
,
0011
0100
0001
1010
0100
0010
0001
0100
,
0011
1000
0100
1001
0010
0100
0001
0100
,
2010
0000
0000
3210
0000
0000
0321
0000
,
0000
0000
0000
0000
1000
0000
0000
0000
0001
0000
0000
0000
0100
0000
1000
0001
,
2130
0000
0000
3210
0000
0000
0312
0000
,
0000
0010
0100
1000
0100
0010
0100
1000
,
0123
0000
0000
1230
0000
0000
2301
0000
,
0000
0000
0000
0000
0100
0000
0000
0000
0001
0000
0000
0000
0010
0000
0001
0100
,
3012
0000
0000
0123
0000
0000
1230
0000
,
0000
0000
0001
0000
1000
0000
0010
0000
1301
0010
0100
0010
0100
0000
1000
0000
,
0011
0000
0011
0000
1100
0000
0011
0000
1000
0000
0101
0000
0010
0100
1000
0001
,
0010
0100
1000
0100
0010
0001
0010
0100
1000
0100
0010
0001
1000
0100
0010
0001
,
1100
0000
0011
0000
1100
0000
0011
0000
0100
0000
1001
0000
0110
0000
0001
0010
,
0100
1000
0001
0010
0100
1000
0100
0010
0001
0010
0100
1000
0100
0010
0001
0010
,
1100
0000
1100
0000
0011
0000
1100
0000
0010
0000
1001
0000
0110
0000
0001
0010
,
0100
0001
0010
0100
1000
0001
0010
0100
1000
0100
0010
0001
0010
0100
1000
0100
,
0011
0000
0011
0000
1100
0000
0011
0000
0100
0000
1001
0000
0110
0000
0001
0010
,
0100
1000
0001
0010
0100
1000
0100
0010
0001
0100
0010
1000
0100
0010
1000
0001
,
0110
0110
1001
0110
1000
0101
1010
0101
,
0010
0000
1100
0000
0011
0000
1100
0000
0010
0000
0001
0010
0100
1000
0100
0010
,
1001
0000
0100
0000
0010
0100
1000
0100
0010
0000
1001
0000
0110
0000
0001
0010
,
0100
0010
1000
0100
0010
0001
0100
0010
0100
1000
0001
0010
0100
1000
0001
0100
,
0011
0000
0100
0000
1000
0100
0010
0100
1000
0000
0011
0000
1100
0000
0001
1000
,
0010
0100
0010
0100
1001
0000
0100
0000
0011
0000
0100
0000
1000
0000
0010
0000
,
0101
0000
0010
0000
1100
0010
0001
0100
0010
0000
1001
0000
0110
0000
1000
0000
,
0010
0000
0101
0000
0010
0000
1100
0000
0001
0010
0100
1000
0100
0010
0001
1000
,
0110
1000
0100
0011
0100
1000
0100
0010
,
1001
0100
0010
1100
0001
0010
0100
1000
,
0011
0100
1000
0110
0001
1000
0100
0010
,
1001
0100
0010
0101
1000
0010
0001
0010
,
1100
0010
0100
1001
0100
0010
0100
0001
,
1010
0100
0010
1001
0100
0010
0001
0010
,
1100
0001
0100
1010
0001
0010
0100
0001
,
1010
0100
0010
0101
1000
0010
0100
0010
;

//---------------dance-single - ----------------
#NOTES:
     dance-single:
     :
     Hard:
     15:
     0.783392,1.053645,0.335739,0.447653,0.307761,784.000000,736.000000,48.000000,64.000000,0.000000,0.000000,0.783392,1.053645,0.335739,0.447653,0.307761,784.000000,736.000000,48.000000,64.000000,0.000000,0.000000:
0000
0000
0000
0000
,
0000
0000
0000
0000
,
0000
0000
0000
0000
,
0000
0000
0000
0000
,
0000
0000
0000
0000
,
0000
0000
0000
0000
,
0000
0000
0000
0000
,
0000
0000
0000
0000
,
2000
0000
0000
0000
,
0000
0000
0000
0000
,
3200
0000
0000
0000
,
0000
0000
0000
0000
,
0320
0000
0000
0000
,
0000
0000
0000
0000
,
0032
0000
0000
0000
,
0000
0000
0000
0000
,
0103
0001
0100
0010
1000
0100
0100
1000
,
0010
0000
0100
0000
0001
1000
0001
0000
0100
0000
0000
0000
0010
0000
0000
0000
,
1001
0000
0110
0001
,
1001
0000
1000
0000
0000
0001
0000
0000
0101
0000
0000
0000
0010
0000
0000
0000
,
1001
0000
0100
0100
0010
1000
0010
0100
,
0001
0000
1000
0000
0001
1000
0001
0000
0101
0000
0000
0000
0010
0000
0000
0000
,
1001
0000
0000
0000
0100
0001
0100
0010
,
1000
0010
1000
0001
0100
0010
1000
0000
,
0011
0001
0100
0010
1000
0100
1000
0010
,
0100
0000
0001
0000
0100
0000
0010
0000
0010
0000
1000
0001
1000
0001
0100
0010
,
0100
0001
0100
0001
1000
0010
0100
0001
,
0100
0000
0010
0000
1000
0001
1000
0000
0010
0000
0010
0000
0100
0000
0100
0000
,
0001
0000
1000
0000
0010
0000
1000
0000
0010
0000
0100
0000
0001
0000
0100
0010
,
0100
0010
0100
0010
1000
0001
0010
0001
,
0101
0000
0100
0000
0010
0000
1000
0001
1000
0000
0010
0000
0100
0000
0001
0000
,
0100
0000
0001
0000
1000
0000
0010
0000
0100
0010
0100
0010
1000
0010
1000
0000
,
1001
1010
1001
0100
,
0011
1010
1100
0101
,
1001
1010
1001
0010
,
1100
0000
0000
0000
0110
0000
0010
0000
1000
0001
1000
0000
0001
0000
0010
0000
,
0011
1100
0011
1100
,
1010
0101
1010
0101
,
0011
1001
1010
1001
,
1100
0000
0100
0000
1000
0000
0001
1000
0001
0000
0100
0000
0001
0000
0100
0000
,
0110
1001
0110
1001
,
1001
0110
1001
0110
,
1100
0110
0011
0110
,
1100
0000
0100
0000
1000
0000
0001
0100
0001
0000
1000
0000
0010
0000
0100
0000
,
0001
0000
1000
0000
0001
0000
0100
0000
0000
0000
0100
0000
0001
0000
1000
0001
,
1000
0010
1000
0010
0100
0001
0100
0010
,
1000
0000
0001
0000
0100
0000
0001
0000
0000
0000
0001
0000
0100
0000
0001
1000
,
0001
1000
0010
1000
0010
0100
0010
0100
0001
0010
0001
0010
0100
1000
0100
0010
,
0001
1000
0001
1000
0000
1000
0010
1000
,
0000
0000
0001
0000
0100
0010
1000
0010
1000
0001
0100
0010
1000
0001
1000
0001
,
0100
0000
0001
0000
1000
0000
0010
0000
0000
0000
0100
0000
0001
1000
0001
1000
,
0010
1000
0001
0100
0001
0100
0010
1000
0001
1000
0001
0100
0001
1000
0010
1000
,
0010
0100
0001
1000
0000
0100
1000
0010
,
0000
0010
0100
0001
0010
0001
0100
0001
,
1000
0010
0100
0010
0000
0001
1000
0001
,
0000
0100
0010
0100
0001
1000
0001
0010
,
0001
1000
0010
0100
0000
0001
0100
0010
,
0000
0010
0100
1000
0100
0010
0100
0001
,
0100
0010
1000
0010
0000
0100
0001
0100
,
0010
1000
0010
0100
0001
1000
0100
1000
,
0010
0100
0001
1000
0010
0100
0001
1000
,
0010
1000
0100
0010
0001
0100
0010
1000
,
0001
0000
0001
1000
0000
0100
0000
0010
,
0000
0010
0100
0001
1000
0001
0100
0001
,
0200
0000
0000
0320
0000
0000
2030
0000
,
0000
3200
0000
0000
0320
0000
0032
0000
,
2003
0000
0000
3002
0000
0000
0203
0000
,
0000
0300
2000
0000
3020
0000
0230
0000
,
0302
0003
0020
0030
,
0020
0230
0302
0203
0000
0320
2030
3002
,
0023
0000
0032
2003
0000
3200
0000
0320
,
0000
0032
2003
3020
0230
0302
0203
0320
,
2030
0000
0000
3200
0000
0000
0320
0000
,
0000
0032
0000
0000
0023
0000
0230
0000
,
2300
0000
0000
3020
0000
0000
0230
0000
,
0000
0302
0023
0230
,
1300
0100
0010
0001
0100
0010
1000
0001
,
1000
0100
0010
0001
0010
0100
1000
0010
,
0100
0001
0001
0100
0010
0100
0010
1000
,
0100
1000
0010
0100
0001
1000
0001
0010
,
0100
0010
0001
0100
0010
1000
0100
1000
,
0010
0100
1000
0100
0001
1000
0010
0100
,
0001
1000
0001
0010
0100
1000
0100
0010
,
0100
1000
0010
0100
0001
0100
0010
1000
,
2000
0000
0000
3200
0000
0000
0320
0000
,
0000
0000
0001
0000
1000
0000
0001
0100
,
0032
0000
0000
0023
0000
0000
0230
0000
,
0000
1300
0100
0010
0001
0010
0100
1000
,
2000
0000
0000
3020
0000
0000
2030
0000
,
0000
0000
3002
0000
0023
0000
0230
1000
,
2300
0000
0000
3020
0000
0000
0230
0000
,
0000
0310
0100
0010
1010
1000
0001
0100
,
0010
0000
0010
0000
1000
0000
0001
0000
0000
0000
0100
0000
0010
0000
1000
0001
,
1000
0001
0100
0001
1000
0010
0100
0010
0100
0001
1000
0001
1000
0010
1000
0001
,
0100
0100
0010
0100
0000
1000
0001
1000
,
0010
0100
0010
0000
0001
0100
0001
0000
1000
0010
1000
0000
0100
0001
0100
0000
,
0001
0000
0001
0000
1000
0000
0010
0000
0000
0000
0100
0000
0100
0000
0010
1000
,
0010
1000
0001
0100
0001
0100
0001
1000
0010
0100
0001
1000
0100
0010
0001
0000
,
1000
0000
0010
0000
1000
0000
0001
0000
0000
0000
0001
0000
1000
0000
0010
1000
,
0001
0100
0001
0100
0001
1000
0001
1000
0010
0100
0001
1000
0001
0100
0010
0000
,
0100
0100
0010
0100
0010
1000
0001
1000
,
0010
0000
0100
0000
0001
0000
0100
0000
0010
0000
0100
0001
0100
0001
1000
0001
,
1000
0000
0001
0000
0100
0000
0010
0000
1000
0000
0001
0000
0001
0000
0100
0010
,
1000
0001
0100
0010
0100
0001
0100
0001
1000
0001
1000
0010
1000
0001
0100
0001
,
0100
0000
0001
0000
1000
0000
0010
0000
0100
0000
0100
0000
0001
0000
0001
0100
,
0001
1000
0010
0100
0001
0010
0100
1000
,
0100
0000
1000
0000
0001
0000
1000
0010
0100
0000
0001
0000
0010
0000
0100
0000
,
1000
0000
0001
0000
0100
0000
0001
0000
1000
0100
0010
0001
1000
0001
1000
0001
,
0100
0100
0010
1000
0010
0100
0001
1000
,
0100
1000
0010
0100
0010
1000
0001
0100
,
0010
0100
0001
1000
0100
1000
0010
0100
,
0001
1000
0010
1000
0100
1000
0010
0100
,
0001
0010
0100
1000
0001
0100
0001
0010
,
0001
0010
0100
1000
0100
0010
0001
0100
,
0010
0100
0001
0100
0010
1000
0010
0100
,
0001
1000
0001
0100
0010
1000
0010
0100
;

//---------------dance-single - ----------------
#NOTES:
     dance-single:
     :
     Medium:
     9:
     0.485623,0.648397,0.153881,0.594539,0.027978,486.000000,464.000000,22.000000,85.000000,0.000000,0.000000,0.485623,0.648397,0.153881,0.594539,0.027978,486.000000,464.000000,22.000000,85.000000,0.000000,0.000000:
// measure 0
0000
0000
0000
0000
,  // measure 1
0000
0000
0000
0000
,  // measure 2
0000
0000
0000
0000
,  // measure 3
0000
0000
0000
0000
,  // measure 4
0000
0000
0000
0000
,  // measure 5
0000
0000
0000
0000
,  // measure 6
0000
0000
0000
0000
,  // measure 7
0000
0000
0000
0000
,  // measure 8
2100
0000
0010
0100
,  // measure 9
3001
0000
0010
0000
,  // measure 10
0201
0000
0010
0001
,  // measure 11
0310
0000
0100
0000
,  // measure 12
0120
0000
1000
0100
,  // measure 13
1030
0000
0010
0000
,  // measure 14
1002
0000
1000
0100
,  // measure 15
1003
0000
0010
0000
,  // measure 16
1001
0000
0100
0000
0020
0030
0100
0100
,  // measure 17
0001
1000
0010
0010
0100
0000
0001
0000
,  // measure 18
1001
0000
0010
0000
,  // measure 19
0100
0100
0000
0000
0011
0000
0000
0000
,  // measure 20
1000
0000
0100
0100
0002
0003
1000
1000
,  // measure 21
0010
0100
0001
0100
0001
0000
0010
0000
,  // measure 22
1010
0000
0000
0000
0100
0010
0100
0001
,  // measure 23
1000
0010
0100
0010
1000
0010
0100
0000
,  // measure 24
1001
1000
0010
0000
0100
0010
0100
0000
,  // measure 25
0001
0000
1000
0000
0001
0000
0000
0100
0000
0000
0100
0000
0010
0000
1000
0000
,  // measure 26
0001
0000
0100
0000
0001
1000
0010
0000
,  // measure 27
0010
0000
1000
0010
0100
0001
0100
0001
,  // measure 28
0100
0000
1000
0000
0010
0100
0001
0000
,  // measure 29
0010
0000
1000
0000
0100
0000
0000
1000
0000
0000
1000
0000
0001
0000
0000
0000
,  // measure 30
0101
0000
0020
0030
,  // measure 31
2000
3200
0320
0000
,  // measure 32
0031
0100
1000
0010
,  // measure 33
0001
0000
0100
0000
1000
0001
1000
0010
,  // measure 34
1000
0100
0001
0010
,  // measure 35
1000
0000
0100
0000
1000
0010
0100
0001
,  // measure 36
0100
0001
0100
0001
,  // measure 37
1000
0000
0010
0000
0100
0001
0100
0010
,  // measure 38
1000
0010
1000
0010
,  // measure 39
0100
0000
0001
0000
0001
1000
0010
0100
,  // measure 40
0010
0001
0100
1000
,  // measure 41
0010
0000
0001
0000
0100
0010
1000
0010
,  // measure 42
0100
0001
0100
1000
,  // measure 43
0020
0000
0000
0230
0000
0000
0320
0000
,  // measure 44
1030
0000
0001
0000
0100
0010
0100
0000
,  // measure 45
0001
0000
1000
0000
0001
0000
0000
0100
0000
0000
0100
0000
0010
0000
0000
0000
,  // measure 46
0100
0000
0010
0000
0100
0001
0100
0000
,  // measure 47
1001
0000
0000
0010
,  // measure 48
0110
0000
1000
0000
0010
0100
0001
0000
,  // measure 49
0100
0000
0010
0000
1000
0000
0000
0010
0000
0000
0010
0000
0100
0000
0000
0000
,  // measure 50
0001
0000
1000
0000
0100
0010
0100
0000
,  // measure 51
1001
0000
0000
1000
,  // measure 52
1001
0001
0100
0000
0010
0100
0001
0100
,  // measure 53
0000
0100
0010
0000
1000
0001
0100
0000
,  // measure 54
0010
0010
1000
0000
0100
0001
0010
0000
,  // measure 55
0100
0000
1000
0000
0010
0000
0000
0100
0000
0000
0100
0000
0001
0000
0000
0000
,  // measure 56
0010
0010
1000
0000
0100
0001
0010
0001
,  // measure 57
0000
1000
0010
0000
0100
0001
0010
0000
,  // measure 58
1000
0000
0010
0100
0000
0100
0010
0000
,  // measure 59
1001
0000
0000
0010
,  // measure 60
1010
0000
0100
0010
0100
0000
0010
0100
,  // measure 61
0010
1000
0100
1000
0010
0100
0001
1000
,  // measure 62
0001
0000
1000
0010
0000
0010
0000
0100
,  // measure 63
0000
0001
1000
0001
0100
0010
1000
0100
,  // measure 64
0020
0000
0000
0032
0000
0000
0023
0000
,  // measure 65
0000
0230
0000
0000
2300
0000
3200
0000
,  // measure 66
0320
0000
0000
0000
,  // measure 67
0032
0000
0000
0000
,  // measure 68
0203
0000
0000
0320
0000
0000
1000
0000
,  // measure 69
0230
0000
0000
0302
0000
0000
0100
0000
,  // measure 70
2003
0000
0000
3020
0000
0000
0100
0000
,  // measure 71
2030
0000
0000
3002
0000
0000
0100
0000
,  // measure 72
0203
0000
0000
0320
0000
0000
0100
0000
,  // measure 73
2030
0000
0000
3002
0000
0000
0100
0000
,  // measure 74
2003
0000
0000
3020
0000
0000
0100
0000
,  // measure 75
2030
0000
0000
3200
0000
0000
1000
0000
,  // measure 76
2300
0000
0000
3020
0000
0000
1000
0000
,  // measure 77
0230
0000
0000
0302
0000
0000
0100
0000
,  // measure 78
2003
0000
0000
3002
0000
0000
1000
0000
,  // measure 79
0203
0000
0000
2300
0000
0000
0010
0000
,  // measure 80
3020
0000
0000
0230
0000
0000
0010
0000
,  // measure 81
0302
0000
0000
0023
0000
0000
0001
0000
,  // measure 82
0230
0000
0000
2300
0000
0000
0010
0000
,  // measure 83
3002
0000
0000
0203
0000
0000
0001
0000
,  // measure 84
0302
0000
0000
0023
0000
0000
0230
0000
,  // measure 85
0000
0010
1000
0010
,  // measure 86
2300
0000
0000
3200
0000
0000
0320
0000
,  // measure 87
0000
0001
0100
0001
,  // measure 88
0230
0000
0000
0320
0000
0000
0032
0000
,  // measure 89
0000
1000
0100
0010
,  // measure 90
0203
0000
0000
0302
0000
0000
2003
0000
,  // measure 91
0000
3001
0001
0100
0010
1000
0100
0010
,  // measure 92
0001
0001
0100
0010
0000
1000
0010
0000
,  // measure 93
0100
0000
0001
0000
0100
0000
0000
0010
0000
0000
0001
0000
0100
0000
0010
0000
,  // measure 94
1000
0010
0100
0001
0000
1000
0010
0100
,  // measure 95
0002
0003
0020
0030
0200
0300
2000
3000
,  // measure 96
0100
0010
0100
0001
0000
0010
1000
0010
,  // measure 97
0000
0000
0100
0000
0001
0000
0000
0001
0000
0000
0001
0000
0000
0000
0010
0000
,  // measure 98
0100
0010
1000
0010
0000
0001
0001
0000
,  // measure 99
0110
0010
0010
1000
,  // measure 100
1001
0001
0100
0010
0000
1000
0001
1000
,  // measure 101
0000
0010
0100
0010
0000
1000
0001
0000
,  // measure 102
0010
0000
0110
0000
1000
0001
1000
0000
,  // measure 103
0010
0000
0100
0000
0010
0000
0000
0010
0000
0000
0010
0000
0100
0000
0000
0000
,  // measure 104
0001
0000
1001
0000
0010
0100
0001
0000
,  // measure 105
0100
0010
1000
0000
1001
0000
0000
0000
,  // measure 106
0010
0000
0110
0000
1000
0001
1000
0000
,  // measure 107
0100
0010
0100
0001
0001
0010
0100
0010
,  // measure 108
0002
0000
0000
2003
0000
0000
0100
0000
,  // measure 109
3020
0000
0000
0230
0000
0000
0010
0000
,  // measure 110
0302
0000
0000
2003
0000
0000
0010
0000
,  // measure 111
3200
0000
0000
0320
0000
0000
0100
0000
,  // measure 112
0230
0000
0000
2300
0000
0000
0100
0000
,  // measure 113
3020
0000
0000
0230
0000
0000
0010
0000
,  // measure 114
0302
0000
0000
0023
0000
0000
0100
0000
,  // measure 115
0032
0000
0000
0203
0000
0010
1000
0310
;

//---------------dance-single - ----------------
#NOTES:
     dance-single:
     :
     Easy:
     4:
     0.365716,0.446254,0.118908,0.559566,0.010492,366.000000,349.000000,17.000000,80.000000,0.000000,0.000000,0.365716,0.446254,0.118908,0.559566,0.010492,366.000000,349.000000,17.000000,80.000000,0.000000,0.000000:
1000
0010
0100
0000
,
0010
0100
0001
0000
,
0010
1000
0100
0000
,
0010
0100
0001
1000
,
0100
0010
0001
0000
,
0100
0010
0100
0000
,
1000
0001
1000
0000
,
0100
0010
0100
0001
,
2000
0000
0000
0000
,
3010
0000
0000
0000
,
0200
0000
0000
0000
,
0301
0000
0000
0000
,
0020
0000
0000
0000
,
0031
0000
0000
0000
,
2000
0000
0000
0000
,
3100
0000
0000
0000
,
0110
0000
1000
0100
,
0001
0100
0010
0000
,
1001
0000
0100
0000
,
0010
0000
0001
0000
,
0100
0010
1000
0010
,
0001
0100
0010
0000
,
1001
0000
0100
0010
,
0100
0001
1000
0000
,
0110
0010
1000
0100
,
0001
0010
1000
0001
,
0100
0010
0100
0001
,
1000
0010
0100
0001
,
0010
1000
0100
1000
,
0010
0100
0001
0010
,
1010
0000
0100
0000
,
0002
0203
0302
0000
,
0013
1000
0100
1000
,
0010
0100
0001
0100
,
0010
0100
1000
0100
,
0001
0010
0001
0100
,
0001
0010
1000
0100
,
0001
0010
1000
0100
,
1000
0010
0001
0100
,
1000
0010
0001
0100
,
1000
0100
0001
0100
,
1000
0100
0001
0100
,
1000
0010
0001
0010
,
1010
0000
0000
0100
,
0101
0001
1000
0001
,
0010
0000
0000
0000
0100
0000
0000
0001
0000
0000
0001
0000
0100
0000
0000
0000
,
0010
1000
0100
0010
,
0011
0000
0000
0001
,
1001
0100
0010
0100
,
0001
0000
0000
0000
0100
0000
0000
0100
0000
0000
0100
0000
0010
0000
0000
0000
,
1000
0001
0100
0010
,
1010
0000
0000
0100
,
0101
0001
1000
0010
,
0100
0010
0001
0100
,
0010
1000
0100
0010
,
0100
0000
0000
0000
0001
0000
0000
0001
0000
0000
0001
0000
0100
0000
0000
0000
,
0010
1000
0001
1000
,
0010
1000
0100
0010
,
0001
0100
0010
1000
,
0002
0000
0000
0000
,
0013
1000
0010
1000
,
0010
0100
0010
0001
,
0010
1000
0100
0010
,
0001
0100
0010
1000
,
0002
0000
0000
0023
0000
0000
0230
0000
,
0000
2300
0000
0000
3020
0000
0230
0000
,
0302
0000
0000
0000
,
0203
0000
0000
0000
,
0320
0000
0000
0032
0000
0000
0000
0000
,
2003
0000
0000
3020
0000
0000
0000
0000
,
0230
0000
0000
0302
0000
0000
0000
0000
,
2003
0000
0000
3020
0000
0000
0000
0000
,
0032
0000
0000
0023
0000
0000
0000
0000
,
2030
0000
0000
3200
0000
0000
0000
0000
,
0302
0000
0000
2003
0000
0000
0000
0000
,
3020
0000
0000
0230
0000
0000
0000
0000
,
0302
0000
0000
2003
0000
0000
0000
0000
,
3020
0000
0000
0230
0000
0000
0000
0000
,
0320
0000
0000
0032
0000
0000
0000
0000
,
2003
0000
0000
3200
0000
0000
0000
0000
,
0320
0000
0000
2030
0000
0000
0000
0000
,
3002
0000
0000
0203
0000
0000
0000
0000
,
0320
0000
0000
2030
0000
0000
0000
0000
,
3200
0000
0000
0320
0000
0000
0000
0000
,
0032
0000
0000
0023
0000
0000
0230
0000
,
0000
0010
0010
0001
,
0320
0000
0000
2030
0000
0000
3002
0000
,
0000
0010
1000
0010
,
0203
0000
0000
0320
0000
0000
2030
0000
,
0000
0010
0001
0010
,
3200
0000
0000
2300
0000
0000
3002
0000
,
0000
0000
0013
0000
,
1100
0100
0010
0001
,
1000
0001
0100
0001
,
0010
0100
0010
1000
,
0002
0003
0200
0300
0020
0030
2000
3000
,
0010
0100
0010
1000
,
0001
0010
1000
0100
,
0001
0010
0001
0100
,
0110
0001
0010
0001
,
0100
0010
1000
0001
,
0100
0010
1000
0010
,
0011
0001
0100
0001
,
1000
0010
0100
0001
,
1001
1000
0010
0100
,
0001
0010
0100
0000
,
0110
1000
0001
0100
,
0010
1000
0001
0010
,
1020
0000
0000
0230
0000
0000
0000
0000
,
0302
0000
0000
0023
0000
0000
0000
0000
,
0032
0000
0000
2003
0000
0000
0000
0000
,
3020
0000
0000
0230
0000
0000
0000
0000
,
0320
0000
0000
2030
0000
0000
0000
0000
,
3002
0000
0000
0203
0000
0000
0000
0000
,
0302
0000
0000
0023
0000
0000
0000
0000
,
2030
0000
0000
3020
0000
0000
0000
0000
,
0030
0000
0000
0000
;

//---------------dance-single - ----------------
#NOTES:
     dance-single:
     :
     Beginner:
     3:
     0.206839,0.405685,0.118908,0.384701,0.000000,207.000000,190.000000,17.000000,55.000000,0.000000,0.000000,0.206839,0.405685,0.118908,0.384701,0.000000,207.000000,190.000000,17.000000,55.000000,0.000000,0.000000:
1000
0000
0000
0000
,
0010
0000
0000
0000
,
0100
0000
0000
0000
,
0001
0000
0000
0000
,
0010
0000
0000
0000
,
0100
0000
0000
0000
,
1000
0000
0000
0000
,
0100
0000
0000
0000
,
0020
0000
0000
0000
,
0030
0000
0000
0000
,
0200
0000
0000
0000
,
0300
0000
0000
0000
,
0002
0000
0000
0000
,
0003
0000
0000
0000
,
0020
0000
0000
0000
,
0030
0000
0000
0000
,
2001
0000
0000
0000
,
3010
0000
0000
0000
,
0200
0000
0000
0000
,
0310
0000
0000
0000
,
0002
0000
0000
0000
,
1003
0000
0000
0000
,
0200
0000
0000
0000
,
0301
0000
0000
0000
,
1001
1000
0000
0010
,
0000
0100
0000
0010
,
0000
0001
0000
0100
,
0000
0010
0000
1000
,
0000
0100
0000
0010
,
0000
0001
0000
0100
,
0110
0000
0000
0000
,
2000
3020
0230
0000
,
0301
0000
1000
0000
,
0010
0000
0100
0000
,
0001
0000
0010
0000
,
0001
0000
0100
0000
,
0010
0000
1000
0000
,
0010
0000
0100
0000
,
0001
0000
1000
0000
,
0010
0000
0100
0000
,
0001
0000
1000
0000
,
0010
0000
0100
0000
,
0001
0000
0010
0000
,
1010
0000
0000
0000
,
1001
1000
0000
0100
,
0000
0010
0000
0001
,
0000
0100
0000
0010
,
0110
0000
0000
0000
,
1001
0001
0000
0100
,
0000
0010
0000
1000
,
0000
0001
0000
0100
,
0110
0000
0000
0000
,
1010
0010
0000
0100
,
0000
0001
0000
0010
,
0000
1000
0000
0100
,
0000
0010
0000
0001
,
0000
0100
0000
0010
,
0000
1000
0000
0010
,
0000
0100
0000
0010
,
1010
0000
0000
0000
,
0011
0001
1000
0001
,
1000
0001
0100
0010
,
0200
0000
0000
0000
,
0320
0000
0000
0000
,
1030
0000
0000
0100
0000
0000
0010
0000
,
0000
0001
0000
0000
0100
0000
0010
0000
,
2010
0000
0000
0000
,
3200
0000
0000
0000
,
0320
0000
0000
0000
,
0032
0000
0000
0000
,
0203
0000
0000
0000
,
0320
0000
0000
0000
,
2030
0000
0000
0000
,
3200
0000
0000
0000
,
0302
0000
0000
0000
,
0023
0000
0000
0000
,
2030
0000
0000
0000
,
3002
0000
0000
0000
,
0203
0000
0000
0000
,
0320
0000
0000
0000
,
0230
0000
0000
0000
,
0302
0000
0000
0000
,
2003
0000
0000
0000
,
3020
0000
0000
0000
,
0032
0000
0000
0203
0000
0000
0320
0000
,
0000
0000
0000
0000
,
2030
0000
0000
3002
0000
0000
0203
0000
,
0000
0000
0000
0000
,
0320
0000
0000
2030
0000
0000
3002
0000
,
0000
0000
0000
0000
,
0203
0000
0000
0320
0000
0000
2030
0000
,
0000
0000
3001
0000
,
0110
0010
0000
1000
,
0000
0100
0000
0010
,
0001
0100
0000
1000
,
0020
0030
0200
0300
0002
0003
0020
0030
,
0011
0001
0000
0100
,
0000
0010
0000
0100
,
1000
0100
0000
0010
,
0011
0000
0000
0000
,
0110
0100
0000
1000
,
0000
0010
0000
0100
,
0010
0100
0000
0001
,
0000
1000
0000
0010
,
0100
0010
0000
1000
,
0000
0001
0000
0000
,
0110
0010
1000
0010
,
0100
0001
0010
1000
,
0200
0000
0000
0000
,
0320
0000
0000
0000
,
0032
0000
0000
0000
,
2003
0000
0000
0000
,
3020
0000
0000
0000
,
0230
0000
0000
0000
,
0302
0000
0000
0000
,
0203
0000
0000
0000
,
0300
0000
0000
0000
;
