#TITLE:-Caliburne;
#SUBTITLE:~Story of The Legendary sword~;
#ARTIST:Project Grimoire;
#TITLETRANSLIT:;
#SUBTITLETRANSLIT:;
#ARTISTTRANSLIT:;
#GENRE:;
#CREDIT:;
#BANNER:AV.avi;
#BACKGROUND:BG.png;
#LYRICSPATH:;
#CDTITLE:;
#MUSIC:Caliburne.mp3;
#OFFSET:0.000000;
#SAMPLESTART:112.099998;
#SAMPLELENGTH:15.000000;
#SELECTABLE:YES;
#DISPLAYBPM:*;
#BPMS:0.000000=95.019997
,19.000000=190.039993
,79.000000=95.019997
,103.000000=190.039993
,247.000000=95.019997
,259.000000=190.039993
,298.000000=380.079987
,302.000000=38.009998
,302.125000=342.067993
,303.000000=190.039993
,357.000000=95.019997
,364.750000=85.000000
,365.333344=81.000000
,365.916656=74.000000
,366.333344=65.000000
,367.583344=55.000000
;
#STOPS:
;
#BGCHANGES:0.000=MV.avi=1.000=1=1=1=StretchRewind==CrossFade==,
99999=-nosongbg-=1.000=0=0=0 // don't automatically add -songbackground-
;
#KEYSOUNDS:;
#ATTACKS:;

//---------------dance-single - ----------------
#NOTES:
     dance-single:
     :
     Challenge:
     20:
     1.210637,1.766148,1.665255,1.185436,1.090178,1201.000000,951.000000,236.000000,168.000000,0.000000,129.000000,1.210637,1.766148,1.665255,1.185436,1.090178,1201.000000,951.000000,236.000000,168.000000,0.000000,129.000000:
0000
0000
2000
0000
3200
0000
0010
0002
0323
0000
2030
0000
0001
0000
3200
0320
,
0032
0000
0013
0200
2300
0000
3002
0000
0100
0000
0023
0230
2300
0000
0001
3000
,
0020
0000
0032
0000
1000
0003
0020
0000
0230
0000
1000
0000
0000
0010
0010
0000
,
0010
0000
0320
0000
0032
0000
0013
0200
2300
0000
3200
0000
0001
0000
0320
0032
,
2003
0000
3200
0020
0032
0000
0023
0000
1030
0000
0301
0010
1100
0000
0010
0000
,
0001
0100
0010
0100
1001
0010
0100
1000
,
0100
0000
0010
0000
1001
0010
0100
1000
0001
0010
0100
1000
0001
0010
0100
1000
,
0012
0000
0000
0000
1000
0000
0000
0000
0013
0100
0010
0100
0010
0000
0100
0000
,
0001
0000
0100
0000
1010
0000
0001
0010
0200
0000
0001
0000
1000
0000
0301
0010
,
1100
0000
0010
0000
1000
0000
0100
0000
0010
0000
0001
0000
1010
0001
0100
0000
,
1000
0000
0010
0000
0100
0000
0001
1000
0110
0000
0001
0000
1000
0000
0100
0000
,
0010
0000
0001
0000
1100
0000
0010
0100
0002
0000
0010
0000
1000
0000
0013
0100
,
0011
0000
1000
0000
0100
0000
0010
0100
0001
0000
0010
0000
1100
0000
0010
0100
,
0001
0010
0100
1000
0001
0010
0100
1000
0010
0100
0010
0100
0011
0000
1000
0000
,
0101
0000
0010
0000
1100
0000
0010
0000
1002
0000
0000
0000
0100
0010
0103
0000
,
1001
0100
0021
0000
1000
0130
0011
1000
,
0101
0000
0010
0000
1100
0000
0001
0010
1100
0000
0010
0000
1001
0000
0100
0000
,
0010
0001
0100
0010
1100
0001
0100
0010
,
1000
0001
1100
0010
1001
0100
1001
0010
,
1001
0100
0010
0001
1000
0100
0010
0001
1000
0100
0010
0001
2100
0000
0010
0000
,
0001
0000
0010
0000
0100
0000
3021
0000
1230
0000
0010
0000
0001
1000
0312
0000
,
1000
0010
0100
1000
0123
0000
0001
0000
1000
0000
0001
0000
0100
0030
1002
0000
,
2013
0000
0010
0000
0100
0010
3201
0010
0001
0000
1000
0000
0321
0000
1000
0000
,
0001
0000
1000
0000
0100
0000
1031
0000
0210
0000
0001
0000
1000
0001
2310
0000
,
0001
0000
0010
0000
0100
0000
0010
0000
3201
0000
0000
0000
0010
0000
0000
0000
1000
0000
0000
0000
0312
0000
0000
0000
0010
0000
1000
0100
1023
0000
0100
0000
,
2032
3200
2300
0000
0100
0000
0010
0000
0010
0000
0100
0000
3113
0001
0010
0100
,
1000
0010
0100
0001
0010
0100
1000
0100
0010
0001
0100
0010
1000
0001
0010
0100
,
1000
0001
0010
0100
1000
0100
0010
0001
0100
0010
1000
0100
0001
0010
0100
1000
,
0010
0001
1000
0100
0010
0001
0100
0010
1000
0001
0010
0100
1000
0010
0100
0001
,
0010
1000
0100
0010
0001
0100
0010
1000
0001
0010
0100
1000
0010
0001
0100
0010
,
1000
0100
0010
0001
0010
0100
1000
0001
0010
0100
1000
0001
0010
0100
1000
0100
,
0010
0001
1000
0100
0010
0001
1000
0100
0011
0000
1100
0000
0011
0100
1000
0001
,
0010
0100
1000
0010
0100
0001
0010
0100
1000
0010
0100
0001
0010
1000
0100
0010
,
0001
0100
1000
0010
0100
1000
0001
0010
1000
0100
0010
0001
0100
0010
1000
0100
,
0010
0100
0001
0010
0100
1000
0100
0010
0001
0100
0010
1000
0101
0000
0010
0000
,
1001
0100
1010
0100
0011
1000
0101
0010
,
1100
0000
0010
0000
1001
0010
0100
0010
1001
0100
0010
0100
1001
0010
0100
0010
,
1001
0100
0010
0100
1001
0010
0100
0010
1001
0010
0100
1000
0021
0000
0001
0000
,
0000
0231
2300
0000
3021
0000
0001
0000
,
1230
0312
1203
1000
0000
0312
0203
0000
,
2310
0000
0000
0000
0010
0000
0000
0000
3102
0000
0123
0000
1031
0010
0100
1000
,
0001
0010
0100
1000
0010
0001
0010
1000
0100
0010
0001
0100
0010
1000
0100
0001
,
0010
1000
0100
0010
0001
0010
0100
1000
0010
0100
0001
0010
0100
1000
0001
0010
,
0001
1000
0100
0010
0001
0100
0010
0100
2001
0000
0000
0000
3021
0000
0001
0000
,
0000
1230
1320
0000
0132
0000
1023
0000
,
0231
0010
2301
0001
0000
0001
3201
0320
,
1032
0000
0000
0000
1000
0000
0000
0000
1023
0000
1230
0000
1301
0010
0100
1000
,
0011
0100
1000
0100
0011
1000
0100
0010
1001
0100
0010
0100
1001
0010
0100
1000
,
0011
1000
0100
0010
1001
0000
0010
0000
1000
0000
0010
0000
1000
0000
0010
0000
,
1001
0010
0100
1000
0001
0010
0100
1000
0001
0010
0100
1000
0012
0000
0000
0000
,
0000
1023
0230
2300
3201
0000
0321
0000
,
0032
0100
2103
0000
0000
3120
0032
0023
,
1230
0000
1000
0000
2300
3021
0132
0000
,
0203
1000
0320
0000
2031
0000
0000
3210
,
0302
0000
1023
0000
0000
0001
0000
0000
,
1200
0000
0000
0001
0332
2003
3012
0000
,
2003
0010
3200
0000
0321
0000
1230
0000
,
0302
1000
1023
0000
0000
0231
2300
0000
,
3012
0000
0010
0003
0200
0320
1031
0100
,
1001
0100
1011
0100
1010
0001
1010
0001
,
1110
0001
0011
1100
0011
1100
0011
1100
,
0011
1000
0100
0010
0001
1000
0100
0010
0001
1000
0100
0010
2001
0000
0000
3020
,
0230
0000
0000
0000
0302
0000
0000
0000
0000
0000
0000
0000
1023
0000
1230
0000
2301
0000
0000
0000
0000
0000
3020
0230
0302
0000
0023
0000
0230
0000
0000
0000
,
0000
0000
2301
3201
0321
0000
0000
1032
1203
0000
2301
0000
3020
0001
0231
0000
,
1302
0000
0023
1000
1230
0000
2310
0000
3201
0000
1320
1000
1031
0100
0010
0001
,
1000
0100
0010
0100
0001
0010
0100
1000
0010
0100
0001
1000
0100
0010
0001
0100
,
0010
1000
0001
0010
0100
1000
0010
0100
0001
1000
0100
0010
0001
0100
0010
1000
,
0001
0010
0100
1000
0010
0100
0001
1000
0100
0010
0001
0010
1001
0100
0010
0001
,
1000
0100
0010
0001
1000
0100
0010
0100
1001
0010
0100
1000
0001
0010
0100
1000
,
0001
0010
0100
1000
0211
0000
0000
0000
0011
0000
0000
0000
0011
0000
0000
0000
,
2311
0000
0011
0000
0011
0000
3211
0011
,
0011
0011
0011
0011
2311
0011
0011
0011
,
0011
0011
3211
0011
0011
0011
0011
0011
,
2311
0000
0011
0000
0011
0000
0011
0000
0011
0000
0011
0000
3011
1100
0011
1100
,
0011
1100
0011
1100
0011
1100
0011
1100
0021
0000
0000
0000
0000
0000
0000
0000
,
0000
0000
0000
0000
0000
0000
0000
0000
0032
0000
0000
0000
1013
0100
0010
0001
,
0100
0010
1000
0100
0001
0010
0100
1000
0001
0010
0100
1000
0100
0010
0001
0010
,
0100
1000
0100
0010
0001
1000
0100
0010
0001
0100
0010
1000
0100
0001
0010
0100
,
0001
0010
0100
1000
0010
0100
0001
0010
1000
0100
0010
0001
1000
0001
0100
0010
,
1000
0001
0100
0010
1000
0100
0010
0001
0100
0010
1000
0100
0001
0010
0100
1000
,
0100
0001
0010
0100
1000
0100
0010
0001
1000
0100
0010
0100
0001
0010
0100
1000
,
0111
0111
2100
3121
,
2030
3200
0302
0100
1123
0000
0001
0000
,
2031
0001
3200
0001
1321
0000
1032
0100
,
1123
0000
0000
0000
0231
0000
0000
0000
2310
0000
3002
0000
1013
0100
0010
0001
,
1100
0001
0010
0100
1001
0100
0010
0001
1100
0001
0010
0100
1001
0100
0010
0001
,
1100
0001
0010
0100
0011
0000
1100
0000
0011
0000
1100
0000
0011
0000
1100
0000
,
0011
0000
1100
0000
0011
0000
1100
0000
0011
0000
1100
0000
0011
1100
0011
1100
,
0011
1100
0011
1100
0011
1100
0011
1100
0011
1100
0011
1100
0011
1100
0011
1100
,
0012
0203
2320
0000
0000
0000
0000
0000
,
3000
0000
0000
0000
0000
0000
0000
0000
0000
0000
0000
0000
0000
0000
0000
0000
0000
0000
0000
0000
0000
0000
0000
0000
0000
0000
0000
0000
0000
0000
0000
0000
0000
0000
0000
0000
0000
0000
0000
0000
0000
0000
0000
0000
0000
0000
0000
0000
0100
0000
0000
0000
0000
0000
0000
0000
0000
0000
0000
0000
0031
0000
0000
0000
0000
0000
0000
0000
0000
0000
0000
0000
0100
0000
0000
0000
0000
0000
0000
0000
0000
0000
0000
0000
0000
0000
0000
0000
0000
0000
0000
0000
0000
0000
0000
0000
0010
0000
0000
0000
0000
0000
0000
0000
0000
0000
0000
0000
0100
0000
0000
0000
0000
0000
0000
0000
0000
0000
0000
0000
0010
0000
0000
0000
0000
0000
0000
0000
0000
0000
0000
0000
0000
0000
0000
0000
0000
0000
0000
0000
0000
0000
0000
0000
0000
0000
0000
0000
1000
0000
0000
0000
0000
0000
0000
0000
0000
0000
0000
0000
0000
0000
0000
0000
0000
0000
0000
0000
0000
0000
0000
0000
0000
0000
0100
0000
0000
0000
0000
0000
0000
0000
0000
0000
0000
0000
0000
0000
0000
0000
0000
0000
,
0000
0000
0010
0000
0000
0000
0000
0000
0000
2000
0000
0000
0000
0000
0000
0000
0010
0000
0000
0000
0000
0000
0100
0000
0000
0000
0000
0000
0001
0000
0000
0000
0000
0000
0010
0000
0000
0000
0000
0000
0100
0000
0000
0001
0000
0000
0000
0001
,
0010
0200
0000
0000
0000
0000
0000
0000
0000
0000
0000
0000
0000
0000
0000
0000
0000
0000
0000
0000
0000
0000
0000
0000
0000
0000
0000
0000
0000
0000
0000
0000
0000
0000
0000
0000
0000
0000
0000
0000
0000
0000
0000
0000
0000
3300
0000
0000
0000
0000
0000
0000
0000
0000
0000
0000
0000
0000
0000
0000
0000
0000
0000
0000
;

//---------------dance-single - ----------------
#NOTES:
     dance-single:
     :
     Hard:
     20:
     0.819523,1.079494,0.239910,0.437482,0.620943,813.000000,779.000000,34.000000,62.000000,0.000000,0.000000,0.819523,1.079494,0.239910,0.437482,0.620943,813.000000,779.000000,34.000000,62.000000,0.000000,0.000000:
// measure 0
0000
0000
0000
0000
,  // measure 1
0000
0000
0000
0000
,  // measure 2
0000
0000
0000
0000
,  // measure 3
0000
0000
0000
0000
,  // measure 4
0000
0000
0000
0000
0000
0000
0001
1000
,  // measure 5
0001
1000
0001
1000
0010
0100
0010
0100
,  // measure 6
0010
0100
0010
1000
0010
1000
0010
1000
,  // measure 7
1010
0000
0110
0000
0102
0000
1003
0010
,  // measure 8
0100
0000
0001
0000
1000
0000
0001
0100
0001
0000
0100
0000
0010
0000
1000
0001
,  // measure 9
1000
0000
0010
0000
0100
0000
0010
0000
0010
0000
0100
0000
0010
0000
0100
0010
,  // measure 10
1000
0000
0010
0000
0100
0000
0001
1000
0010
0000
0001
0000
1000
0000
0100
0000
,  // measure 11
0010
0000
1000
0000
0001
0000
0100
0010
0100
0000
0001
0000
1000
0000
0010
0100
,  // measure 12
0010
0000
1000
0000
0010
0000
1000
0001
1000
0000
0010
0000
0100
0000
0010
1000
,  // measure 13
0010
1000
0001
0100
0001
0100
0010
1000
0010
0100
0001
0100
0010
0000
0000
0000
,  // measure 14
0100
0010
0100
0010
0002
0000
0100
0000
,  // measure 15
1003
0010
0200
0000
0301
1000
0001
1000
,  // measure 16
0010
0000
1000
0000
0100
0000
0010
0001
0010
0000
0001
0000
0101
0000
0100
0000
,  // measure 17
0010
1000
0010
1000
1002
0000
0013
1000
,  // measure 18
0010
1000
1001
0100
0010
0100
0010
0100
,  // measure 19
0010
0100
0010
0100
0010
0100
0010
0100
0010
0100
0010
0100
0020
0000
1000
0000
,  // measure 20
0001
0000
1000
0000
0100
0000
0130
0000
0002
0000
0010
0000
1000
0010
2003
0000
,  // measure 21
0001
0000
0010
0100
3020
0000
0100
0000
0001
0000
1000
0000
0001
0000
0130
0000
,  // measure 22
0002
1000
0010
2003
0100
0001
3020
0100
,  // measure 23
0001
0000
1000
0000
0001
0000
0130
0000
0002
0000
1000
0000
0010
1000
0023
0000
,  // measure 24
1000
0000
0100
0001
0230
0000
0001
0000
0010
0000
0320
0000
1000
0000
0031
0000
,  // measure 25
0010
1000
0002
0000
0010
0000
1000
0000
0010
0000
1000
0000
0103
0000
0010
0000
,  // measure 26
1000
0000
0010
0000
0100
0000
0001
0000
0010
0000
0001
0000
1000
0000
0010
0100
,  // measure 27
0010
1000
0001
1000
0010
0100
0001
1000
,  // measure 28
0001
0100
0001
0000
0010
0000
1000
0001
1000
0001
1000
0000
0010
0000
0100
0000
,  // measure 29
0010
0000
1000
0000
0100
0000
0010
0000
0001
0000
0100
0000
1000
0000
0010
0100
,  // measure 30
0010
1000
0010
0100
0001
0100
0010
1000
,  // measure 31
0010
0000
0100
0000
0001
1000
0001
1000
0010
0000
0001
0000
0110
0000
0100
0000
,  // measure 32
0001
0000
1000
0000
0010
0000
0100
0000
0001
0000
0010
0000
0001
0000
1000
0010
,  // measure 33
0100
0100
0001
0100
0010
1000
0010
0100
,  // measure 34
0001
0100
0010
0000
0100
0000
1000
0001
1000
0001
1000
0001
1000
0000
0001
0000
,  // measure 35
1000
0001
1000
0001
1000
0010
1000
0010
,  // measure 36
1000
0000
0010
0000
0100
0010
0100
0010
0100
0010
0100
0010
0100
0010
0100
0010
,  // measure 37
0100
0010
0100
0010
0100
0010
0100
0010
0100
0010
0100
0010
0200
0000
0000
0000
,  // measure 38
0000
0301
1000
0000
1010
0000
1010
0000
,  // measure 39
0100
0001
0020
0000
0000
0031
0100
0000
,  // measure 40
1001
0000
1001
0000
0010
0100
1000
0001
,  // measure 41
0100
0000
0010
0000
1000
0000
0010
0100
0010
0000
1000
0000
0001
0000
0100
0010
,  // measure 42
0100
0001
1000
0010
0100
0010
1000
0100
,  // measure 43
0010
0001
0010
0100
1000
0010
0200
0000
,  // measure 44
0000
0310
1000
0000
1001
0000
1001
0000
,  // measure 45
0010
0100
0002
0000
0000
0103
0010
0100
,  // measure 46
0101
0000
0101
0000
0010
1000
0010
0100
,  // measure 47
0010
0100
0010
0100
0010
1000
0010
1000
,  // measure 48
0010
1000
0001
0100
0001
0100
0001
0100
,  // measure 49
0001
1000
0001
1000
0001
1000
0001
1000
0001
1000
0001
1000
0002
0000
0000
0000
,  // measure 50
0000
0000
0013
0000
0100
0000
0010
0000
2000
0000
0000
0000
3200
0000
0000
0300
,  // measure 51
0020
0001
0032
0000
0000
0103
1000
0010
,  // measure 52
0200
0000
0010
0000
0301
1000
0002
0000
,  // measure 53
0023
0100
0230
0000
2300
0000
3000
0010
,  // measure 54
0200
0000
0302
0000
0000
0010
1000
0000
,  // measure 55
0010
0000
0100
0000
1003
0100
0020
0000
,  // measure 56
0032
0010
0023
0000
0230
0000
2300
0000
,  // measure 57
3200
0010
0320
0000
0000
0031
1000
0000
,  // measure 58
0200
0000
0010
0300
0001
0100
0010
1000
,  // measure 59
0010
1000
1010
0010
1000
0001
1000
0001
,  // measure 60
1001
0001
0100
0001
0100
0001
0100
0001
,  // measure 61
0100
0001
0100
0001
0100
0001
0100
0001
0100
0001
0100
0001
0200
0000
0000
0310
,  // measure 62
2000
0000
3002
0000
0000
0000
0103
0010
0020
0000
0000
1030
0100
0010
0002
0000
,  // measure 63
0000
0000
0103
1000
2000
0000
0000
3010
0020
0000
0230
0000
0320
1000
2030
0000
,  // measure 64
3002
0000
0203
0001
0302
0000
0023
0000
0032
0000
0203
0010
0310
1000
0010
0100
,  // measure 65
0001
0100
0001
0100
0010
1000
0010
0100
0001
1000
0010
1000
0001
1000
0010
1000
,  // measure 66
0001
1000
0001
0100
0001
1000
0010
0100
0001
1000
0010
0100
0010
0100
0001
0100
,  // measure 67
0010
1000
0001
1000
0010
1000
0001
1000
0010
0000
1000
0000
1001
0000
0001
0000
,  // measure 68
0100
0010
1010
1000
1001
0001
0100
0010
,  // measure 69
1001
0100
1001
0000
1001
0000
1001
0000
,  // measure 70
0101
0000
0101
0000
0101
0000
0010
1000
,  // measure 71
0010
1000
0010
1000
0001
1000
0001
1000
,  // measure 72
0001
1000
0010
1000
0010
1000
0010
1000
,  // measure 73
0001
0000
0100
0000
0001
0000
0100
0000
0001
0000
0100
0000
0001
1000
0001
1000
,  // measure 74
0001
1000
0001
1000
0001
1000
0001
1000
0002
0000
0000
0000
0000
0000
0000
0000
,  // measure 75
0000
0000
0000
0000
0000
0000
0000
0000
0203
0000
0000
0000
0310
1000
0010
0100
,  // measure 76
0001
0100
0001
1000
0010
1000
0001
0100
0010
0100
0001
0100
0010
0100
0001
0100
,  // measure 77
0010
0100
0001
1000
0001
0100
0010
1000
0010
1000
0001
0100
0010
1000
0001
0100
,  // measure 78
0001
1000
0010
1000
0001
1000
0010
1000
0001
0100
0010
1000
0010
0100
0010
0100
,  // measure 79
0001
0100
0010
1000
0001
0010
0100
1000
0100
1000
0001
1000
0010
0100
0001
0100
,  // measure 80
0010
1000
0010
0100
0001
0100
0010
1000
0001
0010
0100
1000
0100
1000
0001
0000
,  // measure 81
0101
0000
0101
0000
2000
0000
3010
0100
,  // measure 82
0001
0010
0001
0100
1010
0100
0010
1000
,  // measure 83
0101
0001
0100
0010
1010
0000
1000
0010
,  // measure 84
0110
0000
0000
0000
0010
0000
0000
0000
1000
0000
0001
0000
1000
0010
0100
0010
,  // measure 85
1000
0010
0100
0010
1000
0010
0100
0010
0100
0001
1000
0001
0100
0001
1000
0001
,  // measure 86
0100
0001
1000
0001
0100
0000
0010
0000
0100
0000
0010
0000
0100
0000
0001
0000
,  // measure 87
0101
0000
0100
0000
0010
0000
1000
0000
0010
0000
1000
0000
0001
1000
0001
1000
,  // measure 88
0001
1000
0001
1000
0001
1000
0001
1000
0001
1000
0001
1000
0001
1000
0001
1000
,  // measure 89
0001
0010
0200
0000
0000
0000
0000
0000
,  // measure 90
0300
0000
0000
0000
0000
0000
0000
0000
0000
0000
0000
0000
0000
0000
0000
0000
0000
0000
0000
0000
0000
0000
0000
0000
0000
0000
0000
0000
0000
0000
0000
0000
0000
0000
0000
0000
0000
0000
0000
0000
0000
0000
0000
0000
0000
0000
0000
0000
0010
0000
0000
0000
0000
0000
0000
0000
0000
0000
0000
0000
1000
0000
0000
0000
0000
0000
0000
0000
0000
0000
0000
0000
0001
0000
0000
0000
0000
0000
0000
0000
0000
0000
0000
0000
0000
0000
0000
0000
0000
0000
0000
0000
0000
0000
0000
0000
0100
0000
0000
0000
0000
0000
0000
0000
0000
0000
0000
0000
0010
0000
0000
0000
0000
0000
0000
0000
0000
0000
0000
0000
0100
0000
0000
0000
0000
0000
0000
0000
0000
0000
0000
0000
0000
0000
0000
0000
0000
0000
0000
0000
0000
0000
0000
0000
0000
0000
0000
0000
0010
0000
0000
0000
0000
0000
0000
0000
0000
0000
0000
0000
0000
0000
0000
0000
0000
0000
0000
0000
0000
0000
0000
0000
0000
0000
0100
0000
0000
0000
0000
0000
0000
0000
0000
0000
0000
0000
0000
0000
0000
0000
0000
0000
,  // measure 91
0000
0000
0000
0000
0000
0000
0000
0000
0001
0000
0000
0000
0000
0000
0000
0000
0000
0000
0000
0000
0000
0000
0000
0000
0000
0000
0000
0000
0000
0000
0000
0000
0000
0000
0000
0000
0020
0000
0000
0000
0000
0000
0000
0000
0000
0000
0000
0000
0000
0000
0000
0000
0000
0000
0000
0000
0000
0000
0000
0000
0000
0000
0000
0000
0100
0000
0000
0000
0000
0000
0000
0000
0000
0000
0000
0000
0000
0000
0000
0000
0000
0000
0000
0000
0000
0000
0000
0000
1000
0000
0000
0000
0000
0000
0000
0000
0000
0000
0000
0000
0000
0000
0000
0000
0000
0000
0000
0000
0000
0000
0000
0000
0000
0000
0100
0000
0000
0000
0000
0000
0000
0000
0000
0000
0000
0000
0000
0000
0000
0000
0000
0000
0000
0000
0000
0001
0000
0000
0000
0000
0000
0000
0000
0000
0000
0000
0000
0000
0000
0000
0000
0000
0000
0000
0000
0000
0000
0000
0000
0100
0000
0000
0000
0000
0000
0000
0000
0000
0000
0000
0000
1000
0000
0000
0000
0000
0000
0000
0000
0000
0000
0000
0000
0000
0000
0000
0000
0000
0000
0000
0000
0000
,  // measure 92
0200
0000
0000
0000
0000
0000
0000
0000
0000
0000
0000
0000
0000
0000
0000
0000
0000
0000
0000
0000
0000
0000
0000
0330
0000
0000
0000
0000
0000
0000
0000
0000
;

//---------------dance-single - ----------------
#NOTES:
     dance-single:
     :
     Medium:
     14:
     0.463691,0.621527,0.289303,0.486876,0.035281,460.000000,419.000000,41.000000,69.000000,0.000000,0.000000,0.463691,0.621527,0.289303,0.486876,0.035281,460.000000,419.000000,41.000000,69.000000,0.000000,0.000000:
0000
0000
0200
0000
0000
0320
0000
0000
,
2030
0000
0000
3002
0000
0000
0203
0000
,
0000
0320
0000
0000
2030
0000
0000
0000
,
0000
0000
3200
0000
0000
0320
0000
0000
,
0032
0000
0000
0203
0000
0000
0310
1000
,
0010
1000
0010
1000
0010
0100
0010
0100
,
0010
0100
0002
0000
0000
0000
0000
0000
,
0203
0000
0000
0000
0000
0000
1300
0010
,
0100
0000
0001
0010
0100
0000
0010
0000
,
1000
0001
0100
0000
0010
0000
0001
1000
,
0010
0000
0100
0000
0010
1000
0001
0000
,
0100
0000
0010
0100
0010
0000
0001
0000
,
0010
1000
0100
0000
1000
0000
0010
0001
,
0100
0000
1000
0001
1000
0000
1001
0000
,
0010
0000
0100
0010
1000
0000
0010
1000
,
0100
0010
0001
0000
1000
0010
1000
0001
,
0100
0001
0100
0010
1000
0000
0110
0000
,
0001
0100
1001
0010
,
0100
0000
1000
0001
1000
0001
1000
0010
,
0100
0010
0100
0010
0200
0000
0302
0000
,
0000
0100
0000
1003
0200
0000
0000
0302
,
0000
0000
0203
0000
0000
0010
0000
0301
,
2000
0000
0000
3020
0000
0000
0230
0000
,
0000
0001
0000
1300
0002
0000
0000
0203
,
0000
0000
0320
0000
0000
2030
0000
3001
,
0100
0020
0000
1000
0000
0000
1030
0000
,
0100
0010
0001
0100
,
0010
1000
0001
0100
,
0010
1000
0001
0100
,
1000
0010
0100
0001
,
0010
0100
0010
1000
,
0001
0000
0100
0000
0010
0100
0010
0000
,
1000
0001
0100
0010
,
1000
0001
0100
1000
,
0010
0100
0001
1010
,
0001
0100
0110
0010
,
1000
0000
0001
1000
0001
1000
0001
1000
,
0001
1000
0001
1000
0001
0000
1001
0000
,
0000
0110
0000
0000
0102
0000
0103
0000
,
0000
0000
1010
0000
0000
0101
0000
0000
,
1020
0000
0130
0000
0100
0001
0100
0000
,
0010
1001
0010
0100
,
1001
0100
0001
0101
,
0010
1000
1010
0110
,
0000
1001
0000
0000
0120
0000
0130
0000
,
0000
0000
1001
0000
0000
0110
0000
0000
,
0102
0000
0103
0000
0010
1000
1010
0000
,
1010
1010
0101
0101
,
0101
0002
0100
0100
,
2003
0100
0100
3002
,
0000
0103
0010
1000
0010
0000
0100
0000
,
0001
0100
0200
0000
0000
0310
1000
0010
,
0100
0000
0100
0000
0010
1000
0001
0000
,
0100
0001
0100
0000
2000
0000
0000
3010
,
0100
0000
0200
0000
0000
0001
0000
0000
,
0010
0000
0000
0001
0310
0100
0010
0000
,
0100
0010
1000
0000
0001
0000
0100
0000
,
0002
0100
0203
0000
0000
0310
2000
0000
,
3020
0000
0100
0030
0100
0001
0200
0000
,
0000
0010
1300
0010
0020
0000
0030
0100
,
0001
1000
0020
0000
0100
0000
1000
0000
,
0100
0000
0000
0000
0001
0000
0000
0000
1000
0000
0000
0000
0031
0000
0000
0100
,
0010
0000
1000
0000
0000
0000
0010
0100
0001
0000
0000
1000
0100
0010
0100
0000
,
0000
0000
0001
0100
0010
0000
1000
0000
0100
0000
0010
0000
0001
0000
0010
0000
,
0100
0010
1000
0001
0100
0010
2000
0000
,
3100
0010
0001
0100
,
0010
1000
0010
0000
0100
0000
0001
0000
,
0100
0010
1000
1001
,
0010
0100
1100
0010
,
0100
0101
0010
0100
,
1001
0010
0100
0011
,
0010
0100
1001
0010
,
0100
1100
0010
0001
,
1001
0010
0100
0102
,
1000
0100
1003
0000
,
0000
0000
0020
0230
,
0000
0310
2000
0000
3002
0000
0100
0000
,
0103
0010
2000
0000
0010
3001
0100
0010
,
2000
0000
0010
0000
3010
0100
0002
0000
,
0100
0203
0320
2030
,
3200
0320
0100
0130
,
0002
1000
1003
0102
,
0103
0010
0100
0000
2010
0000
0010
3000
,
0010
1000
0002
0100
0103
0000
2000
0010
,
3001
0000
0100
0000
0001
1000
1020
0000
,
0100
1030
0102
1000
,
0103
0000
1000
0001
1000
0001
1000
0001
,
0100
0001
0100
0001
0100
0001
1002
0000
,
0100
0010
1000
0010
,
0100
0010
2003
0000
0000
0000
0000
0000
,
3000
0000
0000
0000
0000
0000
0000
0000
0010
0000
0100
0000
0002
0000
0000
0000
0000
0000
1003
0000
0010
0000
0000
0000
0100
0000
0000
0000
0000
0001
0000
0000
,
0000
0000
0000
1000
0000
0000
0000
0000
0000
0000
0000
0000
0020
0000
0000
0000
0000
0000
0000
0000
0000
0000
0000
0000
0000
0000
0000
0000
0000
0000
0000
0000
0000
0000
0000
0000
0000
0000
0000
0000
0000
0000
0000
0000
0000
0000
0000
0000
0000
0000
0000
0000
0000
0000
0000
0000
0000
0000
0000
0000
0000
0000
0000
0000
,
0230
0000
0000
0000
0000
0000
0000
0000
0000
0000
0000
0000
0000
0000
0000
0000
0000
0000
0000
0000
0000
0000
0000
0300
0000
0000
0000
0000
0000
0000
0000
0000
;

//---------------dance-single - ----------------
#NOTES:
     dance-single:
     :
     Easy:
     8:
     0.247974,0.327119,0.035281,0.423370,0.003528,246.000000,241.000000,5.000000,60.000000,0.000000,0.000000,0.247974,0.327119,0.035281,0.423370,0.003528,246.000000,241.000000,5.000000,60.000000,0.000000,0.000000:
0000
0002
0000
0000
,
0203
0000
0000
0320
,
0000
0000
0230
0000
,
0300
0002
0000
0000
,
2003
0000
0000
0000
0000
3000
0010
0000
,
0100
0001
1000
0010
,
0100
0002
0000
0000
,
0203
0000
0000
0000
0000
0300
0010
0000
,
0010
0000
0100
0100
,
0000
1000
0001
0000
0001
0000
0000
0000
,
1000
0000
1000
0000
0000
0100
0010
0000
,
0010
0000
0100
0100
,
0000
0001
1000
0000
1000
0000
0000
0000
,
0010
0010
0010
0100
,
0100
1000
0010
0010
,
1000
0100
1000
0010
,
0010
0100
0001
1000
,
0010
0100
0100
0010
,
1000
0001
0010
0100
,
0100
0010
2000
3002
,
0000
0000
0000
0203
0320
0000
0000
2030
,
0000
0000
3002
0000
0000
0000
0000
0203
,
0320
0000
0000
2030
0000
0000
3002
0000
,
0000
0000
0000
0013
0200
0000
0000
0320
,
0000
0000
2030
0000
0000
3002
0000
0203
,
0320
2030
0000
0000
0000
0000
3020
0000
,
0000
0000
0000
0000
,
0230
0302
0000
0000
,
2003
0000
0000
3200
,
0000
0000
0000
0000
,
0320
2030
0000
0000
,
3002
0000
0000
0203
,
0000
0000
0000
0000
,
0000
0320
0000
0000
,
2030
0000
0000
3002
,
0000
0000
0203
0000
,
0320
2030
3002
0000
,
0000
0000
0000
0000
0000
0000
1003
1000
,
0000
0100
0010
0000
0100
0000
0000
0000
,
0000
0000
0001
0001
0000
0100
0010
0000
,
0100
0000
0000
1000
,
1000
0100
0010
0100
,
0001
1000
0010
0100
,
0001
0000
0100
0000
0010
0000
1000
1000
,
0000
0100
0010
0000
0100
0000
0000
0000
,
0000
0000
0001
0001
0000
0100
0010
0000
,
0100
0000
0000
1000
,
0100
0010
0100
0001
,
1000
0020
0000
0000
,
0200
0000
0330
0001
,
0000
0001
0000
0000
0100
0000
0010
0000
,
0000
0000
1000
0000
0000
1000
0000
0000
,
0010
0100
0000
0001
,
0000
0001
0000
0000
0100
0000
0000
0010
,
0000
0000
1000
0000
0000
1000
0000
0000
,
0100
0000
0000
0010
0000
0000
0100
0000
,
0000
0100
0000
0000
0001
0000
0001
0000
,
0000
0000
0100
0000
0000
0100
0000
0000
,
0010
0010
0000
1000
,
0010
0100
0001
0010
,
0100
0002
0000
0000
,
0000
0000
0000
1003
,
0000
0000
0110
0000
,
0000
0000
1100
0000
0000
0110
0000
0000
,
1001
0000
0000
0110
0000
0000
2000
0000
,
0000
0000
3200
0000
,
0000
0320
0000
0000
,
2030
0000
0000
3001
,
0001
0100
0100
0010
,
1000
0002
0000
0000
,
0203
0000
0000
0320
,
0000
0000
0230
0000
,
0000
0302
0000
0000
,
0000
0000
0000
2003
,
0000
0000
3000
0000
,
0000
0000
0000
0000
,
1000
0100
0010
1000
,
0001
0100
0010
1000
,
0001
0010
0100
0001
,
1000
0010
0100
0001
,
0010
1000
0001
0100
,
0010
0010
1000
0001
,
0010
0100
0010
0010
,
1000
0100
0100
0010
,
0001
0001
0100
0010
,
0010
1000
0010
0100
,
0001
2000
0010
0001
,
0100
0000
0010
0000
0100
3000
0002
0000
,
0100
1000
0010
0100
,
0013
2000
0000
3000
,
0000
0000
0000
0020
0000
0000
0000
0000
,
0000
0000
0030
0200
0000
0000
0000
0000
0000
0000
0000
0000
0000
0000
0000
0000
,
0320
0000
0000
0000
0000
0000
0000
0000
0000
0000
0000
0000
0000
0000
0000
0000
0000
0000
0000
0000
0000
0000
0000
0030
0000
0000
0000
0000
0000
0000
0000
0000
;

//---------------dance-single - ----------------
#NOTES:
     dance-single:
     :
     Beginner:
     4:
     0.136083,0.196338,0.021169,0.423370,0.003528,135.000000,132.000000,3.000000,60.000000,0.000000,0.000000,0.136083,0.196338,0.021169,0.423370,0.003528,135.000000,132.000000,3.000000,60.000000,0.000000,0.000000:
0000
2000
0000
3000
,
0020
0000
0030
0002
,
0000
0003
0200
0000
,
0300
0020
0000
0030
,
0200
0000
0300
0002
,
0000
0000
0203
0000
,
0000
0320
0000
0000
,
2030
0000
0000
3001
,
0000
0000
0010
0000
,
0000
0100
0000
0000
,
1000
0000
0000
0100
,
0000
0000
0010
0000
,
0000
0001
0000
0000
,
0100
0000
0000
1001
,
0000
0000
0010
0000
,
0000
0100
0000
0000
,
0001
0000
0000
1000
,
0000
0000
0010
0000
,
0000
0100
0000
0000
,
0001
0000
0000
0020
,
0000
0000
0000
0000
0230
0000
0000
0302
,
0000
2003
0000
0000
,
3002
0000
0000
0203
0000
0000
0320
0000
,
0000
0000
0000
0000
2030
0000
0000
3002
,
0000
0000
0203
0000
0000
0320
0000
0000
,
2030
0000
0000
3002
,
0000
0000
0000
0000
,
0203
0320
0000
0000
,
2030
0000
0000
3002
,
0000
0000
0000
0000
,
0203
0320
0000
0000
,
2030
0000
0000
3002
,
0000
0000
0000
0000
,
0003
0200
0000
0000
,
0320
0000
0000
2030
,
0000
0000
3002
0000
,
0000
0203
0000
0000
,
0000
0000
0300
0010
,
0000
0000
0010
0000
,
0000
1000
0000
0000
,
1000
0000
0000
1000
,
0000
0000
0100
0000
,
0000
0010
0000
0000
,
0001
0000
0000
0010
,
0000
0000
0010
0000
,
0000
0100
0000
0000
,
0100
0000
0000
0001
,
0000
0000
0001
0000
,
0000
0100
0000
0000
,
0100
0000
0000
0010
,
0010
0000
0100
0000
,
0000
0001
0001
0000
,
1000
0000
0000
0010
,
0010
0000
0100
0000
,
0000
0010
0010
0000
,
1000
0000
0000
0100
,
0010
0000
1000
0000
,
0000
0100
0000
0100
,
0001
0000
0000
0001
,
0000
0000
1000
0000
,
0000
0110
0000
0000
,
1001
0000
0000
0020
,
0000
0000
0230
0000
,
0000
0000
0302
0000
0000
2003
0000
0000
,
3020
0000
0000
0230
0000
0000
0302
0000
,
0000
0000
0203
0000
,
0000
0320
0000
0000
,
2030
0000
0000
3002
,
0000
0000
0203
0000
,
0000
0320
0000
0000
,
0230
0000
0000
0302
,
0000
0000
2003
0000
,
0000
3020
0000
0000
,
0000
0000
0000
0230
,
0000
0000
0300
0000
,
0000
0000
0000
0000
,
0000
0010
1000
0000
,
0001
0100
0000
0010
,
1000
0000
0010
0010
,
0000
0100
0100
0000
,
0001
0002
0000
0000
,
0103
0000
0000
0010
,
0000
0000
1000
0000
,
0000
0000
0000
0000
,
0100
0000
0000
0010
,
0000
0000
0001
0000
,
0000
0002
0000
0000
,
2003
0000
0000
3200
,
0000
0000
0000
0000
,
0000
0000
0320
0000
0000
0000
0000
0030
,
0000
0000
0000
1000
0000
0000
0000
0000
,
0000
0000
0000
0200
0000
0000
0000
0000
0000
0000
0000
0000
0000
0000
0000
0000
,
0000
0000
0000
0300
;
