#TITLE:Bungee(Fall in Love);
#SUBTITLE:;
#ARTIST:OH MY GIRL;
#TITLETRANSLIT:;
#SUBTITLETRANSLIT:;
#ARTISTTRANSLIT:;
#GENRE:;
#CREDIT:;
#BANNER:AV.avi;
#BACKGROUND:bg.png;
#LYRICSPATH:;
#CDTITLE:;
#MUSIC:audio.ogg;
#OFFSET:-0.263000;
#SAMPLESTART:36.577000;
#SAMPLELENGTH:15.000000;
#SELECTABLE:YES;
#DISPLAYBPM:56.000:128.000;
#BPMS:0.000000=128.000000
,76.000000=64.000000
,78.000000=128.000000
,173.000000=271.640015
,173.875000=28.180000
,174.000000=128.000000
;
#STOPS:
;
#BGCHANGES:0.000=MV.avi=1.200=1=1=1=StretchRewind==CrossFade==,
3.000=MV.avi=1.000=0=0=1=====,
99999=-nosongbg-=1.000=0=0=0 // don't automatically add -songbackground-
;
#KEYSOUNDS:;
#ATTACKS:;

//---------------dance-single - ----------------
#NOTES:
     dance-single:
     :
     Challenge:
     15:
     0.853180,0.885243,1.806161,0.238550,0.417462,701.000000,489.000000,212.000000,28.000000,0.000000,21.000000,0.853180,0.885243,1.806161,0.238550,0.417462,701.000000,489.000000,212.000000,28.000000,0.000000,21.000000:
1001
0000
0000
0000
0100
0000
0010
0100
0010
0000
0000
1000
0000
0000
0010
0000
,
0000
0000
0100
0000
0000
0010
0000
0000
1000
0000
0020
0001
0230
0000
0001
0000
,
0300
0000
0100
1000
0001
0010
1000
0001
0100
0000
0000
0010
0000
0000
1000
0000
,
0000
0000
0000
0000
1002
0000
0100
0000
0010
0000
0100
0000
1000
0000
0103
0000
0010
0000
0000
0000
0000
0000
0000
0000
0010
0000
0100
0001
0010
0000
0100
0000
,
1001
0000
0010
0000
0101
0000
0001
0100
1010
0000
0100
0010
1100
0000
0010
0100
,
1001
0000
0010
0000
1100
0000
0001
0100
1010
0000
0100
0010
1001
0000
0100
1000
,
0011
0000
0010
0000
1100
0001
0010
0100
0011
0000
1000
0010
0101
0000
0001
0100
,
1010
0100
0001
0100
1010
0000
0100
0000
0011
0000
0000
0100
1001
0000
0010
0000
,
1100
0000
0001
0000
1010
0000
0001
1000
0101
0000
0000
0010
1001
0000
1000
0100
,
0011
0000
0001
0010
1100
0000
0100
0010
0101
0000
1000
0000
0110
0000
0100
0000
,
1010
0000
0000
0000
1001
0000
0001
1000
0110
0000
0100
0000
1001
0000
0100
0010
,
0101
0000
0100
0000
1010
0100
0010
0000
1001
0000
0010
0100
1010
0100
0001
0010
,
1100
0000
0101
0000
1010
0001
0110
1000
,
0110
0001
1010
0100
1001
0010
1100
0001
,
1010
1000
0101
0010
1001
0010
0101
1000
,
1100
0010
1100
0001
1010
0100
1001
0010
,
1100
0011
0110
1100
0011
0101
1100
1001
,
0101
1010
0101
1010
0101
1010
0110
1100
,
1001
0000
0000
0001
1000
0000
0000
0010
1000
0000
0000
0100
1000
0000
0000
0010
0100
0000
0000
0010
0001
0000
0000
0100
1000
0000
0000
0010
0100
0000
0000
0010
,
0002
0000
0003
0000
1000
0001
1000
0001
1001
0000
0000
0010
1001
0000
0100
0000
,
0011
0000
0100
0000
1010
0000
0100
0000
0011
0000
0000
1000
0101
0000
1000
0000
,
0110
0001
1010
1000
1100
0010
1001
0001
,
0110
0000
0000
0010
1001
0000
0200
0000
0011
0000
0300
0000
0110
0000
1000
0000
,
1100
0000
0010
0000
1001
0000
0010
0000
0101
0000
0000
0010
1001
0000
0010
0000
,
0101
1000
0011
0100
0011
0010
1001
0200
,
0011
0300
0110
1000
1001
0100
1010
0001
,
0110
0000
0000
0100
1010
0000
0002
0000
0110
0000
0000
0000
1010
0000
0000
0003
,
1100
0010
0100
0001
1000
0100
0010
1000
0101
0000
0000
0000
0110
0000
0010
0000
,
1001
0000
0010
0100
0011
0000
0000
0000
1001
0000
0010
0000
0101
0000
0010
0000
,
1100
1001
0110
0101
,
1100
0000
0001
0100
1001
0000
0000
0000
0011
0000
1000
0000
0110
0000
0001
0000
,
1100
0000
0010
0000
0101
0000
0010
0000
1100
0000
0000
0010
0101
0000
0100
0000
,
1010
0001
1100
0010
1001
0100
1010
0001
,
1100
0000
1010
0001
1100
0010
1001
0001
,
0110
0000
0000
0010
0101
0000
1000
0000
0011
0000
0000
0010
1100
0000
0100
0010
,
0101
0000
0000
1000
0000
0000
0010
0000
0000
0000
0000
0000
0100
0000
0000
0000
0000
0000
1001
0000
0000
0000
0000
0000
0020
0000
0000
0000
0000
0000
0000
0000
0000
0000
0000
0000
0000
0000
0000
0000
1000
0000
0000
0000
0100
0000
0000
0000
,
0000
1000
0000
0000
0000
0000
0230
0000
0000
0000
0000
0010
1000
0001
0000
1000
,
0000
0000
0000
0010
0000
0000
0000
0000
0000
0001
0000
0000
0000
0000
0000
1000
0000
0000
0000
0000
0000
0001
0000
0000
0320
0000
0000
0000
0000
0000
0000
0000
0000
0000
0000
0000
0000
0000
0000
1000
0000
0000
0000
0000
0100
0000
0000
0000
,
0000
0000
0001
0100
0001
0000
2030
0010
0001
0010
0000
0100
0000
0000
0010
0000
,
0100
0001
0010
0100
3011
0000
0110
0000
,
1001
1100
0110
1001
,
0011
0000
0110
0000
1100
0011
1100
0011
,
0110
1001
0110
1001
1200
0300
0120
0030
,
1002
0100
1003
0010
2100
0000
0000
0000
0101
0000
0000
0100
0011
0000
0010
0000
,
0101
0000
0100
0000
0101
0000
0010
0000
3101
0000
0000
0001
1010
0000
0001
0000
,
0110
1000
0101
0001
0011
0100
1001
1000
,
0110
0000
0000
0100
1001
0000
0020
0000
1100
0000
0030
0000
0110
0000
0001
0000
,
0011
0000
0100
0000
1001
0000
0100
0000
1010
0000
0000
0100
1001
0000
0100
0000
,
1010
0001
1100
0020
1100
0230
1001
0320
,
2130
3200
1320
2030
3101
0200
1001
0000
,
0011
0000
0320
1000
0031
0000
2000
0000
0110
0000
0000
0000
0101
0000
0000
3000
,
0011
0100
0010
1000
0001
0010
0100
0001
1010
0000
0000
0000
0110
0000
0100
0000
,
1001
0000
0100
0010
1100
0000
0000
0000
1001
0000
0100
0000
1010
0000
0100
0000
,
0011
0000
2001
3002
0110
0003
1010
0000
,
0011
0000
1000
0010
1001
0000
0000
0000
1100
0000
0001
0000
0110
0000
1000
0000
,
0011
0000
0100
0000
1010
0000
0100
0000
0011
0000
0000
0100
1010
0000
0010
0000
,
0101
1000
0011
0100
1001
0010
0101
1000
,
0011
0000
0101
1000
0011
0100
1001
1000
,
0110
0000
0000
0100
1010
0000
0001
0000
1100
0000
0000
0100
0011
0000
0010
0100
,
1010
0001
0100
0000
0010
0000
1001
0000
0000
0000
0000
0000
0000
0000
0000
0000
;

//---------------dance-single - ----------------
#NOTES:
     dance-single:
     :
     Hard:
     9:
     0.445455,0.456226,0.502658,0.136314,0.017039,366.000000,307.000000,59.000000,16.000000,0.000000,0.000000,0.445455,0.456226,0.502658,0.136314,0.017039,366.000000,307.000000,59.000000,16.000000,0.000000,0.000000:
0000
0000
0000
0000
,
0000
0000
0000
0000
,
0000
0000
0000
0000
,
0000
0000
0000
0000
,
1001
0000
0010
1000
0010
0000
0101
0000
,
0010
1000
0001
1000
0010
0000
0110
0000
,
0001
1000
0001
0000
0010
0000
0011
0000
,
0001
1000
0001
1000
0001
0000
1001
0000
,
0010
1010
0100
1100
,
0001
1001
0001
0011
,
0001
1000
0001
1000
0010
0000
1010
0000
,
1000
0100
0010
0001
0010
0000
0011
0000
,
1010
0110
1002
1003
,
0110
0011
2100
3100
,
1001
0011
0210
0310
,
1001
0011
1002
1003
,
0010
1000
0001
1000
0010
0100
0001
1000
,
0100
0010
0001
0010
0100
1000
0001
0100
,
0010
1000
0001
1000
0010
1000
0001
1000
,
0020
0000
0000
0000
0130
0000
0000
0000
1001
0000
0000
0010
0000
0000
1000
0000
,
0001
0000
0100
0000
0001
0000
0100
0000
0010
0000
0000
1000
0000
0000
0001
0000
,
1000
0010
0100
0001
1000
0010
0100
0001
,
1000
0001
0010
0001
2000
0000
3010
0100
,
0001
0000
1000
0000
0010
0000
1000
0000
0001
0000
0000
1000
0000
0000
0010
0000
,
0100
0010
1000
0001
0020
0000
0031
1000
,
0002
0000
1003
0010
0100
0001
1000
0010
,
1000
0000
0000
0001
0000
0000
1000
0000
0001
0000
1000
0000
0001
0000
1000
0000
,
0001
0000
1001
0000
0010
1000
0001
1000
,
0010
0000
0110
0000
0001
0010
0001
0010
,
0001
0000
0011
0000
0010
1000
0001
1000
,
0010
0000
1001
0000
1000
0010
1000
0010
,
1000
0000
1010
0000
0001
1000
0010
0000
,
1001
0000
0011
0000
0001
1000
0010
0000
,
1010
0000
0110
0000
0001
0010
0100
0010
,
0001
1001
0210
0001
,
0310
2001
3020
0000
,
0000
0000
2030
0000
,
0000
0000
3002
0000
,
0000
0000
0023
0000
,
0000
0030
1100
1010
,
1001
0110
0011
1100
,
1010
0000
1001
0000
0010
1000
0010
1000
,
0001
1000
0010
1000
0001
0000
0011
0000
,
0001
0000
1001
0000
0010
1000
0010
1000
,
0020
0000
1030
0000
0001
1000
0001
1000
,
0001
0000
1001
0000
0010
0100
0010
0100
,
0010
0000
0110
0000
1000
0100
1000
0001
,
1000
0000
1010
0000
0001
0010
0001
0010
,
0001
0000
1001
0000
0010
1000
0001
1000
,
0010
0000
1001
0000
0010
1000
0001
0100
,
0010
1000
0001
0010
0100
1000
0010
0100
,
0001
0010
0001
1000
1010
0000
0101
0000
,
0010
1000
0010
0000
0001
0010
0001
0010
,
0001
0011
0010
1001
,
0010
1000
0001
0000
0010
1000
0010
1000
,
0010
0000
1010
0000
0010
0100
0010
1000
,
0001
0000
1001
0000
0100
1000
0001
1000
,
0010
0000
1010
0000
0001
1000
0001
1000
,
0010
0000
1010
0000
0010
0100
0010
1000
,
0001
0010
0002
0000
0013
0000
0000
0000
;

//---------------dance-single - ----------------
#NOTES:
     dance-single:
     :
     Medium:
     5:
     0.295753,0.353352,0.085196,0.102236,0.000000,243.000000,233.000000,10.000000,12.000000,0.000000,0.000000,0.295753,0.353352,0.085196,0.102236,0.000000,243.000000,233.000000,10.000000,12.000000,0.000000,0.000000:
0000
0000
0000
0000
,
0000
0000
0000
0000
,
0000
0000
0000
0000
,
0000
0000
0000
0000
,
1000
0001
1000
0010
,
1000
0010
0100
0010
,
1000
0001
0010
0001
,
1000
0010
0100
0010
,
1000
1000
0001
0001
,
0010
0010
0001
0001
,
0010
0010
1000
1000
,
0001
0001
0100
0100
,
0010
0000
0010
0000
0010
1000
0010
0000
,
0001
0000
0001
0000
0001
1000
0001
0000
,
0010
0000
0010
0000
0010
0001
0010
0000
,
1000
0000
0010
0000
1000
0010
1000
0000
,
0100
1000
0001
0100
,
0010
1000
0001
0010
,
0001
0001
1000
1000
,
0110
0000
1000
1000
,
0010
1000
0010
0000
0001
0000
0001
0000
,
0010
0001
0010
0000
0020
0000
1030
0000
,
0002
1003
2000
0000
,
0010
0000
3010
0000
0001
0100
0001
0000
,
1000
1000
0010
0010
,
1000
0000
1000
0000
0001
1000
0001
1000
,
0001
0110
0001
0001
,
0010
1000
0001
0000
0011
0000
1100
0000
,
0010
1000
0010
0000
0001
0000
0001
0000
,
1000
0110
0010
0010
,
0010
1000
0010
0000
0001
0000
0001
0000
,
0010
0000
1010
0000
0001
1000
0001
0000
,
0010
0000
0010
0000
0001
1000
0001
0000
,
0100
0000
0100
0000
1000
0010
1000
0000
,
0001
1000
0002
0010
,
1003
0010
0020
0000
,
0000
0000
2030
0000
,
0000
0000
3002
0000
,
0000
0000
0023
0000
,
0000
0000
0031
0001
,
0001
0001
1000
1000
,
1000
0000
1000
0000
0001
1000
0001
0000
,
0001
1000
0001
0000
1000
0000
1001
0000
,
0010
0001
1001
1001
,
0010
0100
0010
0000
1000
0000
0001
0000
,
0010
0001
0010
0010
,
0010
0000
0010
0000
1000
0100
1000
0000
,
0001
1001
0010
0010
,
0001
0000
1000
0000
0010
1000
0010
0000
,
0100
0010
0001
0001
,
1000
1000
0002
0010
,
1003
0010
1000
1000
,
0010
1000
0010
0000
0002
0000
1000
0000
,
0010
1003
0010
1000
,
0100
1000
0100
0000
0002
0000
0010
0000
,
1000
0103
0010
0010
,
1000
0000
1000
0000
0001
1000
0001
0000
,
0010
0000
0100
0000
0010
0100
0010
0000
,
0100
0010
0100
0000
0020
0000
1000
0000
,
0100
1030
0000
0000
;

//---------------dance-single - ----------------
#NOTES:
     dance-single:
     :
     Easy:
     3:
     0.122926,0.150797,0.017039,0.034079,0.000000,101.000000,99.000000,2.000000,4.000000,0.000000,0.000000,0.122926,0.150797,0.017039,0.034079,0.000000,101.000000,99.000000,2.000000,4.000000,0.000000,0.000000:
0000
0000
0000
0000
,
0000
0000
0000
0000
,
0000
0000
0000
0000
,
0000
0000
0000
0000
,
1000
0000
1000
0000
,
0010
0000
0010
0000
,
0001
0000
0001
0000
,
1000
0000
1000
0000
,
0100
0000
0100
0000
,
0010
0000
0010
0000
,
0001
0000
0001
0000
,
0100
0000
0001
0000
,
0100
0000
0100
0000
,
0010
0000
0010
0000
,
0001
0000
0001
0000
,
1000
0000
1000
0000
,
0100
0000
1000
0000
,
0010
0000
1000
0000
,
0100
0000
0100
0000
,
1001
0000
1000
0000
,
0000
0000
0010
0000
,
0000
0000
0001
0000
,
0001
0000
0001
0000
,
0010
0000
0001
0000
,
1000
0000
0001
0000
,
0010
0000
1000
0000
,
0010
0000
0001
0000
,
0001
0000
0100
0000
,
1000
0000
0010
0000
,
0000
0000
0001
0000
,
0001
0000
1000
0000
,
1000
0000
0100
0000
,
0010
0000
0001
0000
,
1000
0000
0010
0000
,
0010
0000
0002
0000
,
0000
0000
0203
0000
,
0000
0000
0000
0000
,
0000
0000
0302
0000
,
0000
0000
0000
0000
,
0000
0000
1003
0000
,
1000
0000
1000
0000
,
0010
0000
0100
0000
,
0100
0000
1001
0000
,
0000
0000
0010
0000
,
0010
0000
0010
0000
,
0001
0000
1000
0000
,
0100
0000
0001
0000
,
0010
0000
1000
0000
,
1000
0000
0100
0000
,
0001
0000
1000
0000
,
1000
0000
2000
0000
,
0000
3000
0001
0000
,
0001
0000
0100
0000
,
0100
0000
0010
0000
,
0010
0000
1000
0000
,
0001
0000
0010
0000
,
0010
0000
0010
0000
,
0001
0000
0100
0000
,
1000
0000
0100
0000
,
0100
0000
0000
0000
;

//---------------dance-single - Copied from----------------
#NOTES:
     dance-single:
     Copied from:
     Beginner:
     1:
     0.065723,0.124600,0.000000,0.042598,0.000000,54.000000,54.000000,0.000000,5.000000,0.000000,0.000000,0.065723,0.124600,0.000000,0.042598,0.000000,54.000000,54.000000,0.000000,5.000000,0.000000,0.000000:
// measure 0
0000
0000
0000
0000
,  // measure 1
0000
0000
0000
0000
,  // measure 2
0000
0000
0000
0000
,  // measure 3
0000
0000
0000
0000
,  // measure 4
1000
0000
0002
0000
,  // measure 5
0000
0000
0000
0000
,  // measure 6
0000
0000
0000
0000
,  // measure 7
1003
0000
1000
0000
,  // measure 8
0100
0000
0001
0000
,  // measure 9
0100
0000
0001
0000
,  // measure 10
0001
0000
1000
0000
,  // measure 11
1000
0000
1000
0000
,  // measure 12
0200
0000
0000
0000
,  // measure 13
0320
0000
0000
0000
,  // measure 14
0000
0000
0000
0000
,  // measure 15
0130
0000
0100
0000
,  // measure 16
1000
0000
0001
0000
,  // measure 17
0000
0000
0000
0001
,  // measure 18
0000
0000
0000
0000
,  // measure 19
0000
0000
0100
0000
,  // measure 20
0000
0000
0100
0000
,  // measure 21
0000
0000
1000
0000
,  // measure 22
0000
0000
0000
0000
,  // measure 23
0000
0000
0000
0001
,  // measure 24
0000
0000
0000
0000
,  // measure 25
0000
0000
0000
0000
,  // measure 26
0000
0001
0000
0000
,  // measure 27
0000
0000
1000
0000
,  // measure 28
0000
0000
0001
0001
,  // measure 29
0001
0001
0000
0000
,  // measure 30
0000
0000
0100
0000
,  // measure 31
0100
0000
0000
0010
,  // measure 32
0000
0001
0000
0000
,  // measure 33
0000
0000
0000
0000
,  // measure 34
0000
0001
0000
0000
,  // measure 35
0000
0000
2000
0000
,  // measure 36
0000
0000
0000
0000
,  // measure 37
0000
0000
3000
0000
,  // measure 38
0000
0000
0000
0000
,  // measure 39
0000
0000
0100
0000
,  // measure 40
0000
0000
0000
0000
,  // measure 41
0000
0000
0000
1000
,  // measure 42
0000
0001
0000
0000
,  // measure 43
0000
0000
0010
0010
,  // measure 44
0000
0000
0000
0100
,  // measure 45
0000
0000
0100
0000
,  // measure 46
0000
0000
0000
0000
,  // measure 47
0100
0000
0100
0000
,  // measure 48
0001
0000
0000
0000
,  // measure 49
0000
0000
0000
1000
,  // measure 50
0000
0000
0000
0000
,  // measure 51
0000
0000
0001
0000
,  // measure 52
0000
2000
0000
0000
,  // measure 53
0000
0000
3001
0000
,  // measure 54
0000
0000
0001
0000
,  // measure 55
0000
0000
0000
0100
,  // measure 56
0000
0000
0010
0000
,  // measure 57
0100
0000
0000
0000
,  // measure 58
0000
0000
0001
0000
;
