#VERSION:0.83;
#TITLE:Breathless;
#SUBTITLE:;
#ARTIST:ASTRO;
#TITLETRANSLIT:;
#SUBTITLETRANSLIT:;
#ARTISTTRANSLIT:;
#GENRE:;
#ORIGIN:;
#CREDIT:;
#BANNER:AV.avi;
#BACKGROUND:bg.png;
#PREVIEWVID:;
#JACKET:jacket.jpg;
#CDIMAGE:;
#DISCIMAGE:;
#LYRICSPATH:;
#CDTITLE:;
#MUSIC:audio.ogg;
#OFFSET:-0.388000;
#SAMPLESTART:62.372002;
#SAMPLELENGTH:15.000000;
#SELECTABLE:YES;
#BPMS:0.000=113.960;
#STOPS:;
#DELAYS:;
#WARPS:;
#TIMESIGNATURES:0.000=4=4;
#TICKCOUNTS:0.000=4;
#COMBOS:0.000=1;
#SPEEDS:0.000=1.000=0.000=0;
#SCROLLS:0.000=1.000;
#FAKES:;
#LABELS:0.000=Song Start;
#BGCHANGES:0.000=MV.avi=0.800=1=0=1===CrossFade==,
6.000=MV.avi=1.000=0=0=1=====,
99999=-nosongbg-=1.000=0=0=0 // don't automatically add -songbackground-
;
#KEYSOUNDS:;
#ATTACKS:
;

//---------------dance-single - ----------------
#NOTEDATA:;
#CHARTNAME:;
#STEPSTYPE:dance-single;
#DESCRIPTION:;
#CHARTSTYLE:;
#DIFFICULTY:Challenge;
#METER:15;
#RADARVALUES:0.866317,1.089228,1.623671,0.483325,0.645692,803.000000,588.000000,215.000000,64.000000,0.000000,36.000000,0.000000,0.000000,0.000000,0.866317,1.089228,1.623671,0.483325,0.645692,803.000000,588.000000,215.000000,64.000000,0.000000,36.000000,0.000000,0.000000,0.000000;
#CREDIT:;
#NOTES:
// measure 0
0000
0000
0000
0000
,  // measure 1
0000
0000
0000
0000
0000
0000
0000
0000
1001
0000
0000
0000
0100
0000
0000
0010
,  // measure 2
0100
0000
0010
0000
1000
0000
0002
0000
0103
0000
0000
0000
0010
0000
1000
0100
,  // measure 3
0001
0000
0100
0000
0010
0000
0001
0000
1000
0000
0001
0000
0010
0000
1000
0100
,  // measure 4
0010
0000
1000
0000
0020
0000
0000
0000
0032
0100
0000
0100
0000
0100
0000
0100
,  // measure 5
0000
0000
0100
1000
0010
0000
1000
0000
0023
0000
0000
0000
0030
0000
0000
0000
1002
0000
0000
0000
0000
0000
0000
0000
1013
0000
0000
0000
0000
0000
0010
0000
,  // measure 6
0100
0000
0010
0000
1100
0000
0010
0100
0001
0000
0100
0000
0011
0000
0100
0002
,  // measure 7
0100
0000
0023
0000
1130
0000
0002
0100
2013
0000
0000
0000
3101
0000
0000
0100
,  // measure 8
0011
0000
1000
0000
0101
0000
0010
0001
1100
0000
0001
0010
1100
0000
0010
0100
,  // measure 9
1010
0001
0110
1000
0120
0000
0030
0000
2001
0000
0000
0000
3110
0000
0000
1000
,  // measure 10
0010
0000
0100
0000
1010
0000
0001
1000
0010
0000
0100
0000
1010
0000
0001
2000
,  // measure 11
0010
0000
0100
3010
0001
0100
0010
0000
0101
0000
1000
0010
1001
0010
1000
0100
,  // measure 12
0010
0000
0010
0000
0101
0000
0001
0000
1010
0000
1000
0100
0010
0100
1000
0100
,  // measure 13
0011
0100
1000
0110
0001
1000
0011
0100
1001
0000
0010
0000
0101
0000
0100
0010
,  // measure 14
1000
0001
0010
0000
1100
0000
0000
0010
1100
0000
0010
0000
1001
0000
0010
0100
,  // measure 15
0010
1000
0001
0000
1010
0000
0000
0010
1100
0000
0010
0000
1001
0000
0000
0100
,  // measure 16
1000
0100
0010
0000
1100
0000
0002
0000
1103
0000
0011
1000
0010
0101
1000
0010
,  // measure 17
1001
0000
0000
0110
0000
0000
1001
0000
0010
0000
0000
0000
0101
0000
0010
1100
,  // measure 18
0011
1000
0101
0010
1001
0000
0010
1100
0011
0000
0000
0000
0011
0000
1000
0110
,  // measure 19
1002
0000
0123
0000
2130
0000
0000
3110
1001
0000
0000
0000
0011
0000
1000
0101
,  // measure 20
1010
0100
1001
0100
0011
0100
0010
1100
1001
0010
0100
1001
0110
0001
1000
0011
,  // measure 21
1100
0000
1100
0010
1001
0010
1000
0011
1100
0001
0010
0100
1001
0000
0010
1100
,  // measure 22
0011
1000
0101
0010
1001
0100
0010
1100
0011
0000
0010
0100
1001
0010
0100
0011
,  // measure 23
1100
0010
0101
0010
1001
0000
1000
0110
1001
0000
0010
0000
1100
0010
0100
0011
,  // measure 24
1100
0000
0011
0000
1001
0000
0100
1001
0110
0000
0001
0100
1010
0100
0010
0000
,  // measure 25
1000
0100
0010
0100
0011
1000
0010
0001
0110
0000
0000
0000
1010
0000
0100
0000
,  // measure 26
1001
0000
1010
0001
0110
0000
1010
0000
,  // measure 27
0110
0000
1001
0010
1100
0001
1100
0010
,  // measure 28
1001
0000
0100
0000
1010
0000
0002
0000
1010
0000
0100
0000
0000
0100
0000
0000
,  // measure 29
0100
0000
0103
0010
0002
0100
0013
0100
1020
0000
0000
0000
1130
0000
0000
1000
,  // measure 30
0001
0000
1000
0000
0101
0000
1000
0001
0010
0000
0001
0000
1010
0000
0001
0020
,  // measure 31
0001
0000
2030
0000
3101
0000
0020
0001
1230
0000
0000
0000
0311
0000
0000
0001
,  // measure 32
1010
0000
0100
0000
0011
0000
1000
0010
0101
0000
0010
1000
0101
0000
1000
0001
,  // measure 33
1100
0010
1001
0100
2001
0000
3000
0000
0210
0000
0000
0000
1301
0000
0000
0100
,  // measure 34
1010
0000
0001
0000
1100
0000
0010
0100
1010
0000
0001
0000
1100
0000
0010
0200
,  // measure 35
1000
0000
0001
1300
0010
0001
1000
0000
0011
0000
0100
1000
0110
1000
0100
0001
,  // measure 36
1000
0000
1000
0000
0011
0000
0010
0000
1100
0000
0100
0001
1000
0001
0100
0001
,  // measure 37
1010
0001
0100
1010
0001
0100
1010
0001
0110
0000
1000
0000
0011
0000
0001
1000
,  // measure 38
0100
0010
1000
0000
0101
0000
0000
1000
0101
0000
1000
0000
0110
0000
1000
0010
,  // measure 39
0002
0100
1010
0000
0100
0000
0023
1000
0101
0030
1000
0000
0110
0000
1000
0001
,  // measure 40
1000
0000
1000
0000
0100
0000
0020
0000
0131
0000
1010
0100
1000
0011
0100
1000
,  // measure 41
0110
0000
0000
1001
0000
0000
0110
0000
1002
0000
0000
0003
0110
0000
0001
0000
,  // measure 42
1100
0000
0010
0000
1001
0000
0100
0000
1001
0000
0000
0000
0110
0000
0001
0020
,  // measure 43
1100
0000
0000
0000
1130
0000
0001
1000
0002
0000
0000
0003
0110
0000
0010
0000
,  // measure 44
1200
0000
0000
0300
1010
0000
1000
0000
0101
0000
0010
0002
1100
0000
0000
0000
,  // measure 45
1010
0000
0103
1000
0011
0100
0001
0000
1100
0000
0010
0000
1001
0000
0010
0000
,  // measure 46
1100
0000
0000
0000
1010
0000
0001
0000
0110
0000
0001
0000
1100
0000
0010
0002
,  // measure 47
1010
0000
0000
0003
0110
0000
0100
1000
0110
0000
1001
0000
0000
0000
1100
0000
,  // measure 48
0011
0000
0110
1001
0000
1100
0011
1010
,  // measure 49
0101
0000
1001
0000
0110
1001
0110
1001
0210
0000
0000
0000
1010
0000
0000
0001
,  // measure 50
1000
0000
0010
0000
1001
0000
0010
0001
2300
0000
0100
0000
0011
0000
0100
0010
,  // measure 51
0100
3001
0020
0000
2130
0000
3002
0000
0010
0000
0100
1000
0000
0010
2003
0000
,  // measure 52
0010
0100
0010
0100
3010
0000
1000
0100
0010
0000
2000
0100
3002
0010
2003
0000
,  // measure 53
3200
0010
2300
0010
3002
0000
0023
0100
1002
0000
0033
0000
0110
0000
0000
0100
,  // measure 54
0010
0000
0100
0000
0011
0000
0100
0010
1100
0000
0010
0000
1100
0000
0010
2000
,  // measure 55
0010
0000
3100
0000
2010
0000
0000
0000
3010
0000
0100
0001
0000
0010
0100
0000
,  // measure 56
0000
0000
2000
0000
3020
0000
0032
0000
0023
0000
2030
0010
3200
0010
0302
0200
,  // measure 57
1003
0010
0001
0010
2301
0000
3110
0000
1001
0000
0010
0000
0101
0000
0100
0010
,  // measure 58
1000
0001
0010
0000
1100
0000
0002
0010
2103
0000
0010
0000
3101
0000
0010
0100
,  // measure 59
0010
1000
0011
0000
1000
0000
0002
0010
1100
0000
0010
0000
1103
0000
0010
1100
,  // measure 60
0011
0000
0011
0000
1000
0000
0002
0000
1103
0000
0011
1000
0010
0101
1000
0010
,  // measure 61
1001
0000
0000
0110
0000
0000
1001
0000
0000
0000
0000
0000
0000
0000
0000
0000
;

//---------------dance-single - ----------------
#NOTEDATA:;
#CHARTNAME:;
#STEPSTYPE:dance-single;
#DESCRIPTION:;
#CHARTSTYLE:;
#DIFFICULTY:Hard;
#METER:10;
#RADARVALUES:0.486562,0.555069,0.286974,0.181247,0.245439,451.000000,413.000000,38.000000,24.000000,0.000000,0.000000,0.000000,0.000000,0.000000,0.486562,0.555069,0.286974,0.181247,0.245439,451.000000,413.000000,38.000000,24.000000,0.000000,0.000000,0.000000,0.000000,0.000000;
#CREDIT:;
#NOTES:
0000
0000
0000
0000
,
0000
0000
0000
0000
,
0010
1000
0020
0000
1030
0000
0001
1000
,
0010
0100
0002
0000
0013
0000
0010
1000
,
0001
0010
0002
0000
1003
0010
0100
0001
,
1000
0000
0011
0000
2001
0000
3010
0100
,
0010
0000
0011
0000
0010
1000
0001
1000
,
0020
0000
0130
0001
2000
0000
3010
0100
,
0010
0001
1000
0010
0100
0001
0010
0100
,
2000
3001
0110
0011
,
0001
1000
0001
0100
0010
1000
0001
0010
,
0200
0000
0310
0000
0001
1000
0010
0100
,
0001
0011
2001
0010
,
0100
0000
3010
0000
0001
0100
0010
1000
,
0001
0010
0011
0000
0010
1000
0001
0100
,
0010
1000
1001
0000
0001
0010
0100
0010
,
0001
0000
0000
0000
1001
0000
0000
0000
0010
0000
0010
0000
0000
0010
0000
0000
,
0010
0000
0000
0010
0000
0000
1000
0000
0010
0000
0000
0000
0110
0000
0001
1000
,
0001
0000
0000
0000
1001
0000
0000
0000
0010
0000
0000
0000
1100
0000
0010
1000
,
0010
0000
0000
0000
0110
0000
0000
0000
0011
0000
0000
0000
0001
0000
1000
0001
,
1000
0000
1010
0000
0010
0100
0001
1000
,
0010
1000
0010
0000
1000
0010
1000
0000
0001
0000
1000
0000
0010
0000
0100
0000
,
0001
0000
0011
0000
0001
0010
0001
1000
,
0010
0000
0000
0000
1010
0000
0000
0000
0001
0000
1000
0000
0010
1000
0010
0000
,
0100
0000
0001
0000
1000
0000
0001
0000
0010
0000
0010
0001
0000
0001
0010
0000
,
0001
0000
1001
0010
0200
0000
0010
0000
,
0301
0000
0010
1000
0002
0000
0010
0000
,
1003
0000
0010
1000
0001
0100
0010
1000
,
0001
0000
0010
0000
0001
0000
1000
0000
0010
0000
0100
0000
0000
0100
0000
0000
,
0010
1000
0001
0010
0100
0010
0001
0000
0012
0000
0000
0000
0013
0000
0000
1000
,
0010
0000
0100
0000
0001
0000
1000
0000
0010
0000
0100
0000
0001
0000
0100
0001
,
0200
0000
0000
0000
0310
0000
0001
1000
0002
0000
0000
0000
1003
0000
0010
0000
,
0100
0000
0001
0000
1000
0000
0100
0000
0010
0000
0001
0010
0001
0000
0010
0000
,
0002
0000
0000
0000
0013
0000
0000
0000
0020
0000
0000
0000
2030
0000
0000
3010
,
1000
0000
0010
0000
0100
0000
0001
0000
1000
0000
0010
0000
1000
0000
0001
1000
,
0002
0000
0000
0000
0013
0000
0000
0000
0001
0000
0000
0001
0000
0000
0001
0000
,
0100
0000
0010
0000
1000
0000
0001
0000
0010
0000
0100
0000
0001
0000
0001
0010
,
0002
0000
0000
1000
0003
0000
0100
0000
0010
0000
1000
0000
0010
0000
0000
0010
,
0000
0010
1000
0000
0010
0000
0000
0000
0001
0000
1000
0000
0001
0000
0000
0001
,
0000
0001
1000
0000
0001
0000
0000
0000
1000
0000
0001
0000
1000
0000
0000
0001
,
0000
1000
0001
0000
1000
0000
0000
0000
1001
0000
0010
0000
0000
0010
0000
0000
,
0010
0000
0000
0100
0000
0000
0010
0000
0110
0000
0000
0000
1100
0000
0000
0000
,
0110
0011
1001
0110
,
0011
0000
0000
0000
1100
0000
0001
1000
0001
0000
0000
0000
1010
0000
0000
0000
,
0110
0011
1001
0110
,
1001
0000
0000
0000
0110
0000
0000
0001
0010
0000
0010
0000
0001
0000
1000
0000
,
0010
0000
0000
0000
0010
0000
0100
0000
0010
0000
1000
0000
0001
0000
1000
0001
,
2000
0000
0000
0000
3010
0000
0010
0100
0020
0000
0130
0000
0000
0000
0002
0000
,
1003
0000
2000
3100
0000
0010
0010
0100
,
0010
0000
0100
0000
0001
1000
0001
1000
0001
0000
0000
0000
1000
0000
0000
0010
,
0100
0000
0010
0000
1000
0000
0000
0000
0001
0000
0000
0000
0010
0000
0000
1000
,
0010
0000
1000
0000
0010
0000
0000
0000
0001
0000
0001
1000
0000
1000
0001
0000
,
0010
0100
0010
0100
0010
0000
0001
0010
0001
0000
0001
0010
0000
0010
0001
0000
,
1000
0001
1000
0001
1000
0000
1000
0010
0000
0000
0000
0000
0110
0000
0000
0001
,
1000
0000
0001
0000
0010
0000
0001
0000
1000
0000
0010
0000
0100
0000
0001
2000
,
0000
0000
0000
0000
3010
0000
0000
0000
0010
0000
0010
0100
0000
0100
0010
0000
,
0000
0000
1000
0000
0100
0000
1000
0000
0001
0000
0010
1000
0001
0010
0100
1000
,
0001
0100
0010
1000
0001
0000
1000
0000
0010
0000
1000
0000
0010
0000
0000
0010
,
0000
1000
0010
0000
0100
0000
0010
0000
1000
0000
1000
0000
0001
0000
0000
1000
,
0000
0001
1000
0000
0001
0000
0010
0000
0001
0000
0010
0000
0001
0000
0000
0001
,
0000
1000
0001
0000
0100
0000
0010
0000
1000
0000
0001
0000
0000
0001
0000
0000
,
0001
1001
0000
0000
;

//---------------dance-single - ----------------
#NOTEDATA:;
#CHARTNAME:;
#STEPSTYPE:dance-single;
#DESCRIPTION:;
#CHARTSTYLE:;
#DIFFICULTY:Medium;
#METER:5;
#RADARVALUES:0.317182,0.370046,0.173695,0.135935,0.000000,294.000000,271.000000,23.000000,18.000000,0.000000,0.000000,0.000000,0.000000,0.000000,0.317182,0.370046,0.173695,0.135935,0.000000,294.000000,271.000000,23.000000,18.000000,0.000000,0.000000,0.000000,0.000000,0.000000;
#CREDIT:;
#NOTES:
0000
0000
0000
0000
,
0000
0000
0000
0000
,
0010
1000
0020
0000
1030
0000
0001
1000
,
0010
0000
0001
0000
0010
1000
0010
0000
,
0001
1000
0010
0000
0001
0000
1000
0000
,
0002
0000
0013
0000
0010
0000
1000
0010
,
1000
0000
0010
0000
0001
1000
0001
0000
,
0020
0130
1000
0001
,
0010
0100
0010
0000
1000
0100
1000
0000
,
0002
0013
1000
0010
,
0001
1000
0010
0000
0001
0000
0100
0000
,
0020
0000
0130
0000
0001
1000
0001
0000
,
1000
1001
0210
0000
,
0010
0000
0310
0000
0001
1000
0001
0000
,
0011
0000
1100
0000
0010
0100
0010
0000
,
1100
0000
1001
0000
0010
0100
0010
0000
,
0011
1100
0001
0001
,
0002
1003
0010
0010
,
0010
0100
0010
0000
1000
0000
0001
0000
,
0020
0031
0010
1000
,
0001
1000
0001
0000
0100
0000
0010
0000
,
0001
1000
0001
0000
0010
1000
0010
0000
,
0010
0001
0010
0000
0001
0000
1000
0000
,
0100
1000
0100
0000
0010
0000
0001
0000
,
0100
0000
0010
0000
0001
1000
0010
0000
,
0011
1010
0002
1000
,
0100
0013
2000
0010
,
0100
3001
0020
0100
,
1000
0130
0001
0010
,
0001
1001
0010
0001
,
0010
1000
0010
0000
0001
0100
0010
0000
,
2000
3001
0010
0100
,
0001
0100
0001
0000
0010
0000
1000
0000
,
0002
0013
1000
0010
,
0010
0100
0010
0000
1000
0000
0001
0000
,
2000
3010
0100
0010
,
0001
1000
0001
0000
1000
0000
0100
0000
,
0010
0000
0001
0000
0010
1000
0001
0000
,
1000
0000
0001
0000
0010
0100
0010
0000
,
0100
0000
0100
0000
0001
1000
0010
0000
,
1000
1000
0100
0100
,
0200
0310
0001
0001
,
1000
1000
0010
0010
,
0100
0100
0010
0010
,
1000
1000
0001
0001
,
1000
1000
1001
0010
,
0100
0010
0110
0001
,
0010
0001
0011
0000
,
1100
0000
0110
0010
,
0010
0010
0002
1000
,
0100
0010
2003
0010
,
0100
0000
3010
0000
0001
1000
0001
0000
,
1000
0001
1000
0000
0010
0100
0010
0000
,
0110
1001
0001
0010
,
0001
0010
0001
0000
0011
0000
1100
0000
,
0010
0200
0310
0001
,
1000
0001
1000
0000
0010
0000
0001
0000
,
0100
1010
0001
0100
,
0001
0100
0001
0000
1000
0000
0010
0000
,
1000
0010
1000
0000
0010
0000
0100
0000
,
0010
0100
0010
0000
1001
0000
0010
0000
,
1001
0010
0000
0000
;

//---------------dance-single - ----------------
#NOTEDATA:;
#CHARTNAME:;
#STEPSTYPE:dance-single;
#DESCRIPTION:;
#CHARTSTYLE:;
#DIFFICULTY:Easy;
#METER:3;
#RADARVALUES:0.207139,0.230335,0.067968,0.143487,0.000000,192.000000,183.000000,9.000000,19.000000,0.000000,0.000000,0.000000,0.000000,0.000000,0.207139,0.230335,0.067968,0.143487,0.000000,192.000000,183.000000,9.000000,19.000000,0.000000,0.000000,0.000000,0.000000,0.000000;
#CREDIT:;
#NOTES:
0000
0000
0000
0000
,
0000
0000
1000
0010
,
1000
1000
0010
0100
,
0010
0000
0001
1000
,
0001
0001
1000
0010
,
0100
0000
1000
1000
,
0001
0000
0010
1000
,
0020
0000
0000
0030
1000
0000
0001
0000
,
1000
0000
0100
0100
,
0020
0000
0000
0030
1000
0000
1000
0000
,
0001
0000
0010
0001
,
0020
0000
0031
0001
,
0001
0000
0020
0000
,
1030
0000
1000
1000
,
1000
1000
0010
0010
,
0010
0010
0001
0001
,
0001
0001
0001
0000
,
0010
0000
1000
1000
,
0010
0010
0100
0010
,
0110
0000
0001
0001
,
1000
0001
0010
0001
,
0011
0000
0100
1000
,
0100
0100
1000
0100
,
1100
0000
0010
0010
,
0001
0001
1000
0001
,
1001
0000
0020
1000
,
1030
0000
2000
0001
,
3001
0000
0020
0100
,
0130
0000
2002
0000
,
0000
3003
0000
0000
0010
0000
0010
0000
,
1000
1000
0001
0001
,
0002
0000
1003
1000
,
0010
0010
0100
0100
,
0020
0000
1030
1000
,
0001
0001
0010
0010
,
0002
0000
1003
1000
,
1000
0010
0100
0100
,
0020
0000
1030
1000
,
2000
0000
3001
0001
,
0002
0000
0013
0010
,
0020
0000
0031
0000
,
1001
0000
0010
0000
,
0010
0000
0010
0010
,
0010
0000
1000
0000
,
1000
0000
1000
1000
,
1000
0000
0001
1000
,
0001
0000
0100
0010
,
0100
0000
1000
0000
,
1000
0000
1000
0000
,
1000
1000
2000
0010
,
3001
0000
0002
1000
,
0013
0000
0010
1000
,
0010
0000
0100
0001
,
0100
0000
1000
0001
,
1000
0000
0010
1000
,
0020
0000
1030
1000
,
1000
0000
0001
0000
,
1001
0000
0001
0001
,
0001
0000
1000
1000
,
1000
0000
0010
0010
,
0010
0000
0110
0000
,
0110
0000
0000
0000
;

//---------------dance-single - ----------------
#NOTEDATA:;
#CHARTNAME:;
#STEPSTYPE:dance-single;
#DESCRIPTION:;
#CHARTSTYLE:;
#DIFFICULTY:Beginner;
#METER:1;
#RADARVALUES:0.056100,0.115639,0.000000,0.007552,0.000000,52.000000,52.000000,0.000000,1.000000,0.000000,0.000000,0.000000,0.000000,0.000000,0.056100,0.115639,0.000000,0.007552,0.000000,52.000000,52.000000,0.000000,1.000000,0.000000,0.000000,0.000000,0.000000,0.000000;
#CREDIT:;
#NOTES:
0000
0000
0000
0000
,
0000
0000
1000
0000
,
1000
0000
0001
0000
,
0001
0000
0010
0000
,
0010
0000
0100
0000
,
0100
0000
0000
0000
,
1000
0000
0000
0100
,
0000
0000
0010
0000
,
0000
0000
0001
0000
,
0000
0000
1000
0000
,
0000
0000
0010
0000
,
0000
0000
0001
0000
,
0000
0000
0000
0000
,
0000
0000
0001
0000
,
0000
0000
0100
0000
,
0000
0000
0010
0000
,
0000
0000
1000
0000
,
0000
0000
0001
0000
,
0000
0000
0000
0000
,
0200
0000
0000
0300
,
0000
0000
0001
0000
,
0000
0000
1000
0000
,
0000
0000
0010
0000
,
0000
0000
0001
0000
,
0000
0000
1000
0000
,
0000
0000
0010
0000
,
0000
0000
0100
0000
,
0000
0000
0001
0000
,
0000
0000
1000
0000
,
0000
0000
0000
0000
,
1000
0000
0000
0000
,
0000
0001
0000
0000
,
0000
0000
0000
0000
,
0000
0000
0010
0000
,
0000
0000
0000
0000
,
0000
0000
1000
0000
,
0000
0000
0000
0000
,
0000
0000
0100
0000
,
0000
0000
0001
0000
,
0000
0000
0010
0000
,
0000
0000
1000
0000
,
0000
0000
0100
0000
,
0000
0000
0000
0000
,
0000
0000
0001
0000
,
0000
0000
0000
0000
,
0000
0000
1000
0000
,
0000
0000
0000
0000
,
0000
0000
0010
0000
,
0000
0000
0000
0000
,
0000
0000
1000
0000
,
0000
0000
1000
0000
,
0000
0000
0001
0000
,
0000
0000
0000
0000
,
0000
0000
1000
0000
,
0000
0000
0001
0000
,
0000
0000
0010
0000
,
0000
0000
1000
0000
,
0000
0000
1000
0000
,
0000
0000
0000
0000
,
0000
0000
1000
0000
,
0000
0000
0000
0000
,
0000
0001
0000
0000
;
