#VERSION:0.83;
#TITLE:Brain Freeze;
#SUBTITLE:;
#ARTIST:Heiakim feat Amree;
#TITLETRANSLIT:;
#SUBTITLETRANSLIT:;
#ARTISTTRANSLIT:;
#GENRE:;
#ORIGIN:;
#CREDIT:;
#BANNER:AV.avi;
#BACKGROUND:jacket.jpg;
#PREVIEWVID:;
#JACKET:jacket.jpg;
#CDIMAGE:;
#DISCIMAGE:;
#LYRICSPATH:;
#CDTITLE:;
#MUSIC:Brain Freeze.mp3;
#OFFSET:-0.046000;
#SAMPLESTART:46.180000;
#SAMPLELENGTH:15.000000;
#SELECTABLE:YES;
#BPMS:0.000=102.000,
111.833=25.050,
112.000=204.000,
114.000=102.000,
176.000=51.000,
177.000=102.000,
178.000=204.000,
180.000=102.000,
243.500=25.250,
243.625=51.250,
244.000=204.001,
244.500=102.001;
#STOPS:113.000=0.300,
244.500=0.280;
#DELAYS:;
#WARPS:;
#TIMESIGNATURES:0.000=4=4;
#TICKCOUNTS:0.000=4;
#COMBOS:0.000=1;
#SPEEDS:0.000=1.000=0.000=0;
#SCROLLS:0.000=1.000;
#FAKES:;
#LABELS:0.000=Song Start;
#BGCHANGES:0.000=MV.avi=1.200=1=1=1=StretchRewind==CrossFade==,
2.000=MV.avi=1.000=0=0=1=====,
99999=-nosongbg-=1.000=0=0=0 // don't automatically add -songbackground-
;
#KEYSOUNDS:;
#ATTACKS:
;

//---------------dance-single - ----------------
#NOTEDATA:;
#CHARTNAME:;
#STEPSTYPE:dance-single;
#DESCRIPTION:;
#CHARTSTYLE:;
#DIFFICULTY:Challenge;
#METER:15;
#RADARVALUES:0.785761,0.856771,1.093268,0.260572,0.778882,971.000000,778.000000,193.000000,46.000000,0.000000,8.000000,0.000000,0.000000,0.000000,0.785761,0.856771,1.093268,0.260572,0.778882,971.000000,778.000000,193.000000,46.000000,0.000000,8.000000,0.000000,0.000000,0.000000;
#CREDIT:;
#NOTES:
0000
0000
0000
0000
,
0000
0000
0000
0000
,
0000
0000
0000
0000
,
0000
0000
0102
0000
,
1003
0000
0000
0000
0000
0000
0010
0000
0000
0100
0000
0000
0000
0000
0000
0001
0000
0000
0010
0000
0000
0000
0000
0000
1100
0000
0000
0000
0000
0000
0001
0000
0000
0000
0000
0000
0010
0000
0000
0000
0000
0000
0001
0000
0000
0000
1000
0000
,
0100
0000
0010
0000
0001
0000
0010
0100
1001
0000
0100
0000
0010
0000
0100
0000
,
0001
0000
0000
0000
0000
0000
1000
0000
0000
0100
0000
0000
0010
0000
0000
0000
0000
0000
0001
0000
0000
0000
0000
0000
0110
0000
0000
1000
0000
0000
0001
0000
0000
0010
0000
0000
0100
0000
0000
0000
0000
0000
0001
0000
0000
0000
0100
0000
,
1000
0000
0000
0000
0000
0000
0010
0000
0000
0100
0000
0000
0000
0000
0000
0000
0000
0000
0001
0000
0000
0000
0000
0000
0110
0000
0000
0000
1000
0000
0001
0000
0000
0000
0100
0000
0000
0000
0000
0000
0000
0000
0010
0000
0000
0000
1000
0000
,
0001
0000
0000
0000
0000
0000
0010
0000
0000
0100
0000
0000
1000
0000
0000
0000
0000
0000
0001
0000
0000
0000
0000
0000
0110
0000
0000
1000
0000
0000
0001
0000
0000
0010
0000
0000
0100
0000
0000
0000
0000
0000
0010
0000
0000
0000
1000
0000
,
0001
0000
0010
0100
0000
1000
0000
0100
0011
0000
1000
0000
0010
0000
0001
0000
,
0100
0000
1000
0000
0001
0000
0010
0000
0101
0000
0010
0000
1000
0001
0100
0000
,
0010
0000
0000
1000
0000
0000
0001
0000
0000
0010
0000
0000
1100
0000
0000
0001
0000
0000
0010
0000
0000
1000
0000
0010
,
0101
0000
0000
0000
0000
0000
0010
0000
0000
0000
0000
0000
1000
0000
0000
0000
0000
0000
0110
0000
0000
0000
0000
0000
1001
0000
0000
0010
0000
0000
0100
0000
0000
0001
0000
0000
1000
0000
0000
0000
0000
0000
0010
0000
0000
0000
0001
0000
,
1100
0000
0000
0000
0000
0000
0010
0000
0000
0000
0000
0000
0001
0000
0000
0100
0000
0000
1010
0000
0000
0001
0000
0000
1100
0000
0000
0000
0000
0000
0010
0000
0000
0000
1000
0000
0011
0000
0000
0000
0000
0000
0100
0000
0000
0000
0000
0000
,
1001
0000
0000
0010
0000
0000
1000
0000
0000
0110
0000
0000
0101
0000
0000
1000
0000
0000
0001
0000
0000
0010
0000
0001
,
1100
0000
0000
0000
0000
0000
0010
0000
0000
0000
0000
0000
0100
0000
0000
0010
0000
0000
1001
0000
0000
0100
0000
0000
1010
0000
0000
0000
0000
0000
0100
0000
0000
0000
0010
0000
1001
0000
0000
0000
0000
0000
0100
0000
0000
0000
1000
0000
,
0011
0000
0100
0000
1000
0000
0011
0000
0110
1000
0001
0100
0010
0000
1000
0000
,
0110
0000
0000
0000
0000
0000
0001
0000
0000
0000
0000
0000
1000
0000
0000
0100
0000
0000
1010
0000
0000
0001
0000
0000
0110
0000
0000
0000
0000
0000
0001
0000
0000
0000
1000
0000
0010
0000
0000
0000
0001
0000
0100
0000
0000
0000
0000
0000
,
2001
0000
0000
3010
0000
0000
0200
0000
0000
0301
0000
0000
0020
0000
0000
1030
0000
0000
0002
0000
0000
0103
0000
0010
,
2000
0000
0000
3010
0000
0000
0200
0000
0000
0301
0000
1000
0020
0000
1000
0100
0000
0100
0001
0000
0000
1030
0000
0100
,
1001
0000
0010
0100
0000
0001
1010
0000
0100
1000
0000
0100
0011
0000
0000
0100
0000
1000
0101
0000
0010
0100
0000
0000
,
1001
0000
0000
0001
0000
0000
0101
0000
0010
1000
0000
0001
0110
0000
0000
0001
0000
0010
1100
0000
0001
0010
0000
0000
,
2001
0100
0000
3010
0100
0001
2010
0100
0001
3010
0000
0001
2100
0000
0000
3001
0000
0010
0101
0000
0010
1000
0000
0001
,
0110
0000
0000
0001
0000
0010
1100
0000
0000
0001
0000
0100
1010
0000
0000
0100
0000
1000
0012
0000
0000
0203
0000
0000
,
1320
0000
0100
0032
0000
0100
1023
0000
0000
0230
0000
1000
0311
0000
0000
0010
0000
0100
1001
0000
0010
0100
0000
0000
,
1001
0000
0000
1000
0000
0000
1010
0000
0001
0100
0000
0010
1001
0000
0000
0001
0000
1000
0110
0000
1000
0001
0000
0000
,
2010
0000
3000
0100
0000
0000
1002
0000
0010
0000
0003
0100
2010
0000
0100
0001
3000
0000
0210
0000
0000
1000
0300
0100
,
0012
0000
0000
0100
0000
1000
0010
0000
0000
1003
0000
0000
0102
0000
1000
0010
0003
0100
2001
0100
0010
0100
3010
0100
,
0002
0000
0000
0000
0000
0000
1013
0000
0000
0000
0000
0000
0110
0000
0010
0001
0000
0010
1100
0000
0001
0100
0000
0010
,
1001
0000
0100
0010
0000
0000
1001
0000
0000
0010
0000
0001
1100
0000
0100
0010
0000
1000
0101
0000
0010
0100
0000
1000
,
0011
0000
1000
0100
0000
0000
1010
0000
0000
0001
0000
0010
0101
0000
1000
0010
0000
0001
0110
0000
1000
0001
0000
0100
,
1010
0000
0000
0000
0000
0000
0100
0000
0000
0000
1000
0000
0011
0000
0000
0000
0000
0000
0100
0000
0000
0000
0010
0000
1001
0000
0000
0000
1000
0000
0100
0000
0000
0010
0100
0000
1001
0000
0000
0000
0010
0000
0100
0000
0000
0000
1000
0000
,
0011
0000
0001
0100
0000
0001
1010
0000
0000
0001
0000
0010
1100
0000
0001
1000
0000
0010
0101
0000
1000
0010
0000
0001
,
1100
0000
0000
0000
0000
0000
0010
0000
0000
0000
0100
0000
0011
0000
0000
0000
0000
0000
0100
0000
0000
0000
0010
0000
1001
0000
0000
0000
1000
0000
0100
0000
0000
0010
0001
0000
1100
0000
0000
0000
0001
0000
0010
0000
0000
0000
0100
0000
,
1001
0000
0000
0100
0000
0010
1001
0000
0000
0100
0000
0001
1010
0000
0010
0100
0000
1000
0101
0000
0010
1000
0000
1000
,
0101
0000
0000
0010
0000
0000
1100
0000
0000
0010
0000
0100
1001
0000
0001
0010
0000
0100
1010
0000
0001
1000
0000
0100
,
0011
0000
0000
0000
0000
0000
0100
0000
0000
0000
0000
0000
1000
0000
0000
0000
0000
0000
0010
0000
0000
0000
0000
0000
1001
0000
0000
0000
0000
0000
0100
0000
0000
0010
0000
0000
0001
0000
0000
0000
0000
0000
0100
0000
0000
1000
0001
0000
,
0010
0000
0001
0100
0010
0000
1000
0100
0011
0000
0100
0000
1000
0000
0100
0000
,
0010
0000
0000
0000
0000
0000
0001
0000
0000
1000
0000
0000
0100
0000
0000
0000
0000
0000
0010
0000
0000
0000
0000
0000
1001
0000
0000
0100
0000
0000
0010
0000
0000
0000
0000
0000
0100
0000
0000
0000
0000
0000
0001
0000
0000
0000
0010
0000
,
1000
0000
0000
0000
0000
0000
0010
0000
0000
0100
0000
0000
0001
0000
0000
0000
0000
0000
0010
0000
0000
0000
0000
0000
1000
0000
0000
0000
0001
0000
0010
0000
0000
0000
0100
0000
0000
0000
0000
0000
0000
0000
1000
0000
0000
0000
0000
0000
,
0110
0000
0000
0000
0000
0000
0001
0000
0000
0010
0000
0000
0001
0000
0000
0000
0000
0000
1100
0000
0000
0000
0000
0000
0011
0000
0000
0100
0000
0000
1000
0000
0000
0100
0000
0000
0010
0000
0000
0000
0000
0000
0001
0000
0000
0000
1000
0000
,
0110
0000
0001
0100
1000
0100
0011
1000
0101
0000
0010
0000
0100
0000
1000
0000
,
0011
0000
0000
0100
0000
0000
1001
0000
0000
0010
0000
0000
1100
0000
0000
0010
0000
0000
0101
0000
0000
1000
0000
0100
,
0011
0000
0000
1000
0000
0000
0110
0000
0000
0001
0000
0000
1100
0000
0000
0010
0000
0000
1100
0000
0001
0010
0000
1000
,
0200
0010
0000
0000
,
1301
0000
0000
0000
0000
0000
0010
0000
0000
0000
0000
0000
1000
0000
0000
0000
0000
0000
0110
0000
0000
0000
0000
0000
1001
0000
0000
0010
0000
0000
0100
0000
0000
0001
0000
0000
1000
0000
0000
0000
0000
0000
0010
0000
0000
0000
0001
0000
,
1100
0000
0000
0000
0000
0000
0010
0000
0000
0000
0000
0000
0001
0000
0000
0100
0000
0000
1010
0000
0000
0001
0000
0000
1100
0000
0000
0000
0000
0000
0010
0000
0000
0000
1000
0000
0011
0000
0000
0000
0000
0000
0100
0000
0000
0000
0000
0000
,
1001
0000
0000
0010
0000
0000
1000
0000
0000
0110
0000
0000
0101
0000
0000
1000
0000
0000
0001
0000
0000
0010
0000
0001
,
1100
0000
0000
0000
0000
0000
0010
0000
0000
0000
0000
0000
0100
0000
0000
0010
0000
0000
1001
0000
0000
0100
0000
0000
1010
0000
0000
0000
0000
0000
0100
0000
0000
0000
0010
0000
1001
0000
0000
0000
0000
0000
0100
0000
0000
0000
1000
0000
,
0011
0000
0100
0000
1000
0000
0011
0000
0110
1000
0001
0100
0010
0000
1000
0000
,
0110
0000
0000
0000
0000
0000
0001
0000
0000
0000
0000
0000
1000
0000
0000
0100
0000
0000
1010
0000
0000
0001
0000
0000
0110
0000
0000
0000
0000
0000
0001
0000
0000
0000
1000
0000
0010
0000
0000
0000
0001
0000
0100
0000
0000
0000
0000
0000
,
2001
0000
0000
3010
0000
0000
0200
0000
0000
0301
0000
0000
0020
0000
0000
1030
0000
0000
0002
0000
0000
0103
0000
0010
,
2000
0000
0000
3010
0000
0000
0200
0000
0000
0301
0000
1000
0020
0000
1000
0100
0000
0100
0001
0000
0000
1030
0000
0100
,
1001
0000
0010
0100
0000
0001
1010
0000
0100
1000
0000
0100
0011
0000
0000
0100
0000
1000
0101
0000
0010
0100
0000
0000
,
1001
0000
0000
0001
0000
0000
0101
0000
0010
1000
0000
0001
0110
0000
0000
0001
0000
0010
1100
0000
0001
0010
0000
0000
,
2001
0100
0000
3010
0100
0001
2010
0100
0001
3010
0000
0001
2100
0000
0000
3001
0000
0010
0101
0000
0010
1000
0000
0001
,
0110
0000
0000
0001
0000
0010
1100
0000
0000
0001
0000
0100
1010
0000
0000
0100
0000
1000
0011
0000
0000
0100
0000
0000
,
1020
0000
0100
0032
0000
0100
1023
0000
0000
0230
0000
1000
0311
0000
0000
0010
0000
0100
1001
0000
0010
0100
0000
0000
,
1001
0000
0000
1000
0000
0000
1010
0000
0001
0100
0000
0010
1001
0000
0000
0001
0000
1000
0110
0000
1000
0001
0000
0000
,
2010
0000
3000
0100
0000
0000
1002
0000
0010
0000
0003
0100
2010
0000
0100
0001
3000
0000
0210
0000
0000
1000
0300
0100
,
0012
0000
0000
0000
0000
0000
0000
0000
0000
0000
0000
0000
0000
0000
0000
0000
0000
0000
0000
0000
0000
0000
0000
0000
0100
0000
0000
0000
0000
0000
0000
0000
0000
0000
0000
0000
0000
0000
0000
0000
1000
0000
0000
0000
0000
0000
0000
0000
0010
0000
0000
0000
0000
0000
0000
0000
0000
0000
0000
0000
0000
0000
0000
0000
0000
0000
0000
0000
0000
0000
0000
0000
1003
0000
0000
0000
0000
0000
0000
0000
0000
0000
0000
0000
0000
0000
0000
0000
0000
0000
0000
0000
0000
0000
0000
0000
0101
0000
0000
0000
0000
0000
0000
0000
0000
0000
0000
0000
0000
0000
0000
0000
1000
0000
0000
0000
0000
0000
0000
0000
0010
0000
0000
0000
0000
0000
0000
0000
0000
0000
0000
0000
0000
0000
0000
0000
0100
0000
0000
0000
0000
0000
0000
0000
0001
0000
0000
0000
0000
0000
0000
0000
0000
0000
0000
0000
0000
0000
0000
0000
0000
0000
0000
0000
0000
0000
0000
0000
0010
0000
0000
0000
0000
0000
0200
0000
0000
0000
0000
0000
0000
0000
0000
0000
0000
0000
0000
0000
0000
0000
0000
0000
,
0000
0000
0000
1310
0000
0000
0110
0000
0010
0001
0000
0010
1100
0000
0001
0100
0000
0010
1001
0000
0100
0010
0000
0000
,
1001
0000
0000
0100
0000
0000
0010
0000
0000
0001
0010
0000
1100
0000
0000
0000
0100
0000
0010
0000
0000
0001
1000
0000
0101
0000
0000
0000
0010
0000
0100
0000
0000
0000
1000
0000
0011
0000
0000
0000
1000
0000
0100
0000
0000
0000
0000
0000
,
1010
0000
0000
0001
0000
0010
0101
0000
1000
0010
0000
0001
0110
0000
1000
0001
0000
0100
1010
0000
0000
0100
0000
1000
,
0011
0000
0000
1000
0000
0000
0100
0000
0000
0010
0100
0000
1001
0000
0000
0000
1000
0000
0100
0000
0000
0010
0100
0000
1001
0000
0000
0000
0010
0000
0100
0000
0000
0000
1000
0000
0011
0000
0000
0000
0001
0000
0100
0000
0000
0000
0001
0000
,
1010
0000
0000
0000
0000
0000
0001
0000
0000
0000
0010
0000
1100
0000
0000
0010
0001
0000
1000
0000
0000
0010
1000
0000
0101
0000
0000
0000
1000
0000
0010
0000
0000
0000
0001
0000
1100
0000
0000
0000
0000
0000
0010
0000
0000
0000
0100
0000
,
0011
0000
0000
1000
0000
0000
0100
0000
0000
0010
0100
0000
1001
0000
0000
0000
1000
0000
0100
0000
0000
0010
0001
0000
1100
0000
0000
0000
0001
0000
0010
0000
0000
0000
0100
0000
1001
0000
0000
0000
0000
0000
0100
0000
0000
0000
0010
0000
,
1001
0000
0000
0100
0000
0001
1010
0000
0010
0100
0000
1000
0101
0000
0010
1000
0000
1000
0101
0000
0000
0010
0000
0000
,
1100
0000
0000
0001
0000
0000
0010
0000
0000
0100
0010
0000
1001
0000
0000
0000
0100
0000
0010
0000
0000
0001
0100
0000
1010
0000
0000
0000
0001
0000
1000
0000
0000
0000
0100
0000
0011
0000
0000
0000
0000
0000
0000
0000
0000
0000
0000
0000
;

//---------------dance-single - Copied from----------------
#NOTEDATA:;
#CHARTNAME:Copied from;
#STEPSTYPE:dance-single;
#DESCRIPTION:Copied from;
#CHARTSTYLE:;
#DIFFICULTY:Beginner;
#METER:2;
#RADARVALUES:0.165083,0.194721,0.039652,0.005665,0.000000,204.000000,197.000000,7.000000,1.000000,0.000000,0.000000,0.000000,0.000000,0.000000,0.165083,0.194721,0.039652,0.005665,0.000000,204.000000,197.000000,7.000000,1.000000,0.000000,0.000000,0.000000,0.000000,0.000000;
#CREDIT:Copied from;
#NOTES:
0000
0000
0000
0000
,
0000
0000
0000
0000
,
0000
0000
0000
0000
,
0000
0000
0000
0000
,
1000
0000
0001
0000
,
0100
0000
0010
0000
,
0100
0000
1000
0000
,
0010
0000
0001
0000
,
0100
0000
0010
0000
,
1000
0000
0010
0000
,
0100
0000
0010
0000
,
0001
0000
0100
0000
,
1001
0100
0010
0000
,
1001
0010
0100
0000
,
0011
0100
1000
0000
,
1100
0010
0001
0000
,
0101
1000
0010
0000
,
0110
0001
0100
0000
,
1000
0001
1000
0001
,
1000
0001
1000
0001
,
0100
0100
0010
1000
,
0001
0100
0010
0100
,
1000
1000
1000
0100
,
0010
0001
0100
0010
,
0001
1000
0100
0010
,
0001
0100
0010
1000
,
0001
0100
0010
1000
,
0001
0100
0010
1000
,
0000
0000
0000
1000
,
0100
0010
1000
0001
,
0100
0010
1000
0001
,
0100
0010
1000
0001
,
0010
0100
1000
0010
,
0001
0100
0001
1000
,
0010
0100
0001
1000
,
0100
0010
1000
0001
,
0100
0000
0010
0000
,
1000
0000
0001
0000
,
0100
0000
0010
0000
,
1000
0000
0100
0000
,
0100
0000
0010
0000
,
0001
0000
0100
0000
,
1000
0000
0010
0000
,
0100
0000
0001
0000
,
2000
0000
0000
0000
,
3000
0100
0010
0000
,
0001
0010
0100
0000
,
1000
0001
1000
0000
,
0100
0001
0100
0000
,
0010
0001
1000
0000
,
0100
1000
0010
0000
,
0100
0001
1000
0010
,
0100
0001
1000
0010
,
0100
0000
0001
0000
,
0100
0000
0010
0000
,
1000
1000
1000
0000
,
0010
0000
0100
0000
,
0001
1000
0100
0000
,
0010
0001
0100
0000
,
1000
0100
0010
0001
,
0100
0010
1000
0000
,
0000
0000
0001
0100
,
0010
1000
0001
0100
,
0010
1000
0100
0010
,
0001
1000
0010
0100
,
0001
1000
0010
0100
,
0001
1000
0010
0100
,
0001
0010
0100
1000
,
0010
0100
0001
1001
;

//---------------dance-single - Copied from Copied f----------------
#NOTEDATA:;
#CHARTNAME:Copied from Copied f;
#STEPSTYPE:dance-single;
#DESCRIPTION:Copied from Copied f;
#CHARTSTYLE:;
#DIFFICULTY:Easy;
#METER:5;
#RADARVALUES:0.215255,0.253156,0.192596,0.022658,0.000000,266.000000,232.000000,34.000000,4.000000,0.000000,0.000000,0.000000,0.000000,0.000000,0.215255,0.253156,0.192596,0.022658,0.000000,266.000000,232.000000,34.000000,4.000000,0.000000,0.000000,0.000000,0.000000,0.000000;
#CREDIT:Copied from Copied f;
#NOTES:
0000
0000
0000
0000
,
0000
0000
0000
0000
,
0000
0000
0000
0000
,
0000
0000
0000
0000
,
1000
0001
0110
0000
,
0001
0010
1001
0000
,
0100
1000
0011
0000
,
0010
0100
1001
0000
,
0001
0010
1100
0000
,
0100
1000
0101
0000
,
0010
1000
0101
0000
,
0001
0010
0110
0000
,
1000
0100
1000
0000
,
0100
0010
0001
0000
,
0100
1000
0010
0000
,
0001
0010
0100
0000
,
1000
0001
0100
0000
,
0010
0100
0001
0000
,
1000
0001
1000
0001
,
1000
0001
0100
0010
,
1000
0100
1000
0010
,
0100
0001
1000
0010
,
1001
1001
1001
0100
,
0010
0001
0100
0010
,
1000
1001
0010
0100
,
0001
0010
0100
0001
,
1000
0001
0100
0010
,
1000
1000
0001
1000
,
0000
1001
0001
0100
,
1000
0010
0100
1000
,
0010
0001
0100
0010
,
1000
0100
0010
0001
,
1000
0100
0010
0001
,
0010
0100
1000
0100
,
0010
0001
1000
0010
,
0100
0010
1000
0001
,
0001
0100
1001
0000
,
0100
1000
0011
0000
,
0100
1000
1001
0000
,
0010
0100
1001
0000
,
0100
0010
0011
0000
,
1000
0001
0101
0000
,
1000
0010
0101
0000
,
0100
0010
0110
0000
,
2002
0000
0000
0000
,
3003
0000
0110
0000
,
1000
0010
0101
0000
,
1000
0001
0101
0000
,
0010
0100
0011
0000
,
0100
1000
1010
0000
,
0100
0001
0011
0000
,
1000
0001
1000
0001
,
1000
0001
1000
0001
,
0100
1000
0100
0010
,
0001
0100
0010
0100
,
1001
0110
1001
0100
,
0010
1000
0001
0100
,
0010
1001
0010
0100
,
1000
0010
0001
0100
,
2001
0010
0001
3010
,
0100
0010
1000
0000
,
0000
0000
1000
0000
0010
0000
0100
0001
,
0100
0000
0010
0000
1000
0000
0100
1000
,
0001
0000
0010
0000
0100
0000
0001
1000
,
0010
0000
0001
0000
0100
0000
1000
0010
,
0100
0000
0001
0000
0010
0000
0100
0001
,
0100
0000
1000
0000
0010
0000
0100
0001
,
1000
0000
0010
0000
0100
0000
0001
1000
,
0010
0000
0000
0000
0000
0000
0000
0000
0000
0000
0000
0000
0000
0000
0000
0000
0000
0000
0000
0000
0000
0000
0000
0000
0000
0000
0000
0000
0000
0000
0000
0000
0000
0000
0000
0000
0000
0000
0000
0000
0000
0000
0000
0000
0000
0000
0000
0000
0001
0000
0000
0000
0000
0000
0000
0000
0000
0000
0000
0000
0000
0000
0000
0000
0000
0000
0000
0000
0000
0000
0000
0000
0100
0000
0000
0000
0000
0000
0000
0000
0000
0000
0000
0000
0000
0000
0000
0000
0000
0000
0000
0000
0000
0000
0000
0000
0010
0000
0000
0000
0000
0000
0000
0000
0000
0000
0000
0000
0000
0000
0000
0000
0000
0000
0000
0000
0000
0000
0000
0000
0000
0000
0000
0000
0000
0000
0000
0000
0000
0000
0000
0000
0000
0000
0000
0000
0000
0000
0000
0000
0000
0000
0000
0000
2001
3000
0000
0000
0000
0000
0000
0000
0000
0000
0000
0000
0000
0000
0000
0000
0000
0000
0000
0000
0000
0000
0000
0000
0000
0000
0000
0000
0000
0000
0000
0000
0000
0000
0000
0000
0000
0000
0000
0000
0000
0000
0000
0000
0000
0000
0000
0000
;

//---------------dance-single - Copied from Copied f----------------
#NOTEDATA:;
#CHARTNAME:Copied from Copied f;
#STEPSTYPE:dance-single;
#DESCRIPTION:Copied from Copied f;
#CHARTSTYLE:;
#DIFFICULTY:Medium;
#METER:8;
#RADARVALUES:0.304270,0.311553,0.345541,0.022658,0.000000,376.000000,315.000000,61.000000,4.000000,0.000000,0.000000,0.000000,0.000000,0.000000,0.304270,0.311553,0.345541,0.022658,0.000000,376.000000,315.000000,61.000000,4.000000,0.000000,0.000000,0.000000,0.000000,0.000000;
#CREDIT:Copied from Copied f;
#NOTES:
0000
0000
0000
0000
,
0000
0000
0000
0000
,
0000
0000
0000
0000
,
0000
0000
0000
0000
,
1001
0000
0010
0100
1001
0000
0000
0000
,
0110
0000
0001
0010
1100
0000
0000
0000
,
1001
0000
0010
0100
0011
0000
0000
0000
,
1001
0000
0100
1000
0011
0000
0000
0000
,
0110
0000
1000
0001
0110
0000
0000
0000
,
1001
0000
0010
0100
0011
0000
0000
0000
,
1010
0000
0100
0010
1001
0000
0000
0000
,
0110
0000
1000
0001
0110
0000
0000
0000
,
1001
0000
0100
0010
1001
0000
0010
0000
,
0100
0000
0001
1000
0110
0000
0001
0000
,
1000
0000
0100
1000
0110
0000
0001
0000
,
0010
0000
0100
0001
1001
0000
0010
0000
,
0100
0000
1000
0010
0110
0000
0001
0000
,
1000
0000
0010
0100
0101
0000
0010
0000
,
1000
0001
0100
0000
1000
0010
0100
0000
,
1000
0001
0100
0000
0010
1000
0001
0100
,
0010
0001
0010
0100
,
1000
0000
0010
0000
0100
0001
0100
0000
,
2010
0001
3100
0010
,
0100
0001
1000
0010
,
0100
1001
0010
0100
,
0001
0010
1000
0000
0010
0000
0100
0000
,
0001
0010
0100
1000
,
0010
0100
0001
0100
0010
0100
0001
0100
,
0000
0000
1001
0000
0010
1000
0001
0100
,
0010
0100
1000
0001
0010
0100
1000
0010
,
0001
0000
0100
0010
1000
0001
0100
0010
,
1000
0000
0100
0010
0001
0010
0100
0001
,
1000
0000
0100
0010
1000
0010
0001
0100
,
0010
0000
1000
0100
0010
1000
0001
0010
,
0100
0000
0001
0010
0100
1000
0100
0010
,
0001
0000
0100
0010
1000
0010
0100
0000
,
1001
0000
0010
1000
0110
0000
0000
0000
,
1001
0000
0010
0100
0101
0000
0000
0000
,
1010
0000
1000
0001
0110
0000
0000
0000
,
0011
0000
0100
1000
0000
0000
0000
0000
,
1001
0000
0100
0010
1001
0000
0000
0000
,
1100
0000
0010
0100
0011
0000
0000
0000
,
1001
0000
0010
0100
1001
0000
0000
0000
,
0110
0000
0001
0010
1000
0000
0001
0000
,
2010
0000
0000
0000
,
3010
0000
0101
0010
,
1001
0000
0100
0010
1100
0000
0010
0000
,
1001
0000
0010
0100
0011
0000
1000
0000
,
0101
0000
1000
0010
0110
0000
0001
0000
,
1001
0000
0010
0100
1100
0000
0010
0000
,
1001
0000
0100
0010
1001
0000
0010
0000
,
1100
0001
1001
0010
,
1100
0010
1001
0010
,
1001
0010
0100
0001
0100
0000
0010
0000
,
1000
0100
0010
0100
1000
0000
0010
0000
,
2001
0100
3010
0001
,
0100
0010
1000
0001
0100
0000
0010
0000
,
1000
0000
0001
0010
0100
0000
0001
0000
,
1000
0000
0100
0010
1000
0000
0001
0000
,
2010
0010
0001
0010
,
0100
0010
0001
3100
,
0000
1001
0010
0000
0010
0000
0100
0000
,
0001
0000
1000
0000
0100
0010
1000
0001
,
0010
0100
0010
0000
1000
0000
0001
0000
,
0100
0010
1000
0001
,
0100
1000
0010
0000
0001
0000
0100
0000
,
0010
0000
1000
0000
0100
0010
0100
1000
,
0010
0001
0100
0000
1000
0000
0010
0000
,
0100
0001
1000
0011
;

//---------------dance-single - ----------------
#NOTEDATA:;
#CHARTNAME:;
#STEPSTYPE:dance-single;
#DESCRIPTION:;
#CHARTSTYLE:;
#DIFFICULTY:Hard;
#METER:12;
#RADARVALUES:0.500912,0.554423,0.232249,0.096298,0.472994,619.000000,578.000000,41.000000,17.000000,0.000000,0.000000,0.000000,0.000000,0.000000,0.500912,0.554423,0.232249,0.096298,0.472994,619.000000,578.000000,41.000000,17.000000,0.000000,0.000000,0.000000,0.000000,0.000000;
#CREDIT:;
#NOTES:
// measure 0
0000
0000
0000
0000
,  // measure 1
0000
0000
0000
0000
,  // measure 2
0000
0000
0000
0000
,  // measure 3
0000
0000
0000
0000
,  // measure 4
0100
0000
1000
0100
1100
0000
0100
0000
,  // measure 5
0010
0000
0001
0010
0011
0000
0001
0000
,  // measure 6
1000
0000
0100
1000
1100
0000
0010
0000
,  // measure 7
0100
0000
0001
0000
1001
0100
0001
0100
,  // measure 8
0010
0000
0010
0100
0110
0000
0001
0000
,  // measure 9
1000
0000
0010
1000
1010
0000
0001
0000
,  // measure 10
0010
0000
0100
1000
1100
0000
0010
0000
,  // measure 11
0100
0000
0001
0010
0011
0100
0001
1000
,  // measure 12
0020
0000
0000
0000
0130
0000
1000
0000
0010
0100
0000
1000
0000
0000
0001
0000
,  // measure 13
0010
0000
0001
0000
1000
0100
0000
1000
0000
0000
0001
0000
0100
0000
0001
0000
,  // measure 14
0010
0100
1000
0010
0200
0000
0301
1000
,  // measure 15
0100
0000
0000
0000
0010
0001
0000
0010
0000
0000
0100
0000
1000
0000
0001
0000
,  // measure 16
0200
0000
0000
0000
0310
0000
1000
0000
0001
0010
0000
0100
0000
0000
0010
0000
,  // measure 17
0001
0000
1000
0000
0010
0100
0000
0001
0000
0000
0000
0000
0100
0000
1000
0000
,  // measure 18
1001
0010
0110
1000
1010
0001
0101
1000
,  // measure 19
1010
0001
1001
0100
1100
0010
0100
0001
,  // measure 20
0100
0000
0000
0000
0000
0000
0000
0000
0000
0000
0000
0000
0000
0000
0000
0000
0010
0000
0000
0000
0000
0000
0000
0000
1000
0000
0000
0000
0000
0000
0000
0000
0000
0000
0000
0000
0000
0000
0000
0000
0000
0000
0010
0000
0000
0000
0000
0000
0100
0000
0000
0000
0000
0000
0000
0000
0000
0000
0000
0000
0000
0000
0000
0000
0000
0000
0001
0000
0000
0000
0000
0000
0100
0000
0000
0000
0000
0000
0000
0000
0000
0000
0000
0000
0000
0000
0000
0000
0000
0000
0000
0000
0000
0000
0000
0000
1000
0000
0000
0000
0000
0000
0000
0000
0000
0000
0000
0000
0000
0000
0000
0000
0000
0000
0000
0000
0000
0000
0000
0000
0001
0000
0000
0000
0000
0000
0000
0000
0000
0000
0000
0000
0010
0000
0000
0000
0000
0000
0000
0000
0000
0000
0000
0000
0000
0000
0000
0000
0000
0000
0000
0000
0000
0000
0000
0000
0010
0000
0000
0000
0000
0000
0000
0000
0000
0000
0000
0000
0100
0000
0000
0000
0000
0000
0000
0000
0000
0000
0000
0000
0000
0000
0000
0000
0000
0000
0000
0000
0000
0000
0000
0000
,  // measure 21
0001
0000
0000
0000
0000
0000
0001
0000
0000
0000
0000
0000
0001
0000
0000
0010
0000
0000
0100
0000
0000
0000
0000
0000
1000
0000
0000
0000
0000
0000
0010
0000
0000
0000
0100
0000
0001
0000
0000
0000
0100
0000
0010
0000
0000
0000
1000
0000
,  // measure 22
0002
0000
0000
0000
0000
0000
0003
0000
0000
0000
0000
0000
0002
0000
0000
0000
0000
0000
0003
0000
0000
0000
0000
0000
0002
0000
0000
0000
0000
0000
0003
0000
0000
0010
0000
0000
0000
0000
0000
0000
1000
0000
0010
0000
0000
0000
1000
0000
,  // measure 23
0010
0000
0000
0000
0000
0000
0001
0000
0000
0000
0100
0000
0010
0000
0000
0000
0000
0000
0100
0000
0000
0000
0000
0000
0001
0000
0000
0000
0000
0000
0010
0000
0000
0100
0000
0000
1000
0000
0000
0000
0000
0000
0010
0000
0000
0000
0000
0000
,  // measure 24
0100
0000
0000
0000
1000
0000
0010
0000
0000
0000
0000
0000
0110
0000
0000
0000
0000
0000
1000
0000
0000
0000
0000
0000
0010
0000
0000
0000
0000
0000
0001
0000
0000
0010
0000
0000
0000
0000
0000
0010
0000
0000
0100
0000
0000
0000
0000
0000
,  // measure 25
1000
0000
0000
0000
0000
0000
1000
0000
0000
0000
0000
0000
1000
0000
0000
0010
0000
0000
0100
0000
0000
0000
0000
0000
1000
0000
0000
0000
0000
0000
0010
0000
0000
0000
0001
0000
0100
0000
0000
0000
0010
0000
1000
0000
0000
0000
0000
0000
,  // measure 26
0010
0000
0010
0000
0100
0001
0000
1000
0000
0010
0000
0000
0100
0000
0001
0010
,  // measure 27
0100
0000
0100
1000
0010
0000
0100
0000
0001
0000
1000
0100
0010
0000
0001
0000
,  // measure 28
0000
0000
0000
0000
0000
0000
1010
0000
0000
0000
0000
0000
0001
0000
0100
0000
0000
0001
0000
0000
1000
0100
0000
0100
,  // measure 29
0010
0000
0000
0010
0000
0000
0001
0000
0000
1000
0000
0010
0100
0000
0100
0000
0000
0010
0000
0000
1000
0001
0000
0001
,  // measure 30
0100
0000
0000
0010
0000
0000
1000
0000
0000
1000
0000
0001
0100
0000
0100
0000
0000
0010
0100
0000
0100
0001
0000
0001
,  // measure 31
1000
0000
0000
1000
0000
0000
0010
0000
0000
0100
0000
0100
0001
0000
0001
0000
0000
1000
0010
0000
0100
0010
0000
0000
,  // measure 32
0110
0000
0000
0001
0000
0000
1000
0000
0000
0010
0000
0010
0100
0000
0001
0000
0000
1000
0100
0000
0100
0010
0000
0010
,  // measure 33
0001
0000
0000
0100
0000
0000
0010
0000
0000
0100
0000
0001
1000
0000
0010
0000
0000
0010
0100
0000
0100
0001
0000
0001
,  // measure 34
1000
0000
0000
0100
0000
0000
0010
0000
0000
0100
0000
1000
0001
0000
1000
0000
0000
0010
0100
0000
0100
0001
0000
0001
,  // measure 35
0010
0000
0000
0001
0000
0000
1000
0000
0000
0001
0000
0010
0100
0000
1000
0000
0000
0010
1000
0000
1000
0001
0000
0001
,  // measure 36
0010
0000
0001
0000
0010
0000
0100
0000
0010
0000
0001
0010
0000
0000
0100
0000
,  // measure 37
1000
0000
0010
0000
0100
0000
0001
1000
0000
0000
0000
0000
0001
0000
0000
0000
,  // measure 38
1001
0000
0001
0100
0010
0000
0001
0000
1000
0010
0000
0100
0000
0000
0001
0000
,  // measure 39
1000
0000
0100
1000
0000
0000
0100
0000
0010
0001
0010
0001
0000
0000
1000
0000
,  // measure 40
1100
0000
0010
0100
0010
0000
1000
0000
0001
0010
0100
0010
0001
0000
0100
0000
,  // measure 41
1000
0000
0010
0100
0000
0010
0000
1000
0001
0000
1000
0000
0010
0100
0001
0000
,  // measure 42
0010
0000
0100
1000
0001
0000
0100
0000
0010
0000
1000
0001
0010
0000
0100
0000
,  // measure 43
0010
0000
0000
0000
0100
0001
0000
0010
0000
0000
0001
0000
1000
0100
0010
0100
,  // measure 44
2002
0003
0001
0000
0000
0000
0000
0000
,  // measure 45
3001
0000
0000
0000
0001
0000
0100
0000
0010
0100
0000
0001
0000
0000
1000
0000
,  // measure 46
0100
0000
1000
0000
0001
0010
0000
0100
0000
0000
0000
0000
0010
0000
0100
0000
,  // measure 47
0001
1000
0010
0100
0002
0000
0103
0100
,  // measure 48
0001
0000
0000
0000
0010
1000
0000
0001
0000
0000
0010
0000
0100
0000
0010
0000
,  // measure 49
0002
0000
0000
0000
0013
0000
1000
0000
0001
0100
0000
0010
0000
0000
0001
0000
,  // measure 50
1000
0000
0010
0000
1000
0001
0000
0010
0000
0000
0000
0000
0100
0000
1000
0000
,  // measure 51
1010
0000
0001
0000
0011
0000
1000
0000
1100
0000
0001
0000
0011
0000
1000
0100
,  // measure 52
0010
0000
0000
0000
0000
0000
0001
0000
0000
0000
0000
0000
0001
0000
0000
0010
0000
0000
0100
0000
0000
0000
0100
0000
0010
0000
0000
0000
0010
0000
0001
0000
0000
0000
0001
0000
1000
0000
0000
0000
0000
0000
0010
0000
0000
0000
0000
0000
,  // measure 53
0100
0000
0000
0000
0010
0000
1000
0000
0000
0000
1000
0000
0100
0000
0000
0000
0100
0000
0010
0000
0000
0000
0000
0000
0001
0000
0000
0000
0000
0000
1000
0000
0000
0010
0000
0000
0000
0000
0000
0001
0000
0000
1000
0000
0000
0000
0000
0000
,  // measure 54
0110
0000
0000
0100
0000
0000
0010
0000
1000
0010
0000
0000
1000
0000
0000
0010
0000
0001
1000
0000
1000
0100
0000
0000
,  // measure 55
0020
0000
0030
0000
0020
0000
0030
0000
0020
0000
0030
0001
0000
0001
0100
0001
,  // measure 56
0000
0000
0010
0001
1000
0000
0100
0000
0010
0000
0001
1000
0010
0000
1000
0000
,  // measure 57
0001
0000
0010
0000
0011
0000
0100
0000
1000
0000
1000
0001
0000
0001
0100
0000
,  // measure 58
0001
0000
0000
0000
0000
0000
0001
0000
0000
0000
0000
0000
0001
0000
0000
0010
0000
0000
0100
0000
0000
0000
0000
0000
0010
0000
0000
0000
0000
0000
0100
0000
0000
0000
0010
0000
1000
0000
0000
0000
1000
0000
0010
0000
0000
0000
0000
0000
,  // measure 59
0110
0011
1100
1100
,  // measure 60
1001
0100
1001
0010
1001
0100
1001
0010
,  // measure 61
0000
0000
0000
0000
0000
0000
1001
0000
0000
0000
0000
0000
0010
0000
0000
1000
0000
0000
0000
0000
0000
0000
0010
0000
0000
0000
0000
0000
0001
0000
0100
0000
0000
0000
0100
0000
0010
0000
0000
0000
0000
0000
1000
0000
0000
0000
0000
0000
,  // measure 62
0001
0000
0000
0100
0000
0010
1000
0000
1000
0000
0000
0010
0000
0000
0100
0001
0000
0001
1000
0000
0000
0001
0000
0000
,  // measure 63
1000
0000
0000
1000
0000
0100
0010
0000
0100
0000
0000
0001
0000
0000
1000
0001
0000
0001
0100
0000
0000
0010
0000
0000
,  // measure 64
0001
0000
0000
0100
0000
0010
0100
0000
0001
0000
0000
1000
0010
0000
0100
0010
0000
0001
0100
0000
0000
0010
0000
0000
,  // measure 65
0001
0000
0000
0100
0000
1000
0010
0000
0100
0000
0000
0001
0000
0001
0000
0100
0000
0010
1000
0000
0000
1000
0000
0000
,  // measure 66
0001
0000
0000
0010
0000
0100
0001
0000
0001
0000
0000
0010
1000
0000
1000
0100
0000
0100
0010
0000
0000
0010
0000
0000
,  // measure 67
0001
0000
0000
0010
0000
0010
0100
0000
0100
0000
0000
1000
0001
0000
0001
0010
0000
0010
0100
0000
0000
1000
0000
0000
,  // measure 68
0010
0000
0000
0100
0000
0100
0001
0000
0001
0010
0000
0010
0100
0000
0100
1000
0000
0001
2000
0000
0000
0000
0000
0000
,  // measure 69
0000
3000
1001
0000
0000
0000
0002
0000
,  // measure 70
0000
0000
0000
0003
1001
0000
0000
0000
0000
0000
0000
0000
0020
0000
0000
0000
,  // measure 71
0000
0000
0000
0030
0110
0000
0000
0000
0000
0000
0000
0000
0200
0000
0000
0000
,  // measure 72
0000
0000
0000
0300
0110
0000
0000
0000
0110
0000
0000
0000
0000
0000
0000
0000
;
