#VERSION:0.83;
#TITLE:Boy With Luv;
#SUBTITLE:;
#ARTIST:BTS, Halsey;
#TITLETRANSLIT:;
#SUBTITLETRANSLIT:;
#ARTISTTRANSLIT:;
#GENRE:;
#ORIGIN:;
#CREDIT:;
#BANNER:AV.avi;
#BACKGROUND:bg.png;
#PREVIEWVID:;
#JACKET:jacket.jpg;
#CDIMAGE:;
#DISCIMAGE:;
#LYRICSPATH:;
#CDTITLE:;
#MUSIC:audio.ogg;
#OFFSET:-0.195000;
#SAMPLESTART:64.338127;
#SAMPLELENGTH:14.999992;
#SELECTABLE:YES;
#BPMS:0.000=119.980;
#STOPS:;
#DELAYS:;
#WARPS:;
#TIMESIGNATURES:0.000=4=4;
#TICKCOUNTS:0.000=4;
#COMBOS:0.000=1;
#SPEEDS:0.000=1.000=0.000=0;
#SCROLLS:0.000=1.000;
#FAKES:;
#LABELS:0.000=Song Start;
#BGCHANGES:0.000=MV.avi=1.000=1=0=1===CrossFade==,
99999=-nosongbg-=1.000=0=0=0 // don't automatically add -songbackground-
;
#KEYSOUNDS:;
#ATTACKS:
;

//---------------dance-single - ----------------
#NOTEDATA:;
#CHARTNAME:;
#STEPSTYPE:dance-single;
#DESCRIPTION:;
#CHARTSTYLE:;
#DIFFICULTY:Challenge;
#METER:14;
#RADARVALUES:0.703483,0.865035,1.210545,1.367468,0.474504,659.000000,497.000000,162.000000,183.000000,0.000000,43.000000,0.000000,0.000000,0.000000,0.703483,0.865035,1.210545,1.367468,0.474504,659.000000,497.000000,162.000000,183.000000,0.000000,43.000000,0.000000,0.000000,0.000000;
#CREDIT:;
#NOTES:
// measure 0
0200
0000
0300
0200
0000
0000
0320
0000
0000
0230
0000
0000
0320
0000
0000
0030
,  // measure 1
0001
0001
0000
0000
0000
0010
0000
0010
,  // measure 2
0200
0000
0300
0200
0000
0000
0320
0000
0000
0230
0000
0000
0320
0000
0000
0000
,  // measure 3
0031
0000
0001
0000
0000
0000
0000
0000
0010
0000
0000
0100
0000
0000
0001
0000
,  // measure 4
0200
0000
0300
0200
0000
0000
0320
0000
0000
0230
0000
0000
0320
0000
0000
0030
,  // measure 5
1000
1000
0000
0000
0000
0001
0000
0001
,  // measure 6
0200
0000
0300
0200
0000
0000
0320
0000
0000
0230
0000
0000
0320
0000
0000
0000
,  // measure 7
0031
0000
0001
0000
0000
0000
0000
0000
0010
0000
0000
0100
0000
0000
1000
0000
,  // measure 8
0010
0000
0100
0000
0001
0000
0010
0000
1000
0000
0001
0000
0100
0000
0000
0010
0000
0000
0200
0000
0000
0000
0000
0000
,  // measure 9
0011
0000
0011
0000
1301
0000
0110
0000
0000
0000
0002
0003
0110
0002
0003
0000
,  // measure 10
0101
0000
0110
2010
3020
2030
3120
0032
,  // measure 11
1103
1100
0011
1100
0020
0032
2103
3000
,  // measure 12
1000
0000
0100
0000
0010
0000
0001
0000
1000
0000
0010
0000
0100
0000
0001
0000
0010
0000
0100
0000
0000
0001
0000
0000
,  // measure 13
1100
0000
1100
0000
0011
0000
1100
0000
0000
0000
0200
0300
1001
0020
0030
0000
,  // measure 14
0011
0000
1001
0210
0320
0230
1320
0032
,  // measure 15
0113
0110
1001
0110
0020
2030
3102
0003
,  // measure 16
1100
0000
0000
0010
1001
0100
0011
0000
0200
0000
0000
0320
0000
0000
0000
0000
,  // measure 17
1130
0000
1100
0000
0011
0000
1100
0010
0000
0000
0000
1000
0101
0010
0000
0000
,  // measure 18
1100
0000
0000
0020
1001
0000
0101
0000
0000
0000
0000
0000
1031
0000
0000
0000
,  // measure 19
1001
0000
1001
0000
0110
0000
1001
0000
0020
0030
0000
0200
0311
0000
2000
3000
,  // measure 20
0011
0000
0001
0000
1100
0001
0110
2000
0000
0000
3020
0000
0000
0000
0000
0030
,  // measure 21
1100
0000
1100
0000
1001
0000
1100
0010
0000
0000
0000
0100
1001
0100
0000
0010
,  // measure 22
0102
2003
0110
0101
0000
0000
3110
0000
,  // measure 23
1100
0000
1200
0000
0302
0000
1100
0003
0020
0130
0002
0100
0000
0003
0000
0000
,  // measure 24
1000
0010
0000
0000
0002
0103
0000
0000
0200
0310
0000
0000
0002
0003
0020
0000
,  // measure 25
1032
0103
1001
0000
2000
3010
0000
0000
0002
0103
0000
0000
0020
0030
1000
0010
,  // measure 26
0101
0000
0201
0000
0020
0030
0000
0000
0002
0003
0000
0000
2000
3300
0001
0010
,  // measure 27
0200
0000
0000
0300
0001
0000
0000
0000
0010
0000
0000
0000
2000
0000
0000
3000
0010
0000
0000
0000
0100
0000
0000
0000
0020
0000
0000
0030
1000
0000
0000
0000
0100
0000
0000
0000
0002
0000
0000
0000
0000
0000
0003
0000
0000
0000
0000
0000
,  // measure 28
2000
3010
0000
0000
0002
0013
0000
0000
0020
0130
0000
0000
2000
3000
0200
0000
,  // measure 29
2301
3010
1001
0000
0002
0103
0000
0000
2000
3010
0000
0000
0200
0300
0001
0100
,  // measure 30
1020
0030
1020
0000
0200
0300
0000
0000
2000
3000
0000
0000
0002
0033
0001
0010
,  // measure 31
1100
0000
0011
0000
1000
0100
0010
0001
0010
0100
1000
0010
2001
0000
0000
0000
,  // measure 32
3012
0000
0000
0003
0012
0000
1203
0000
0320
0030
0020
0030
0020
0000
0000
0030
,  // measure 33
1100
0000
1200
0000
0321
0030
1020
0030
0020
0000
1030
0000
0101
0000
0010
0000
,  // measure 34
0012
0000
0000
0003
1002
0000
1100
0000
2003
0000
3000
0000
0210
0000
0320
0000
,  // measure 35
1130
0000
1100
0000
1001
0000
1100
0000
0002
0000
0000
0023
0000
0000
0230
0000
,  // measure 36
0311
0000
0000
0000
1001
0000
0021
0000
0230
0300
0200
0300
0210
0000
0000
0300
,  // measure 37
0011
0000
0021
0000
1230
0300
0201
0300
0200
0000
0301
0000
1010
0000
0100
0000
,  // measure 38
2100
0000
0000
3000
2001
0000
0011
0000
3002
0000
0003
0000
1020
0000
0230
0000
,  // measure 39
1301
0000
0001
1000
0001
0000
1000
0100
0010
0001
0010
1000
0110
0000
0110
0000
,  // measure 40
0200
0000
0300
0200
0000
0000
0320
0000
0000
0230
0000
0000
0320
0000
0000
0000
,  // measure 41
1130
0000
1100
0000
0011
0000
1200
0000
0000
0000
0302
0000
0000
0003
0000
0000
,  // measure 42
0200
0000
0300
0200
0000
0000
0320
0000
0000
0230
0000
0000
0320
0000
1030
0100
,  // measure 43
0011
0000
0011
0000
1001
0000
0001
0010
0100
1000
0100
1000
0100
0000
0020
0000
,  // measure 44
0100
0000
0030
0001
0010
0100
1000
0100
0000
0010
0000
0000
0000
0000
0001
0010
,  // measure 45
0001
0100
1000
0010
0100
0001
0010
0100
1000
0000
0010
0001
0000
0000
0010
0000
,  // measure 46
0000
0000
1000
0100
1000
0001
0100
0000
0010
0000
0001
0010
0100
0000
0001
0010
,  // measure 47
0100
1000
0100
0010
0100
0010
0001
1000
0010
0000
0100
0010
0000
0000
0002
0003
,  // measure 48
1100
0001
1000
0100
0011
0000
1100
0001
0100
0000
0010
0000
1001
0000
0100
0001
,  // measure 49
1100
0000
1100
0010
1001
0010
1100
0001
1000
0000
0100
0010
1001
0000
0002
1003
,  // measure 50
0110
0000
0001
1000
0011
0000
1100
0001
0100
0000
0010
0100
1001
0000
0200
0301
,  // measure 51
1100
0000
0011
0000
1000
0100
0010
0001
1000
0010
0100
0001
0200
0000
0000
0300
,  // measure 52
0202
0000
0000
0000
0323
0000
0001
0000
0230
0300
0200
0300
0200
0000
0000
0300
,  // measure 53
0011
0000
0021
0000
1230
0300
0201
0300
0200
0000
0301
0000
1010
0000
0100
0000
,  // measure 54
2100
0000
0000
3000
2001
0000
0011
0000
3002
0000
0203
0000
1320
0000
0230
0000
,  // measure 55
0311
0000
0011
0000
1001
0000
0011
0000
2000
0000
0000
3200
0000
0000
0320
0000
,  // measure 56
1230
0000
0000
0000
1302
0000
1200
0003
0320
0030
0020
0030
0120
0000
0000
0030
,  // measure 57
1100
0000
1200
0000
0321
0030
1020
0030
0020
0000
1030
0000
0101
0000
0010
0000
,  // measure 58
0012
0000
0000
0003
1002
0000
1100
0000
2003
0000
3020
0000
0231
0000
0320
0000
,  // measure 59
1031
0000
1000
0001
1000
0000
0001
0010
0100
1000
0100
0001
0110
0000
0110
0000
,  // measure 60
0020
0000
0030
0020
0000
0000
0230
0000
0000
0320
0000
0000
0230
0000
0000
0000
,  // measure 61
0311
0000
0011
0000
1100
0000
0021
0000
0000
2030
0000
0000
0000
3000
0000
0000
,  // measure 62
0020
0000
0030
0020
0000
0000
0230
0000
0000
0320
0000
0000
0230
0000
0301
0010
,  // measure 63
1100
0000
0000
0000
0000
0000
0000
0000
0000
0000
0000
0000
0000
0000
0000
0000
0000
0000
0000
0000
0000
0000
0000
0000
1100
0000
0000
0000
0000
0000
0000
0000
0000
0000
0000
0000
0000
0000
0000
0000
0000
0000
0000
0000
0000
0000
0000
0000
1001
0000
0000
0000
0000
0000
0000
0000
0000
0000
0000
0000
0000
0000
0000
0000
0000
0000
0000
0000
0000
0000
0000
0000
1000
0000
0000
0000
0000
0000
0000
0000
0000
0000
0000
0000
0100
0000
0000
0000
0000
0000
0000
0000
0000
0000
0000
0000
0010
0000
0000
0000
0000
0000
0000
0000
0000
0000
0000
0000
0001
0000
0000
0000
0000
0000
0000
0000
0000
0000
0000
0000
0010
0000
0000
0000
0000
0000
0000
0000
0000
0000
0000
0000
0001
0000
0000
0000
0000
0000
0000
0000
0000
0000
0000
0000
0010
0000
0000
0000
0000
0000
0000
0000
0000
0000
0000
0000
0000
0000
0000
0000
0000
0000
0000
0000
0000
0000
0000
0000
0200
0300
0000
0000
0000
0000
0000
0000
0000
0000
0000
0000
0000
0000
0000
0000
0000
0000
0000
0000
0000
0000
0000
0000
,  // measure 64
0200
0000
0000
0000
0000
0300
0000
0000
0000
0000
0000
0000
0000
0000
0000
0000
;

//---------------dance-single - ----------------
#NOTEDATA:;
#CHARTNAME:;
#STEPSTYPE:dance-single;
#DESCRIPTION:;
#CHARTSTYLE:;
#DIFFICULTY:Hard;
#METER:9;
#RADARVALUES:0.446215,0.478240,0.149450,0.358680,0.183076,418.000000,398.000000,20.000000,48.000000,0.000000,0.000000,0.000000,0.000000,0.000000,0.446215,0.478240,0.149450,0.358680,0.183076,418.000000,398.000000,20.000000,48.000000,0.000000,0.000000,0.000000,0.000000,0.000000;
#CREDIT:;
#NOTES:
0020
0000
0030
0020
0000
0000
0230
0000
0300
0200
0000
0000
0320
0000
0000
0000
,
0031
0001
0000
0000
0000
1000
0000
1000
,
0020
0000
0030
0020
0000
0000
0230
0000
0300
0200
0000
0000
0320
0000
0000
0000
,
0031
0000
0001
0000
0000
0000
0000
0000
0010
0000
0000
0100
0000
0000
1000
0000
,
0020
0000
0030
0020
0000
0000
0230
0000
0300
0200
0000
0000
0310
0000
0000
0000
,
0001
0000
0001
0000
0000
0000
0000
0000
0000
0000
1000
0000
0000
1000
0000
0000
,
0020
0000
0030
0020
0000
0000
0230
0000
0300
0200
0000
0000
0302
0000
0000
0000
,
0103
0000
0100
0000
0000
0000
0000
0000
0010
0000
0000
0100
0000
0000
0010
0000
,
0010
0000
1000
0000
0010
0000
0100
0000
0001
0000
0010
0000
0001
0000
0000
1000
0000
0000
0020
0000
0000
0000
0000
0000
,
0100
0000
0130
0000
0001
0000
1000
0010
,
1000
0000
0001
0010
0100
0010
0100
0010
,
0001
0010
0100
0010
0001
0010
0100
0000
,
0001
0000
0010
0000
0100
0000
1000
0000
0010
0000
0100
0000
0001
0000
0010
0000
0100
0000
1000
0000
0000
0010
0000
0000
,
0100
0000
0001
0000
1000
0000
0010
0100
,
0001
0000
0010
0001
1000
0001
1000
0010
,
0100
0001
1000
0010
0100
0001
1000
0000
,
1001
0000
0010
0001
0020
0000
0031
0000
,
0001
1000
0010
0000
0001
0010
0100
0000
,
2001
0100
0010
3001
,
0010
0100
0001
0010
0100
0000
1001
1000
,
0001
0010
0001
0000
0010
1000
0010
0000
,
0100
0010
0001
1000
0010
0000
0001
0010
,
0200
1000
0010
1300
,
0011
1100
1001
0110
,
0001
1000
0000
0000
1000
0001
0000
0000
0001
1000
0000
0000
1000
0000
0001
0000
,
0100
0001
0000
0000
0001
0010
0000
0000
0010
0001
0000
0000
0001
0000
1000
0000
,
0020
0100
1000
0130
,
0001
0010
0001
1000
0010
0100
0001
0000
,
0010
1000
0000
0000
0001
1000
0000
0000
0100
1000
0000
0000
0010
0000
0100
0000
,
0001
0010
0000
0000
0100
0010
0000
0000
0001
0010
0000
0000
0100
0000
1000
0000
,
0002
0000
0000
0000
0010
0000
0000
0000
1000
0000
0000
0000
0100
0003
0000
0000
,
0010
0000
1000
0000
0001
1000
0001
1000
0001
1000
0001
1000
0001
0000
0000
0000
,
0011
0000
0001
1000
0010
0010
0010
0000
,
0001
0010
0100
0100
0100
0001
1000
0010
,
0100
0000
0100
0001
0100
0000
0010
1000
,
0001
1000
0100
1000
0001
0000
0010
0000
,
1001
0000
0010
0100
0001
0001
0001
0000
,
1000
0010
0100
0100
0100
0001
1000
0001
,
0010
0000
0010
0000
0010
0000
0001
1000
,
0010
0100
0001
0010
0001
0000
0011
0000
,
0002
0000
0003
0002
0000
0000
0203
0000
0300
0200
0000
0000
0302
0000
0000
0000
,
0013
0001
1000
0000
0012
0000
1003
0000
,
0200
0000
0300
0200
0000
0000
2300
0000
0000
3200
0000
0000
2300
0000
0000
0000
,
3010
0100
0010
0000
0011
0000
2001
0000
,
3010
0000
0100
0001
0100
0000
0010
0000
,
0001
1000
0001
0000
0100
1000
0100
0000
,
0001
0010
0100
0000
0001
1000
0010
0000
,
0001
0100
0010
1000
0001
0000
1001
0000
,
0010
0100
0001
1000
0100
0010
0001
1000
,
0010
0100
0001
1000
0010
1000
0001
0010
,
0100
1000
0001
0100
0010
1000
0001
0000
,
0100
0000
0100
0000
0010
0100
0001
0100
0010
0100
0001
0010
0001
0000
0000
0000
,
1010
0000
0101
0001
0100
0100
0100
0000
,
1000
0100
0010
0010
0010
1000
0001
0100
,
0010
0000
0010
1000
0010
0000
0100
0001
,
1000
0001
0010
0001
1000
0000
0100
0000
,
1001
0000
0100
0010
1000
1000
1000
0000
,
0001
0100
0010
0010
0010
1000
0001
1000
,
0100
0000
0100
0000
0100
0000
1000
0001
,
0100
0010
1000
0100
1000
0000
1100
0000
,
2000
0000
3000
2000
0000
0000
3020
0000
0030
0020
0000
0000
2030
0000
0000
0000
,
3100
1000
0001
0000
1001
0000
1001
0000
,
0002
0000
0003
0002
0000
0000
0023
0000
0000
0032
0000
0003
0002
0000
0000
0000
,
1003
0001
0100
0010
1000
0000
0002
0000
,
0013
0000
0000
0000
;

//---------------dance-single - ----------------
#NOTEDATA:;
#CHARTNAME:;
#STEPSTYPE:dance-single;
#DESCRIPTION:;
#CHARTSTYLE:;
#DIFFICULTY:Medium;
#METER:6;
#RADARVALUES:0.281820,0.334768,0.089670,0.104615,0.000000,264.000000,252.000000,12.000000,14.000000,0.000000,0.000000,0.000000,0.000000,0.000000,0.281820,0.334768,0.089670,0.104615,0.000000,264.000000,252.000000,12.000000,14.000000,0.000000,0.000000,0.000000,0.000000,0.000000;
#CREDIT:;
#NOTES:
0000
0000
0000
0000
,
0000
0000
0000
0000
,
0000
0000
0000
0000
,
0000
0000
0000
0000
,
1000
1000
1000
1000
,
0001
0001
0001
0001
,
1000
1000
1000
1000
,
0001
0001
1000
0001
,
0010
0001
2000
0001
,
3010
0010
0100
0100
,
0001
0010
0001
0001
,
1000
0100
0100
1000
,
0001
0000
0010
0000
0001
1000
0001
0000
,
0010
0001
1000
0010
,
0100
0001
1000
1000
,
0001
1000
1000
0001
,
1001
0010
0200
0310
,
0001
0010
0100
1000
,
0002
0010
1000
0103
,
0020
1000
0100
1030
,
1000
0100
0010
0001
,
1000
0010
0001
0010
,
0200
1000
0010
0301
,
1000
0001
2000
3010
,
0001
0001
0001
0001
,
1001
1000
1000
1000
,
1100
1000
1000
1000
,
0010
0100
0001
0010
,
0011
0001
0001
0001
,
0101
0100
0100
0100
,
1100
1000
1000
1000
,
0010
1000
0010
0100
,
1001
0000
0100
1000
0001
0001
0001
0000
,
0100
1000
0001
0001
0001
0000
0010
0000
,
2000
0001
0010
3001
,
0200
0010
1000
0301
,
0010
0000
1000
0100
1000
1000
1000
0000
,
0000
0100
1000
1000
1000
0000
0010
0000
,
0200
0001
0310
0001
,
2000
0100
0010
3001
,
0001
0010
0200
1300
,
0001
0010
1001
1001
,
0010
0100
0002
0013
,
2000
3100
0010
0100
,
0001
0001
1000
0000
,
0010
1000
0010
0000
,
0001
0100
0001
0000
,
0010
0001
1000
0000
,
1001
0001
0100
0000
,
0010
1000
0001
0000
,
0010
0001
1000
0000
,
0010
0100
0010
0100
,
0110
0000
0001
0000
1000
1000
1000
0000
,
0000
0001
0010
0010
0010
0000
0001
0000
,
1000
1000
1000
0010
,
0100
0100
0001
1000
,
0001
0000
0001
0010
0001
0001
0001
0000
,
1000
0010
0100
0100
0100
0000
0001
0000
,
1000
0000
1000
0000
1000
0000
0010
0100
,
0001
0000
0001
0010
0001
0000
0001
0000
,
1000
0000
1000
0000
1000
0010
1000
0000
,
0002
0010
1003
0010
,
0100
0000
0001
0000
1000
0001
1000
0000
,
0010
0010
0100
0100
,
0110
0000
0000
0000
;

//---------------dance-single - ----------------
#NOTEDATA:;
#CHARTNAME:;
#STEPSTYPE:dance-single;
#DESCRIPTION:;
#CHARTSTYLE:;
#DIFFICULTY:Easy;
#METER:3;
#RADARVALUES:0.065118,0.071736,0.000000,0.000000,0.000000,61.000000,61.000000,0.000000,0.000000,0.000000,0.000000,0.000000,0.000000,0.000000,0.065118,0.071736,0.000000,0.000000,0.000000,61.000000,61.000000,0.000000,0.000000,0.000000,0.000000,0.000000,0.000000,0.000000;
#CREDIT:;
#NOTES:
0000
0000
0000
0000
,
0000
0000
0000
0000
,
0000
0000
0000
0000
,
0000
0000
0000
0000
,
1000
0000
0000
0000
,
1000
0000
0000
0000
,
0001
0000
0000
0000
,
0001
0000
0000
0000
,
1000
0000
0000
0000
,
0010
0000
0000
0000
,
1000
0000
0000
0000
,
0001
0000
0000
0000
,
0010
0000
0000
0000
,
0100
0000
0000
0000
,
1000
0000
0000
0000
,
1000
0000
0000
0000
,
0001
0000
0000
0000
,
0010
0000
0000
0000
,
1000
0000
0000
0000
,
0100
0000
0000
0000
,
0001
0000
0000
0000
,
0010
0000
0000
0000
,
1000
0000
0000
0000
,
0100
0000
0000
0000
,
0001
0000
0000
0000
,
1000
0000
0000
0000
,
0010
0000
0000
0000
,
0100
0000
0000
0000
,
0001
0000
0000
0000
,
1000
0000
0000
0000
,
0010
0000
0000
0000
,
0001
0000
0000
0000
,
1000
0000
0000
0000
,
0001
0000
0000
0000
,
0100
0000
0000
0000
,
0010
0000
0000
0000
,
0001
0000
0000
0000
,
1000
0000
0000
0000
,
0001
0000
0000
0000
,
1000
0000
0000
0000
,
0100
0000
0000
0000
,
0001
0000
0000
0000
,
0010
0000
0000
0000
,
0100
0000
0000
0000
,
1000
0000
0000
0000
,
1000
0000
0000
0000
,
0001
0000
0000
0000
,
0010
0000
0000
0000
,
0100
0000
0000
0000
,
0001
0000
0000
0000
,
0010
0000
0000
0000
,
1000
0000
0000
0000
,
0100
0000
0000
0000
,
0010
0000
0000
0000
,
0001
0000
0000
0000
,
1000
0000
0000
0000
,
0001
0000
0000
0000
,
0100
0000
0000
0000
,
1000
0000
0000
0000
,
0001
0000
0000
0000
,
0010
0000
0000
0000
,
0100
0000
0000
0000
,
0001
0000
0000
0000
,
1000
0000
0000
0000
,
0001
0000
0000
0000
;

//---------------dance-single - ----------------
#NOTEDATA:;
#CHARTNAME:;
#STEPSTYPE:dance-single;
#DESCRIPTION:;
#CHARTSTYLE:;
#DIFFICULTY:Beginner;
#METER:1;
#RADARVALUES:0.032025,0.047824,0.007473,0.000000,0.000000,30.000000,29.000000,1.000000,0.000000,0.000000,0.000000,0.000000,0.000000,0.000000,0.032025,0.047824,0.007473,0.000000,0.000000,30.000000,29.000000,1.000000,0.000000,0.000000,0.000000,0.000000,0.000000,0.000000;
#CREDIT:;
#NOTES:
0000
0000
0000
0000
,
0000
0000
0000
0000
,
0000
0000
0000
0000
,
0000
0000
0000
0000
,
0001
0000
0000
0000
,
0000
0000
0000
0000
,
1000
0000
0000
0000
,
0000
0000
0000
0000
,
0010
0000
0000
0000
,
0000
0000
0000
0000
,
1000
0000
0000
0000
,
0000
0000
0000
0000
,
0100
0000
0000
0000
,
0000
0000
0000
0000
,
1000
0000
0000
0000
,
0000
0000
0000
0000
,
0001
0000
0000
0000
,
0000
0000
0000
0000
,
0100
0000
0000
0000
,
0000
0000
0000
0000
,
1000
0000
0000
0000
,
0000
0000
0000
0000
,
0001
0000
0000
0000
,
0000
0000
0000
0000
,
1000
0000
0000
0000
,
0000
0000
0000
0000
,
0001
0000
0000
0000
,
0000
0000
0000
0000
,
1000
0000
0000
0000
,
0000
0000
0000
0000
,
0010
0000
0000
0000
,
0000
0000
0000
0000
,
0100
0000
0000
0000
,
0000
0000
0000
0000
,
0001
0000
0000
0000
,
0000
0000
0000
0000
,
1000
0000
0000
0000
,
0000
0000
0000
0000
,
0001
0000
0000
0000
,
0000
0000
0000
0000
,
1000
0000
0000
0000
,
0000
0000
0000
0000
,
0100
0000
0000
0000
,
0000
0000
0000
0000
,
0001
0000
0000
0000
,
0000
0000
0000
0000
,
0000
0000
0000
0000
,
0000
0000
0000
0000
,
1001
0000
0000
0000
,
0000
0000
0000
0000
,
0000
0000
0000
0000
,
0000
0000
0000
0000
,
1000
0000
0000
0000
,
0000
0000
0000
0000
,
0001
0000
0000
0000
,
0000
0000
0000
0000
,
0100
0000
0000
0000
,
0000
0000
0000
0000
,
0001
0000
0000
0000
,
0000
0000
0000
0000
,
0010
0000
0000
0000
,
0000
0000
0000
0000
,
0001
0000
0000
0000
,
0000
0000
0000
0000
,
0100
0000
0000
0000
;
