#VERSION:0.83;
#TITLE:Bounce Back;
#SUBTITLE:;
#ARTIST:Little Mix;
#TITLETRANSLIT:;
#SUBTITLETRANSLIT:;
#ARTISTTRANSLIT:;
#GENRE:;
#ORIGIN:;
#CREDIT:;
#BANNER:AV.avi;
#BACKGROUND:BG.png;
#PREVIEWVID:;
#JACKET:jacket.png;
#CDIMAGE:;
#DISCIMAGE:;
#LYRICSPATH:;
#CDTITLE:;
#MUSIC:bounce back.mp3;
#OFFSET:-0.839000;
#SAMPLESTART:46.212002;
#SAMPLELENGTH:15.000000;
#SELECTABLE:YES;
#BPMS:0.000=103.010,
78.000=51.505,
79.000=103.010,
157.000=51.505,
158.000=103.010;
#STOPS:;
#DELAYS:;
#WARPS:;
#TIMESIGNATURES:0.000=4=4;
#TICKCOUNTS:0.000=4;
#COMBOS:0.000=1;
#SPEEDS:0.000=1.000=0.000=0;
#SCROLLS:0.000=1.000;
#FAKES:;
#LABELS:0.000=Song Start;
#BGCHANGES:0.000=MV.avi=1.200=1=0=1===CrossFade==,
3.500=MV.avi=1.000=0=0=1=====,
99999=-nosongbg-=1.000=0=0=0 // don't automatically add -songbackground-
;
#KEYSOUNDS:;
#ATTACKS:
;

//---------------dance-single - ----------------
#NOTEDATA:;
#CHARTNAME:;
#STEPSTYPE:dance-single;
#DESCRIPTION:;
#CHARTSTYLE:;
#DIFFICULTY:Challenge;
#METER:15;
#RADARVALUES:0.847835,0.872146,1.253594,0.201627,0.863490,677.000000,534.000000,143.000000,23.000000,0.000000,17.000000,0.000000,0.000000,0.000000,0.847835,0.872146,1.253594,0.201627,0.863490,677.000000,534.000000,143.000000,23.000000,0.000000,17.000000,0.000000,0.000000,0.000000;
#CREDIT:;
#NOTES:
0000
0000
0000
0000
,
0000
0000
0000
0000
,
0000
0000
0000
0000
,
1001
0000
1000
0001
0110
0000
0010
1000
0011
1000
0001
0010
1000
0010
0100
0010
,
1001
0000
0100
0000
0100
0000
0100
0000
0100
0010
0100
0000
0010
0000
0100
0000
,
1001
0000
0010
0000
0010
0000
0010
0000
0010
0100
1001
0000
0001
0110
0001
0000
,
1001
0000
1000
0000
1000
0000
1000
0000
0100
0010
0100
0000
0010
0000
0100
0000
,
1001
0000
0100
0001
1100
0000
0100
0010
1100
0010
0001
1000
0010
0100
0001
0100
,
1001
0010
0100
1000
0011
0100
0010
0000
1000
0011
0100
0000
1001
0100
0000
1100
,
0010
1000
0001
0010
1001
0010
0100
0010
1000
0011
0100
0000
1001
0100
0000
0101
,
0010
1000
0001
0100
1010
0001
1000
0010
0100
0011
1000
0000
1010
0100
0000
1001
,
0010
1000
0001
0100
0011
1000
0001
1000
0100
1010
0100
0001
1010
0100
1000
0101
,
0010
0000
1000
0000
0101
1000
0010
1000
0001
1010
0100
0000
0011
0000
0000
1001
,
0010
0000
0001
0000
1100
0010
1000
0001
0100
0011
1000
0000
0110
0000
0010
0101
,
1000
0100
0010
0001
1010
0100
1000
0100
0010
1001
0100
0000
0110
0000
0100
1001
,
0010
0100
0010
0100
0011
1000
0010
0100
0001
1010
0100
1000
0011
0100
0010
1100
,
0021
0000
0100
0000
0100
0000
1032
0000
0100
1000
0100
0000
1023
0000
0100
0000
,
1032
0000
0100
0000
0100
0000
1023
0000
1000
0100
1000
0000
0132
0000
1000
0000
,
1023
0000
0100
0000
0001
0000
2031
0000
0100
0001
0100
0000
3021
0000
0100
0000
,
0001
0000
0100
0000
1000
0000
0001
0000
1000
0000
0100
0000
0001
0000
0130
0000
0002
0000
0000
1003
0000
0100
0010
0100
1001
0000
0000
0000
0010
0000
1000
0000
,
0001
0000
0100
0000
1010
0100
0001
1000
0100
0010
0100
0001
1000
0000
0100
0010
,
0100
0000
0001
0000
1010
0001
0100
0010
1000
0100
0010
0100
0001
0000
1000
0010
,
0100
0000
0001
0000
1100
0010
1000
0001
0100
1000
0010
0100
0001
0000
1000
0000
,
0020
0000
0000
0230
0010
2301
0010
0100
0010
0001
3100
0010
1001
0000
0010
0100
,
0001
0000
0100
0000
1100
0001
0100
0010
1000
0001
0100
0010
1000
0000
0100
0010
,
0100
0000
0010
0000
1010
0001
0100
0010
0100
0001
1000
0010
0100
0000
0001
1000
,
0010
0000
0100
0000
1100
0010
1000
0001
0100
0010
1000
0001
0110
0000
0001
1000
,
0110
0000
0001
0100
1001
0100
0010
0100
1001
0010
0100
0010
0101
1000
0001
0100
,
0000
0010
0000
0100
0010
0100
0010
0000
0100
0000
0000
0000
1001
0010
0100
0001
,
0000
0100
0000
0100
0010
0000
1010
0000
0010
0101
0000
0000
1010
0001
0100
0010
,
0000
0100
0000
0100
0010
0100
0010
0000
0100
0000
0000
0000
1010
0001
0100
0100
,
1000
0010
0001
1000
0010
0010
0100
0001
1000
0010
0100
0001
1010
0000
1001
0000
,
0110
0000
0101
0000
0010
1000
0010
0000
0101
0000
0000
0000
1001
0000
1010
0000
,
1001
0110
1100
0011
1001
0000
0110
1100
,
0110
0000
1001
0000
0100
0010
0100
0000
0010
0000
0000
0000
1001
0000
0011
0000
,
1100
0000
0011
0000
1000
0001
1000
0000
0011
0000
0100
0000
1200
0000
0010
0000
,
0010
0000
2301
0000
0010
0001
0010
0000
3201
0000
0010
0000
2301
0000
0010
0000
,
0010
0000
3201
0000
0001
0010
0001
0000
2310
0000
0001
0000
3201
0000
0010
0000
,
1000
0000
1302
0000
0010
1000
0010
0000
1203
0000
0010
0000
1000
0010
0001
1000
,
0001
0000
0010
0000
1000
0000
0310
0000
2000
0000
0000
3100
0000
0010
0100
0010
1001
0000
0000
0000
0010
0000
0100
0000
1001
0000
0000
0000
0010
0000
0000
0000
,
1000
0011
1000
0010
1001
0010
0100
1001
0110
0000
0100
0010
1100
0000
0010
0000
,
1000
0101
1000
0001
1010
0100
0010
1001
0110
0000
0100
0010
0101
0000
0010
0000
,
1000
0011
1000
0010
1001
0100
0010
1001
0110
0000
0001
0100
0011
0100
0001
1000
,
0100
1010
0001
0010
0101
0010
1000
0110
0101
0000
0010
1000
0101
0000
1000
0000
,
0010
1001
0010
1000
0110
0001
0100
1010
0101
0000
1000
0010
1001
0000
0001
0000
,
0100
1010
0100
0010
0101
1000
0010
0101
1001
0000
0010
0100
0011
0000
0100
0000
,
0001
1010
0100
0001
1010
0100
0010
1001
0110
0001
0100
0011
1100
0000
0001
1100
,
1010
0001
1000
0001
0100
0000
0110
0000
0000
0000
0000
0000
0000
0000
0000
0000
;

//---------------dance-single - Copied from----------------
#NOTEDATA:;
#CHARTNAME:Copied from;
#STEPSTYPE:dance-single;
#DESCRIPTION:Copied from;
#CHARTSTYLE:;
#DIFFICULTY:Hard;
#METER:10;
#RADARVALUES:0.485909,0.556228,0.008766,0.017533,0.455852,388.000000,387.000000,1.000000,2.000000,0.000000,0.000000,0.000000,0.000000,0.000000,0.485909,0.556228,0.008766,0.017533,0.455852,388.000000,387.000000,1.000000,2.000000,0.000000,0.000000,0.000000,0.000000,0.000000;
#CREDIT:Copied from;
#NOTES:
// measure 0
0000
0000
0000
0000
,  // measure 1
0000
0000
0000
0000
,  // measure 2
0000
0000
0000
0000
,  // measure 3
1000
0000
0010
0000
0100
0001
0100
0000
0001
0000
0100
0000
0010
0100
0010
0000
,  // measure 4
1000
0000
0100
0000
0010
0000
0001
0000
0010
0100
0010
0000
0001
0000
0010
0000
,  // measure 5
0100
0000
1000
0000
0100
0000
0010
0000
1000
0001
1000
0000
0010
0000
0100
0000
,  // measure 6
0001
0000
0010
0000
0100
0000
0010
0000
1000
0001
1000
0000
0010
0000
0100
0000
,  // measure 7
0001
0000
0001
0010
0001
0000
0010
0000
0100
0001
0100
0010
0100
0001
0100
0010
,  // measure 8
0100
1000
0100
0010
0001
0010
0100
1000
,  // measure 9
0100
0010
0100
0010
0001
1000
0100
0010
,  // measure 10
0100
1000
0001
0010
0100
0001
0010
0001
,  // measure 11
0010
0000
0100
0000
1000
0000
0001
0000
0100
0010
0100
0001
0100
0010
0100
0001
,  // measure 12
0100
0010
1000
0100
0010
0001
0100
0010
,  // measure 13
1000
0001
0100
0010
1000
0001
0100
0010
,  // measure 14
1000
0100
0010
0001
0100
0010
1000
0010
,  // measure 15
0100
0000
0001
0000
0100
0000
0010
0000
1000
0001
0100
0010
1000
0001
0100
0010
,  // measure 16
1000
0000
0100
0000
0010
0000
0001
0000
0100
0010
0100
0000
0010
0000
1000
0000
,  // measure 17
0010
0000
0001
0000
0010
0000
0100
0000
1000
0001
1000
0000
0010
0000
0100
0000
,  // measure 18
1000
0000
0100
0000
0010
0000
0001
0000
0001
1000
0001
0000
1000
0000
0100
0000
,  // measure 19
0001
0000
0000
0000
0000
0000
0000
0000
0001
0000
0000
0000
0000
0000
0000
0000
0002
0000
0000
1003
0000
0100
0010
0100
1000
0000
0000
0000
1000
0000
0000
0000
,  // measure 20
0000
0000
0000
0000
0000
0000
0000
1000
0100
0010
0001
0010
0100
0000
0010
0000
,  // measure 21
0000
0000
0000
0000
0000
0000
0000
0001
0010
0100
1000
0100
0010
0000
0100
0000
,  // measure 22
0000
0000
0000
0000
0000
0000
0000
0010
0100
0001
0100
0010
0100
0000
0010
0000
,  // measure 23
0000
0000
0000
0000
1000
0000
0000
0100
0000
1000
0100
0010
0001
0000
0010
0000
,  // measure 24
0000
0000
0000
0000
0000
0000
0000
1000
0100
0010
0001
0010
0100
0000
0010
0000
,  // measure 25
0000
0000
0000
0000
0000
0000
0000
0010
0100
0001
0100
0010
0100
0000
0010
0000
,  // measure 26
0000
0000
0000
0000
0000
0000
0000
1000
0001
1000
0001
1000
0001
0000
0100
0010
,  // measure 27
0100
0000
0001
0000
1000
0001
1000
0010
1000
0001
1000
0010
1000
0000
0100
0000
,  // measure 28
0010
0000
0001
0000
0010
0100
0010
0000
0100
0000
0000
0000
1000
0000
0100
0000
,  // measure 29
0010
0000
0001
0000
0010
0100
0010
0000
0100
0000
0000
0000
0100
0000
0010
0000
,  // measure 30
0001
0000
0100
0000
0001
0100
0001
0000
0100
0000
0000
0000
1000
0000
0100
0010
,  // measure 31
0100
0000
0001
0000
1000
0100
0010
0001
0010
0100
1000
0100
0010
0000
0100
0000
,  // measure 32
0010
0000
0001
0000
1000
0001
1000
0000
0010
0000
0000
0000
0100
0000
0010
0000
,  // measure 33
0001
0000
0010
0000
0010
0100
0010
0000
0100
0000
0000
0000
1000
0000
0100
0000
,  // measure 34
0010
0000
0001
0000
0010
0100
0010
0000
0100
0000
0000
0000
1000
0000
0100
0000
,  // measure 35
0010
0000
0001
0000
0010
0100
0010
0000
0100
0000
0000
0000
0010
0000
0100
0000
,  // measure 36
0100
0000
0010
0000
0100
0010
0100
0000
0010
0000
0001
0000
1000
0000
0100
0000
,  // measure 37
0100
0000
0010
0000
1000
0010
1000
0000
0001
0000
0100
0000
0010
0000
0100
0000
,  // measure 38
0100
0000
0001
0000
1000
0010
1000
0000
0001
0000
0100
0000
0010
0100
0001
0100
,  // measure 39
0010
0000
0100
0000
0001
0000
0100
0000
0020
0000
0030
0100
0000
0010
0100
0010
1000
0000
0001
0000
1000
0000
0001
0000
0000
0000
0010
0000
0000
0000
0100
0000
,  // measure 40
0010
0000
0000
0000
0000
0000
0000
0000
1000
0100
0010
0001
0000
0010
0000
0100
,  // measure 41
0010
0000
0010
0000
0010
0000
0000
0000
1000
0100
0010
0001
0000
0010
0000
0100
,  // measure 42
0010
0000
0000
0000
0000
0000
0000
0000
0001
0010
0100
1000
0000
0100
0000
0010
,  // measure 43
0100
0000
0010
0000
0100
0000
0000
0000
1000
0100
0010
0001
0000
0010
0000
0100
,  // measure 44
0010
0000
0000
0000
0000
0000
0000
0000
1000
0100
0010
0001
0000
0010
0000
0100
,  // measure 45
0010
0000
0010
0000
0010
0000
0000
0000
0001
0010
0100
1000
0000
0100
0000
0100
,  // measure 46
0010
0000
0000
0000
0000
0000
0000
0000
1001
0000
0000
0010
0100
0000
0000
0100
,  // measure 47
1000
0000
0000
0000
;

//---------------dance-single - Copied from Copied f----------------
#NOTEDATA:;
#CHARTNAME:Copied from Copied f;
#STEPSTYPE:dance-single;
#DESCRIPTION:Copied from Copied f;
#CHARTSTYLE:;
#DIFFICULTY:Medium;
#METER:6;
#RADARVALUES:0.309328,0.329616,0.175328,0.157795,0.000000,247.000000,227.000000,20.000000,18.000000,0.000000,0.000000,0.000000,0.000000,0.000000,0.309328,0.329616,0.175328,0.157795,0.000000,247.000000,227.000000,20.000000,18.000000,0.000000,0.000000,0.000000,0.000000,0.000000;
#CREDIT:Copied from Copied f;
#NOTES:
0000
0000
0000
0000
,
0000
0000
0000
0000
,
0000
0000
0000
0000
,
1000
0001
1000
0010
1000
0001
1000
0010
,
0100
0100
0010
0010
,
1001
0010
0100
0010
,
1001
0010
0100
0001
,
1000
0001
1000
0010
1000
0001
1000
0010
,
0100
0010
0100
0010
0200
0000
0310
0000
,
0001
1000
0010
1000
0002
0000
0103
0000
,
1000
0010
0100
0001
0200
0000
0310
0000
,
0001
0010
0100
1000
0002
0000
0103
0000
,
1000
0010
0100
0001
0200
0000
0310
0000
,
0001
1000
0010
0100
0020
0000
0130
0000
,
1000
0100
0010
0001
0020
0000
0130
0000
,
0100
0010
1000
0001
0200
0000
0301
0000
,
2010
0010
0001
3100
,
0102
1000
0100
0013
,
0120
1000
0100
0031
,
1001
1001
0000
0001
,
0000
0000
0010
0000
1000
0001
1000
0000
,
0000
0000
0110
0000
0001
0100
0010
0000
,
0000
0000
1001
0000
0100
0010
0100
0000
,
0000
1001
0110
1001
,
0000
0000
0110
0000
0001
0100
0010
0000
,
0000
0000
1100
0000
0010
0100
0001
0000
,
0000
0000
1001
0000
0100
0010
0100
0000
,
1000
0000
0100
0010
0001
0010
0200
0000
,
0010
0000
0001
0010
0301
0000
0002
0000
,
0100
0000
1000
0010
1003
0000
0020
0000
,
0100
0000
1000
0100
0031
0000
0010
0000
,
0100
0000
0010
0100
0010
0000
0002
0000
,
0100
0000
1000
0100
0013
0000
0020
0000
,
0100
0000
1000
0100
0031
0000
2000
0000
,
0100
0000
0010
0100
3010
0000
0002
0000
,
0100
0000
1000
0013
0100
0000
1000
0100
,
0010
0001
0010
0000
0100
0000
0010
0100
,
0001
0100
0010
0000
0100
0000
1000
0001
,
1000
0001
1000
0000
0010
0000
0110
0000
,
0110
0000
1000
0100
,
0010
0100
0010
0000
0100
0000
0001
0000
,
1000
0001
1000
0000
0010
0000
0100
0000
,
0001
0100
0001
0000
1000
0000
0010
0000
,
0100
0010
0100
0000
1000
0100
0010
0001
,
0010
0100
0010
0000
1000
0100
0010
1000
,
0100
0010
0001
0000
1000
0001
0100
0010
,
0100
0001
0100
0000
1001
0000
1001
0000
,
1001
0000
0000
0000
;

//---------------dance-single - ----------------
#NOTEDATA:;
#CHARTNAME:;
#STEPSTYPE:dance-single;
#DESCRIPTION:;
#CHARTSTYLE:;
#DIFFICULTY:Easy;
#METER:4;
#RADARVALUES:0.172823,0.226611,0.105197,0.000000,0.000000,138.000000,126.000000,12.000000,0.000000,0.000000,0.000000,0.000000,0.000000,0.000000,0.172823,0.226611,0.105197,0.000000,0.000000,138.000000,126.000000,12.000000,0.000000,0.000000,0.000000,0.000000,0.000000,0.000000;
#CREDIT:;
#NOTES:
0000
0000
0000
0000
,
0000
0000
0000
0000
,
0000
0000
0000
0000
,
1000
0010
0100
0001
,
0100
0100
0010
0010
,
1001
0001
0001
0100
,
1001
0010
0100
0010
,
1000
0010
0100
0010
,
0110
0010
0100
0000
,
1000
0100
0010
0000
,
0001
0100
0010
0000
,
1000
0001
1000
0000
,
0100
0010
0100
0000
,
0001
0100
0010
0000
,
1000
0100
0010
0000
,
0001
1000
0010
0000
,
0101
0000
1010
0000
,
0110
0000
1001
0000
,
1100
0000
0110
0000
,
0001
0001
0000
0001
,
0000
0000
0000
0100
,
0000
1000
0000
0100
,
0000
0010
0000
0100
,
0000
0010
0010
1001
,
0000
0100
0000
0010
,
0000
1000
0000
0001
,
0000
0100
0000
0011
,
0000
0100
0000
1000
,
1000
1000
0000
0100
,
0100
0100
0000
0010
,
0010
0010
0000
0100
,
0001
0100
0010
0100
,
0100
0010
0000
1000
,
1000
0001
0000
0100
,
0100
0010
0000
0001
,
1000
0001
0000
0100
,
0000
0100
0000
0010
,
0000
0010
0000
1000
,
0000
0001
0000
0100
,
0100
0000
1000
1000
,
0100
0000
0010
0010
,
0001
0000
0100
0010
,
0100
0000
1000
0001
,
1000
0010
0100
0100
,
0010
0000
1000
1000
,
0001
0000
0100
0100
,
0010
0000
1000
1000
,
0110
0000
0000
0000
;

//---------------dance-single - Copied from----------------
#NOTEDATA:;
#CHARTNAME:Copied from;
#STEPSTYPE:dance-single;
#DESCRIPTION:Copied from;
#CHARTSTYLE:;
#DIFFICULTY:Beginner;
#METER:2;
#RADARVALUES:0.077645,0.123606,0.017533,0.000000,0.000000,62.000000,60.000000,2.000000,0.000000,0.000000,0.000000,0.000000,0.000000,0.000000,0.077645,0.123606,0.017533,0.000000,0.000000,62.000000,60.000000,2.000000,0.000000,0.000000,0.000000,0.000000,0.000000,0.000000;
#CREDIT:Copied from;
#NOTES:
0000
0000
0000
0000
,
0000
0000
0000
0000
,
0000
0000
0000
0000
,
1000
0000
0000
0000
,
0001
0000
0000
0000
,
1000
0000
0000
0000
,
1000
0000
0000
0000
,
0001
0000
0001
0000
,
1000
0000
0000
0000
,
1000
0000
0000
0000
,
1000
0000
0000
0000
,
0100
0000
0000
0000
,
0001
0000
0000
0000
,
1000
0000
0000
0000
,
1000
0000
0000
0000
,
0100
0000
0000
0000
,
0001
0000
0000
0000
,
1000
0000
0000
0000
,
0100
0000
0000
0000
,
0001
0000
0000
1001
,
0000
0000
0000
0001
,
0000
0000
0000
1000
,
0000
0000
0000
0001
,
0000
0000
0000
1000
,
0000
0000
0000
0001
,
0000
0000
0000
1000
,
0000
0000
0000
1000
,
0000
0000
0000
1000
,
0000
0001
0000
1000
,
0000
0000
0000
0001
,
0000
0000
0000
1000
,
0000
1000
0000
0001
,
0000
0100
0000
0010
,
0000
1000
0000
0001
,
0000
0100
0000
0010
,
0000
1000
0000
0001
,
0000
0000
0000
1000
,
0000
0000
0000
0001
,
0000
0000
0000
1000
,
0000
0000
1000
0000
,
0100
0000
1000
0000
,
0010
0000
0001
0000
,
1000
0000
0100
0000
,
0010
0000
0001
0000
,
1000
0000
0001
0000
,
1000
0000
1000
0000
,
0001
0000
0100
0000
,
1001
0000
0000
0000
;
