#VERSION:0.83;
#TITLE:Bon Appetit;
#SUBTITLE:;
#ARTIST:Katy Perry, Migos;
#TITLETRANSLIT:;
#SUBTITLETRANSLIT:;
#ARTISTTRANSLIT:;
#GENRE:;
#ORIGIN:;
#CREDIT:;
#BANNER:AV.avi;
#BACKGROUND:bg.png;
#PREVIEWVID:;
#JACKET:jacket.jpg;
#CDIMAGE:;
#DISCIMAGE:;
#LYRICSPATH:;
#CDTITLE:;
#MUSIC:audio.mp3;
#OFFSET:0.140000;
#SAMPLESTART:111.199997;
#SAMPLELENGTH:15.000000;
#SELECTABLE:YES;
#DISPLAYBPM:106.000000;
#BPMS:0.000=106.060,
127.750=53.040,
128.000=106.060,
192.000=108.060,
196.000=106.060;
#STOPS:127.750=0.440;
#DELAYS:;
#WARPS:;
#TIMESIGNATURES:0.000=4=4;
#TICKCOUNTS:0.000=4;
#COMBOS:0.000=1;
#SPEEDS:0.000=1.000=0.000=0;
#SCROLLS:0.000=1.000;
#FAKES:;
#LABELS:0.000=Song Start;
#BGCHANGES:0.000=MV.avi=1.200=1=0=1===CrossFade==,
1.000=MV.avi=1.000=1=1=1=StretchRewind==CrossFade==,
228.500=MV.avi=0.000=0=0=1=====,
99999=-nosongbg-=1.000=0=0=0 // don't automatically add -songbackground-
;
#KEYSOUNDS:;
#ATTACKS:
;

//---------------dance-single - ----------------
#NOTEDATA:;
#CHARTNAME:;
#STEPSTYPE:dance-single;
#DESCRIPTION:;
#CHARTSTYLE:;
#DIFFICULTY:Challenge;
#METER:16;
#RADARVALUES:0.951782,0.942852,1.908911,0.074859,0.999371,890.000000,635.000000,255.000000,10.000000,0.000000,8.000000,0.000000,0.000000,0.000000,0.951782,0.942852,1.908911,0.074859,0.999371,890.000000,635.000000,255.000000,10.000000,0.000000,8.000000,0.000000,0.000000,0.000000;
#CREDIT:;
#DISPLAYBPM:106.000000;
#NOTES:
0000
0000
0000
0000
,
0000
0000
0000
0000
,
0000
0000
0000
0000
,
0000
0000
0000
0000
,
0000
0000
0001
1000
0101
0000
0100
1001
0010
0000
0100
0000
0011
1100
0000
0011
,
0000
1100
0011
0000
1001
0000
1000
0110
0001
0000
0100
0000
1100
0011
0000
1100
,
0000
0011
0110
1000
0101
0000
0010
1100
0001
0000
1000
0000
0110
1001
0000
0110
,
0000
0000
0000
1001
0000
0000
0110
0000
0000
0000
0000
0000
0110
0000
0000
0000
1000
0000
0000
0000
0100
0000
0000
0000
0011
0000
0000
0000
0000
0000
0110
0000
0000
0000
0000
0000
1001
0000
0000
0000
0000
0000
0000
0000
0000
0110
0000
0000
,
0000
0000
0011
0100
1010
0000
0001
1100
0010
0000
0100
0000
0011
1100
0000
1100
,
0000
1100
0011
0000
0101
0000
0010
1100
0010
0000
0100
0000
1100
0011
0000
0011
,
0000
0011
1100
0000
1001
0000
0001
0110
0001
0000
1000
0000
0011
1100
0000
1100
,
0000
0000
0000
1100
0000
0000
0011
0000
0000
0000
0000
0000
1001
0000
0000
0000
0010
0000
0000
0000
0100
0000
0000
0000
1001
0000
0000
0000
0000
0000
0110
0000
0000
0000
0000
0000
1001
0000
0000
0000
0000
0000
0000
0000
0000
0110
0000
0000
,
0000
0000
1100
0000
0110
0001
1000
0011
0100
1001
0110
0000
0000
0011
1100
0000
,
1001
0100
0010
1000
0110
1000
0001
1100
0010
1001
0110
0000
0000
1010
0101
0000
,
0110
1000
0100
0010
0101
0010
1000
0101
0010
1100
0011
0000
0000
1010
0101
0000
,
1100
0000
0000
0000
0110
0001
1000
0011
0100
1001
0110
0000
0000
0011
1100
0000
,
1001
0000
0100
0000
0010
0000
0000
0000
1001
0000
0010
1000
0100
0000
0001
0000
0100
0000
0010
0000
1000
0000
0100
0000
0001
0000
0100
0000
0010
0000
0001
0000
,
1000
0000
0010
0000
0100
0000
1000
0000
0100
0000
0010
1000
0100
0000
0001
0000
1000
0000
0010
0000
0001
0000
0100
0000
1000
0000
0100
0000
0010
0000
0001
0000
,
1000
0000
0010
0000
0100
0000
0001
0000
1000
0000
0010
0001
0100
0000
1000
0000
0100
0000
0010
0000
0001
0000
1000
0000
0010
0000
0100
0000
0001
0000
0010
0000
,
1000
0000
0001
0000
0100
0000
0010
0000
1000
0000
0001
0010
0100
0000
0010
0000
1000
0000
0001
0000
0100
0000
0010
0000
1000
0000
0001
0000
0010
0000
1100
0000
,
0011
0000
1100
0000
0011
0000
0000
0000
0100
0000
0010
0100
1000
0000
0001
0000
0010
0000
0100
0000
0001
0000
0010
0000
1000
0000
0001
0000
0100
0000
0010
0000
,
1000
0000
0100
0000
0010
0000
0100
0000
0010
0000
1000
0100
0001
0000
0100
0000
0010
0000
0001
0000
1000
0000
0100
0000
0010
0000
0100
0000
0010
0000
0001
0000
,
1000
0000
0010
0000
0100
0000
0001
0000
0100
0000
0010
1000
0001
0000
0100
0000
0010
0000
1000
0000
0100
0000
0010
0000
1000
0000
0001
0000
0100
0000
0010
0000
,
1000
0000
0010
0000
0100
0000
0001
0000
1000
0000
0100
0001
0010
0000
0100
0000
0001
0000
0010
0000
1000
0000
0001
0000
0100
0000
0010
0000
1000
0000
0001
0000
,
0100
0010
0100
1000
0110
0000
0010
1100
0001
0000
0010
0000
0101
1010
0000
0101
,
0000
1010
0101
0000
1100
0000
1000
0011
0100
0000
0010
0000
1100
0101
0000
1010
,
0000
0101
0011
1000
0110
0000
0001
1010
0100
0000
0010
0000
0101
1100
0000
0011
,
0000
0000
0000
1100
0000
0000
0011
0000
0000
0000
0000
0000
0011
0000
0000
0000
1000
0000
0000
0000
0010
0000
0000
0000
0101
0000
0000
0000
0000
0000
0011
0000
0000
0000
0000
0000
1100
0000
0000
0000
0010
0000
0000
0000
1000
0011
0000
0000
,
1000
0000
0101
1000
1001
0000
0100
1010
0001
0000
0010
0000
0101
1010
0000
1010
,
0000
1010
0101
0000
0110
0000
0001
1010
0001
0000
0010
0000
1010
0101
0000
0101
,
0000
0101
1010
0000
1100
0000
0100
0011
0110
0000
1000
0000
0101
1010
0000
1010
,
0101
1010
0101
0000
1100
0000
1001
0000
0110
0000
0101
0000
1001
0110
1001
0110
,
1001
0000
0010
1100
0011
0000
0010
0000
1001
0100
0010
1001
0110
0000
1000
0000
,
0011
0000
0100
0011
1100
0000
0010
0000
1001
0000
0010
1100
0011
0000
0100
0000
,
0110
0000
0010
1001
0110
0000
0100
0000
1010
0000
0100
0011
1100
0000
0100
0000
,
1100
0000
0000
0000
0001
0000
0000
0000
0100
0000
0000
0000
1001
0000
0000
0000
0000
0000
0100
0000
0000
0000
0000
0000
0110
0000
0000
0000
0000
0000
0010
0000
0000
1100
0000
0000
0011
0000
0000
0000
0000
0000
0100
0000
0000
1000
0000
0000
,
0110
0000
0001
1000
0101
0000
0100
0000
0110
0000
1000
0011
1100
0000
1000
0000
,
0110
0000
0100
1001
0110
0000
1000
0000
0010
0000
2000
0011
3110
0000
0100
0000
,
0010
0000
0100
1001
0110
0000
1000
0000
0110
0000
0001
1100
0011
0000
1000
0000
,
0110
0000
0000
0000
0100
0000
0000
0000
1000
0000
0000
0000
0011
0000
0000
0000
0000
0000
0100
0000
0000
0000
0000
0000
1001
0000
0000
0000
0000
0000
0100
0000
0000
1001
0000
0000
0110
0000
0000
0000
0000
0000
1000
0000
0000
0000
0000
0000
,
0110
0000
0000
0000
0000
0000
0000
0000
0000
0000
0000
0000
0000
0000
0000
0000
0000
0000
0000
0000
0000
0000
0000
0000
0000
0000
0000
0000
0000
0000
0000
0000
0000
0000
0000
0000
0100
0000
0000
0000
0000
0000
0000
0000
0000
0000
0000
0000
0000
0000
0000
0000
0000
0000
0000
0000
0000
0000
0000
0000
0000
0000
0000
0000
0000
0000
0000
0000
0000
0000
0000
0000
1001
0000
0000
0000
0010
0000
0000
0000
0100
0000
0000
0000
1000
0000
0000
0000
0000
0000
0000
0000
0000
0000
0000
0000
0110
0000
0000
0000
0000
0000
0000
0000
0000
0000
0000
0000
0000
0000
0000
0000
0000
0000
0000
0000
0000
0000
0000
0000
0000
0000
0000
0000
0000
0000
0000
0000
0000
0000
0000
0000
0000
0000
0000
0000
0000
0000
0000
0000
0000
0000
0000
0000
0001
0000
0000
0000
0000
0000
1000
0000
0000
0000
0000
0000
0100
0000
0000
0000
0000
0000
0010
0000
0000
0000
0000
0000
1000
0000
0000
0000
0000
0000
0000
0000
0000
0000
0000
0000
0000
0000
0000
0000
0000
0000
0000
0000
0000
0000
0000
0000
,
0110
0000
0000
0000
0000
0000
1001
0000
0000
0010
0000
0000
1001
0010
0100
1000
0000
0000
0001
0010
0100
1000
0000
0000
1001
0000
0000
0000
0000
0000
0110
0000
0000
0000
0000
0000
0001
0010
0100
1000
0100
0000
0010
0000
0000
0000
0000
0000
,
1100
0000
0010
0100
0000
0000
0110
0000
1001
0000
0000
1100
0000
0000
1100
0000
,
0000
0000
0000
0000
0011
0000
1100
0000
0000
0000
1001
0000
0000
0000
0000
0000
1001
0100
0010
1000
0001
0000
0100
0010
1000
0001
1000
0000
1000
0100
0010
1000
,
0001
0000
0100
0000
0010
0000
1000
0000
0001
0000
0010
0000
0100
0000
0001
0000
0100
0000
0000
0000
0010
0000
1000
0000
0000
0001
1000
0010
0100
0000
0010
0000
,
0001
0000
0010
0000
0100
0000
1000
0000
0100
0000
0010
0000
0001
1000
0100
0001
0010
0000
0000
0000
1001
0000
0000
0000
0100
0001
1000
0010
0100
0000
0010
0000
,
0100
0100
0001
1000
0010
0001
0100
0010
0100
0000
0001
1000
0000
0100
0010
0100
,
0001
1000
0010
0100
0001
0010
1000
0001
0100
0000
0010
0000
1100
0000
0011
0000
,
1010
0000
0000
0110
0000
0000
0000
0000
0010
0100
0000
0100
0000
0100
0010
0000
,
1001
0000
0010
1100
1010
0000
0010
0000
1100
0001
0010
1100
0011
0000
0100
0000
,
1010
0000
0001
1010
0101
0000
0010
0000
1100
0000
0020
0101
1130
0000
0001
0000
,
0011
0000
0010
1100
0011
0000
0001
0000
0110
0000
0001
1010
0101
0000
0001
0000
,
0102
0000
0000
0000
2003
0000
0000
0000
3002
0000
0000
0000
2103
0000
0000
0000
3000
0000
0020
0000
0000
0100
0000
0000
2031
0000
0000
0000
0000
0000
0010
0000
0000
0101
0000
0000
3011
0000
0000
0000
0000
0000
0001
0000
0000
0100
0000
0000
,
0011
0000
1000
0100
1001
0000
0001
0000
0011
0000
0100
1010
0101
0000
0100
0000
,
0011
0000
0001
1100
0011
0000
0100
0000
0010
0000
0001
1100
0011
0000
0001
0000
,
0010
0000
0001
1100
0011
0000
0100
0000
0011
0000
1000
0101
1010
0000
0100
0000
,
0011
0000
0000
0000
0100
0000
0000
0000
1000
0000
0000
0000
0011
0000
0000
0000
0000
0000
1100
0000
0000
0000
0000
0000
1100
0000
0000
0000
1000
0000
0010
0000
0100
0001
0000
0000
0110
0000
0000
0000
0000
0000
0011
0000
0000
0000
0000
0000
,
2200
3300
0000
0000
;

//---------------dance-single - Copied from----------------
#NOTEDATA:;
#CHARTNAME:Copied from;
#STEPSTYPE:dance-single;
#DESCRIPTION:Copied from;
#CHARTSTYLE:;
#DIFFICULTY:Hard;
#METER:10;
#RADARVALUES:0.506904,0.492317,0.157204,0.014972,0.400497,474.000000,453.000000,21.000000,2.000000,0.000000,0.000000,0.000000,0.000000,0.000000,0.506904,0.492317,0.157204,0.014972,0.400497,474.000000,453.000000,21.000000,2.000000,0.000000,0.000000,0.000000,0.000000,0.000000;
#CREDIT:Copied from;
#DISPLAYBPM:106.000000;
#NOTES:
// measure 0
0000
0000
0000
0000
,  // measure 1
0000
0000
0000
0000
,  // measure 2
0000
0000
0000
0000
,  // measure 3
0000
0000
0000
0000
,  // measure 4
0000
0000
0010
1000
0010
0000
1000
0001
1000
0000
0010
0000
0100
0010
0000
0010
,  // measure 5
0000
0010
0100
0000
0001
0000
1000
0001
1000
0000
0010
0000
0100
0001
0000
0001
,  // measure 6
0000
0001
0010
0000
0100
0000
1000
0001
1000
0000
0010
0000
0100
0010
0000
0010
,  // measure 7
0000
0010
1000
0000
0001
0000
0010
0000
0100
0000
0010
0000
0001
0000
0010
0000
,  // measure 8
0001
0000
1000
0010
1000
0000
0010
0100
0010
0000
0100
0000
0001
1000
0000
1000
,  // measure 9
0000
1000
0001
0000
1000
0000
0001
1000
0001
0000
1000
0000
0010
0100
0000
0100
,  // measure 10
0000
0100
0010
0000
0100
0000
0010
1000
0010
0000
0100
0000
0001
0100
0000
0100
,  // measure 11
0000
0100
0001
0000
1000
0000
0010
0000
0100
0000
0001
0000
0010
0000
0010
0000
,  // measure 12
0001
0000
0000
0000
1000
0000
0010
0000
1000
0000
0010
0000
0100
0010
0100
0000
,  // measure 13
0010
1000
0010
0000
1000
0000
0001
0000
0010
0000
0100
0000
0010
0001
0010
0000
,  // measure 14
0001
0010
0001
0000
1000
0000
0010
0000
0100
0000
0001
0000
1000
0001
1000
0000
,  // measure 15
0001
1000
0001
0000
1000
0000
0010
0000
0100
0000
0001
0000
1000
0010
1000
0000
,  // measure 16
0010
0100
0010
0000
1000
0000
0001
0000
0100
0000
0010
0000
1000
0001
0010
0000
,  // measure 17
0100
0010
0001
0000
1000
0000
0010
0000
0100
0000
0001
0000
1000
0010
1000
0000
,  // measure 18
0010
0100
0001
0000
0010
0000
0100
0000
1000
0000
0001
0000
1000
0001
1000
0000
,  // measure 19
0001
0010
0100
0000
1000
0000
0010
0000
0100
0000
0001
0000
1000
0001
1000
0000
,  // measure 20
0010
0100
0001
0000
0010
0000
0100
0000
0001
0000
0100
0000
0010
1000
0010
0000
,  // measure 21
0100
0010
0100
0000
1000
0000
0100
0000
0010
0000
0001
0000
0010
0001
0010
0000
,  // measure 22
0100
1000
0001
0000
0010
0000
1000
0000
0001
0000
0100
0000
0010
1000
0010
0000
,  // measure 23
0100
0001
0100
0000
0010
0000
1000
0000
0001
0000
0010
0000
0100
0010
0100
0000
,  // measure 24
1000
0000
0001
0000
1000
0000
0000
1000
0000
0000
0000
0000
0010
1000
0000
1000
,  // measure 25
0000
1000
0010
0000
0100
0000
0000
0100
0000
0000
0000
0000
0010
1000
0000
1000
,  // measure 26
0000
1000
0010
0000
0100
0000
0000
0100
0000
0000
0000
0000
0010
1000
0000
1000
,  // measure 27
0000
1000
0010
0000
0100
0000
0000
0010
0000
0000
0100
0000
0010
0000
0000
1000
,  // measure 28
0000
0000
0001
0000
1001
0000
0000
0001
0000
0000
0000
0000
1001
1000
0000
0001
,  // measure 29
0000
0001
1000
0000
1001
0000
0000
0001
0000
0000
0000
0000
1001
1000
0000
0001
,  // measure 30
0000
0001
1000
0000
1001
0000
0000
0000
1001
0000
0000
0000
1001
0000
0000
0000
,  // measure 31
1001
0000
0000
0000
1000
0000
0010
0000
1000
0000
0001
0000
1000
0100
1000
0100
,  // measure 32
1000
0000
0010
1000
0010
0000
1000
0000
0001
0000
0010
0001
0010
0000
0100
0000
,  // measure 33
1000
0000
0001
1000
0001
0000
0100
0000
0010
0000
0100
0010
0100
0000
0001
0000
,  // measure 34
1000
0000
0100
1000
0001
0000
1000
0000
0010
0000
0100
0001
0100
0000
0001
0000
,  // measure 35
0010
0000
0100
0000
0010
0000
0001
0000
2000
0000
0000
0000
3010
0000
0010
0100
,  // measure 36
0010
0000
0100
0010
0100
0000
0001
0000
1000
0000
0100
1000
0100
0000
0001
0000
,  // measure 37
1000
0000
0010
1000
0010
0000
1000
0000
0001
0000
0010
0001
0010
0000
0100
0000
,  // measure 38
1000
0000
0001
1000
0001
0000
1000
0000
0010
0000
0100
0010
0100
0000
0010
0000
,  // measure 39
1000
0100
0010
0001
0010
0000
0011
0000
,  // measure 40
0001
0000
0000
0001
0000
0000
1000
0000
0001
0000
0000
0000
1001
0000
0000
0000
,  // measure 41
0010
0000
0000
0010
0000
0000
0100
0000
0010
0000
0000
0000
0110
0000
0000
0000
,  // measure 42
0001
0000
0000
0001
0000
0000
1000
0000
0001
0000
0000
0000
1001
0000
0000
0000
,  // measure 43
1000
0100
0010
0001
0010
0000
0011
0000
,  // measure 44
0100
0100
0010
0010
1001
0000
0010
0000
,  // measure 45
1100
0100
1000
0010
1010
0000
0011
0000
,  // measure 46
0100
1000
0001
1000
0010
0000
0110
0000
,  // measure 47
0001
0010
0001
0010
0001
0000
0110
0000
,  // measure 48
0001
0000
0000
0001
0000
0000
0000
0000
1000
0001
0000
0001
0000
0001
1000
0000
,  // measure 49
1001
0000
0010
1000
0010
0000
1000
0000
0010
0000
0100
0010
0100
0000
0001
0000
,  // measure 50
1000
0000
0001
0010
0001
0000
0010
0000
0100
0000
1000
0001
1000
0000
0010
0000
,  // measure 51
1000
0000
0010
1000
0010
0000
1000
0000
0100
0000
1000
0100
1000
0000
0001
0000
,  // measure 52
1000
0010
0100
0001
0010
0000
0011
0000
,  // measure 53
0001
0000
0010
0001
0010
0000
0001
0000
1000
0000
0010
1000
0010
0000
0100
0000
,  // measure 54
0010
0000
0100
0010
0100
0000
0001
0000
1000
0000
0001
1000
0001
0000
1000
0000
,  // measure 55
0100
0000
1000
0100
1000
0000
0010
0000
0100
0000
0010
0100
0010
0000
1000
0000
,  // measure 56
0001
0000
0010
0100
0010
0000
0001
0000
1000
0000
0010
1000
0010
0000
1000
0000
,  // measure 57
0002
0000
0000
0003
0000
0000
0000
0000
0000
0000
0000
0000
0000
0000
0000
0000
;

//---------------dance-single - Copied from Copied f----------------
#NOTEDATA:;
#CHARTNAME:Copied from Copied f;
#STEPSTYPE:dance-single;
#DESCRIPTION:Copied from Copied f;
#CHARTSTYLE:;
#DIFFICULTY:Medium;
#METER:7;
#RADARVALUES:0.356116,0.406252,0.119775,0.029944,0.269493,333.000000,317.000000,16.000000,4.000000,0.000000,0.000000,0.000000,0.000000,0.000000,0.356116,0.406252,0.119775,0.029944,0.269493,333.000000,317.000000,16.000000,4.000000,0.000000,0.000000,0.000000,0.000000,0.000000;
#CREDIT:Copied from Copied f;
#DISPLAYBPM:106.000000;
#NOTES:
0000
0000
0000
0000
,
0000
0000
0000
0000
,
0000
0000
0000
0000
,
0000
0000
0000
0000
,
0000
0000
0000
0000
1000
0000
0000
1000
0000
0000
0000
0000
0010
0100
0000
0100
,
0000
0100
0010
0000
0001
0000
0000
0001
0000
0000
0000
0000
0001
0010
0000
0010
,
0000
0010
0100
0000
1000
0000
0000
1000
0000
0000
0000
0000
0100
0010
0000
0010
,
0000
0010
0100
0000
0010
0000
0000
0010
0000
0000
1000
0000
0001
0000
0000
0001
,
0000
0000
0100
0000
0010
0000
0000
0010
0000
0000
0000
0000
1000
0001
0000
0001
,
0000
0001
0100
0000
0010
0000
0000
0010
0000
0000
0000
0000
0100
0001
0000
0001
,
0000
0001
1000
0000
0001
0000
0000
0001
0000
0000
0000
0000
0100
0010
0000
0010
,
0000
0010
0100
0000
0010
0000
0000
0010
0000
0000
1000
0000
0001
0000
0000
0001
,
0000
0100
0010
0000
0110
0000
1000
1000
,
1000
0000
0000
0000
0100
0000
0000
0000
0001
0000
0000
0000
0010
0001
0010
0000
,
0100
0000
0000
0000
1000
0000
0000
0000
0100
0000
0000
0000
0010
0100
0010
0000
,
0100
0010
1000
1000
,
0100
0001
0100
0000
0010
0000
0000
0000
0100
0000
0010
0000
0100
0000
0000
0100
,
0000
0000
0100
0000
0000
0000
0001
0000
0000
0010
0000
0000
1000
0000
0000
1000
,
0000
0000
0100
0000
0000
0000
0010
0000
0000
0001
0000
0000
1000
0000
0000
0010
,
0000
0000
0200
0000
0010
0000
0000
0000
0001
0000
0000
0000
0310
0000
0000
1000
,
0001
1000
0001
0000
0000
0000
0100
0000
0000
0010
0000
0000
1000
0000
0000
0001
,
0000
0000
0100
0000
0000
0000
1000
0000
0000
0100
0000
0000
0010
0000
0000
0001
,
0000
0000
1000
0000
0000
0000
0010
0000
0000
0100
0000
0000
0001
0000
0000
1000
,
0000
0020
0000
0000
0000
0000
0130
0000
,
0000
0000
1000
0100
0010
0000
0001
0010
0100
0000
0001
0000
0000
0000
0000
0000
,
0000
0000
1000
0000
0001
0000
0100
0010
0100
0000
0010
0000
0000
0000
0000
0000
,
0000
0000
0100
0000
0010
0000
1000
0001
1000
0000
0010
0000
0000
0000
0100
0000
,
0001
0000
0000
0000
0001
0000
0000
0001
0000
0000
1000
0000
0010
0000
0000
0000
,
0000
0100
0110
0000
0000
0000
1001
0000
,
0000
1100
0000
0011
,
0000
1100
0110
1001
,
0110
0000
0001
1000
0001
1000
0000
0000
,
1010
0001
0100
0010
0100
0010
0100
0000
,
0001
0010
0001
0100
0010
0000
0000
1000
,
0001
0100
0010
0001
0000
1000
0010
0000
,
0100
0000
0000
0100
0000
0000
0100
0000
0010
0000
0000
0000
0000
0000
0001
1000
,
0001
0000
1000
0001
1000
0000
0001
0000
0000
0000
0000
0000
0000
0000
0000
0000
,
0100
0000
0100
0010
0100
0000
0010
0000
0000
0000
1000
0000
0100
0000
0010
0000
,
0001
0000
1000
0001
1000
0000
0001
0000
0000
0000
0100
0000
0010
0000
0000
0000
,
1000
0000
0000
1000
0000
0000
0100
0000
0010
0000
0000
0000
0000
0000
0000
0000
,
1001
0000
0000
0000
0000
0000
0010
0000
0001
0000
0000
0100
0000
0000
0000
0000
,
0100
1000
0100
0000
0010
0100
0010
0001
,
0010
0000
0000
0000
0001
0000
0100
0000
0010
0000
0000
1000
0000
0000
0010
0000
,
0100
0000
1000
0100
0000
0000
0000
0000
1000
0000
0000
0000
0001
0000
0000
0000
,
0100
0010
0100
0001
0100
0000
1001
0000
,
1000
0100
0010
0001
0010
0000
1001
0001
,
0010
0001
0010
0100
1001
0000
0010
0000
,
0100
0010
0100
0010
0110
0001
1000
0010
,
1000
0000
0000
1000
0000
0000
0000
0000
0010
0100
0000
0100
0000
0100
0010
0000
,
1000
0000
0010
0100
0010
0000
0100
0000
0001
0000
0000
0000
0010
0000
1000
0000
,
0100
0000
1000
0100
0010
0000
0001
0000
0010
0000
0000
0000
0001
0000
0001
1000
,
0001
0000
1000
0001
1000
0000
0010
0000
0100
0000
0000
0000
0010
0000
0000
0000
,
0001
0000
0000
0001
0000
0000
0001
0000
0100
0000
0000
0000
1000
0000
1000
0100
,
0010
0000
0001
0010
0100
0000
0010
0000
0100
0000
0000
0000
1000
0000
0000
0000
,
0001
0000
1000
0001
1000
0000
0010
0000
0000
0000
0100
0000
0010
0000
0100
0000
,
0010
0000
1000
0001
1000
0000
0010
0000
0000
0000
0100
0000
0010
0000
0000
0000
,
1000
0000
0000
1000
0000
0000
1000
0000
0100
0000
0000
0000
0000
0000
0000
0000
,
2002
3003
0000
0000
0000
0000
0000
0000
;

//---------------dance-single - Copied from Copied f----------------
#NOTEDATA:;
#CHARTNAME:Copied from Copied f;
#STEPSTYPE:dance-single;
#DESCRIPTION:Copied from Copied f;
#CHARTSTYLE:;
#DIFFICULTY:Easy;
#METER:5;
#RADARVALUES:0.240619,0.277962,0.104803,0.029944,0.000000,225.000000,211.000000,14.000000,4.000000,0.000000,0.000000,0.000000,0.000000,0.000000,0.240619,0.277962,0.104803,0.029944,0.000000,225.000000,211.000000,14.000000,4.000000,0.000000,0.000000,0.000000,0.000000,0.000000;
#CREDIT:Copied from Copied f;
#DISPLAYBPM:106.000000;
#NOTES:
0000
0000
0000
0000
,
0000
0000
0000
0000
,
0000
0000
0000
0000
,
0000
0000
0000
0000
,
0000
1000
0001
1000
,
0000
0010
0100
0010
,
0000
0001
1000
0001
,
0000
0000
1000
0000
0001
1000
0001
0000
,
0010
0100
0100
0010
,
0000
1000
0001
1000
,
0000
0010
0100
0010
,
0000
0000
1000
0000
0001
1000
0001
0000
,
0010
0000
0100
1000
0100
0010
0001
0000
,
1000
0000
0001
1000
0001
1000
0010
0000
,
0100
0000
0001
1000
0010
0100
0001
0000
,
1000
0000
0001
1000
0010
0100
0001
0000
,
1000
0000
0001
1000
0001
0000
0010
0100
,
0010
0000
1000
0001
1000
0000
0100
1000
,
0100
0000
0001
0010
0001
0000
1000
0001
,
1000
0200
0010
0310
,
0001
0000
1000
0001
1000
0000
0100
0010
,
0100
0000
0001
0010
0001
0000
0100
1000
,
0100
0000
1000
0001
1000
0000
0010
0100
,
0001
2000
0001
3001
,
0000
0100
0100
0010
,
0000
0001
0001
1000
,
0000
0100
0100
0010
,
0000
1000
0100
0010
,
0000
1001
0000
0110
,
0000
1100
0000
0110
,
0000
0001
0001
1000
,
1000
1000
0100
0010
,
1000
0100
0100
0000
,
0010
0010
0001
0000
,
0100
0100
1000
0000
,
0100
0000
0010
0100
0010
0000
0000
0000
,
1000
1000
0001
0000
,
0100
0100
0010
0000
,
0001
0001
0100
0000
,
1000
0000
1000
0001
1000
0000
0000
0000
,
0110
0000
1001
0000
,
1100
0000
1001
0000
,
0011
0000
0110
0000
,
1100
0000
1001
0000
,
0001
0000
0001
0100
0001
0000
0000
0000
,
1000
0000
1000
0100
1000
0000
0000
0000
,
0010
0000
0100
0010
0100
0000
0000
0000
,
1000
0000
1000
0001
1000
0000
0000
0000
,
0100
0000
0100
0000
,
0110
0000
1000
0000
0100
0010
0100
0000
,
0001
0000
1000
0000
0001
1000
0001
0000
,
0100
0000
0010
0000
0001
0010
0001
0000
,
0100
1000
0100
0000
0010
0000
0001
0000
,
1000
0001
1000
0000
0010
0000
0100
0000
,
0001
1000
0001
0000
0100
0000
0010
0000
,
1000
0100
1000
0000
0010
0000
0100
0000
,
1000
0001
1000
0000
0001
0000
0100
0000
,
0220
0330
0000
0000
0000
0000
0000
0000
;

//---------------dance-single - Copied from Copied f----------------
#NOTEDATA:;
#CHARTNAME:Copied from Copied f;
#STEPSTYPE:dance-single;
#DESCRIPTION:Copied from Copied f;
#CHARTSTYLE:;
#DIFFICULTY:Beginner;
#METER:2;
#RADARVALUES:0.131538,0.170679,0.014972,0.000000,0.000000,123.000000,121.000000,2.000000,0.000000,0.000000,0.000000,0.000000,0.000000,0.000000,0.131538,0.170679,0.014972,0.000000,0.000000,123.000000,121.000000,2.000000,0.000000,0.000000,0.000000,0.000000,0.000000,0.000000;
#CREDIT:Copied from Copied f;
#DISPLAYBPM:106.000000;
#NOTES:
0000
0000
0000
0000
,
0000
0000
0000
0000
,
0000
0000
0000
0000
,
0000
0000
0000
0000
,
0000
1000
0000
0001
,
0000
0010
0000
0110
,
0000
0001
0000
1000
,
0000
0100
0000
0100
,
0000
0001
0000
0001
,
0000
1000
0000
1000
,
0000
0100
0000
0001
,
0000
1000
0000
0001
,
0000
0100
0000
0100
,
0000
0001
0000
0001
,
0000
1000
0000
1000
,
0000
0100
0000
0010
,
0000
1000
1000
0001
,
0000
0100
0000
0001
,
0000
0010
0010
0010
,
0000
0001
0000
0100
,
0000
1000
1000
1000
,
0000
0001
0000
0100
,
0000
0010
0010
0010
,
0000
0001
0000
1000
,
0000
0001
0000
1000
,
0000
0001
0000
1000
,
0000
0100
0000
0010
,
0000
1000
0000
1000
,
0000
0010
0000
0100
,
0000
0010
0000
0100
,
0000
0100
0100
0100
,
0100
0010
0010
0000
,
1000
0000
0100
0000
,
0010
0000
0001
0000
,
0100
0000
0010
0000
,
0100
0100
0100
0000
,
0010
0000
0001
0000
,
1000
0000
0100
0000
,
0010
0000
0100
0000
,
0001
0000
1000
0000
,
0100
0000
0100
0000
,
0010
0000
0010
0000
,
0001
0000
0100
0000
,
1000
0000
0010
0000
,
0100
0000
0100
0000
,
0010
0000
0001
0000
,
0100
0000
1000
0000
,
0010
0000
0100
0000
,
1000
0000
0000
0000
,
0001
0100
0001
0000
,
1000
0100
1000
0000
,
0100
0010
0100
0000
,
0001
1000
0001
0000
,
0100
0010
0100
0000
,
1000
0001
1000
0000
,
0100
0010
1000
0000
,
0001
1000
0001
0000
,
1001
0000
0000
0000
;
