#VERSION:0.83;
#TITLE:Blu (Speed Up Ver.);
#SUBTITLE:;
#ARTIST:MiTiS & MaHi;
#TITLETRANSLIT:;
#SUBTITLETRANSLIT:;
#ARTISTTRANSLIT:;
#GENRE:;
#ORIGIN:;
#CREDIT:;
#BANNER:AV.avi;
#BACKGROUND:bg.png;
#PREVIEWVID:;
#JACKET:;
#CDIMAGE:;
#DISCIMAGE:;
#LYRICSPATH:;
#CDTITLE:;
#MUSIC:Blu.mp3;
#OFFSET:-0.172000;
#SAMPLESTART:34.568001;
#SAMPLELENGTH:14.000000;
#SELECTABLE:YES;
#BPMS:0.000=167.553,
60.000=83.776,
62.000=167.553,
90.000=83.776,
92.000=167.553,
186.000=335.100,
190.000=167.553;
#STOPS:;
#DELAYS:;
#WARPS:;
#TIMESIGNATURES:0.000=4=4;
#TICKCOUNTS:0.000=4;
#COMBOS:0.000=1;
#SPEEDS:0.000=1.000=0.000=0;
#SCROLLS:0.000=1.000;
#FAKES:;
#LABELS:0.000=Song Start;
#BGCHANGES:0.000=MV.avi=1.200=1=0=1===CrossFade==,
4.000=MV.avi=1.000=0=0=1=====,
354.000=MV.avi=0.000=0=0=1=====,
357.500=MV.avi=0.000=0=0=1=====,
99999=-nosongbg-=1.000=0=0=0 // don't automatically add -songbackground-
;
#KEYSOUNDS:;
#ATTACKS:
;

//---------------dance-single - ----------------
#NOTEDATA:;
#CHARTNAME:;
#STEPSTYPE:dance-single;
#DESCRIPTION:;
#CHARTSTYLE:;
#DIFFICULTY:Challenge;
#METER:19;
#RADARVALUES:1.165799,1.613754,1.694669,1.156448,1.174631,1122.000000,888.000000,233.000000,159.000000,0.000000,69.000000,0.000000,0.000000,0.000000,1.165799,1.613754,1.694669,1.156448,1.174631,1122.000000,888.000000,233.000000,159.000000,0.000000,69.000000,0.000000,0.000000,0.000000;
#CREDIT:;
#NOTES:
1001
0000
0000
0100
0000
0000
0001
0000
0000
0010
0000
0000
0100
0000
0010
1000
,
0002
0000
0000
0010
0000
0000
0100
0000
0000
1000
0000
0000
0103
0000
0010
0001
,
2000
0000
0000
0100
0000
0000
0010
0000
0000
0001
0000
0000
3100
0000
0010
0001
,
0200
0000
0000
1000
0000
0000
0320
0000
0000
0001
0000
0000
0130
0000
1000
0000
,
0200
0000
0000
0010
0000
0000
0302
0000
0000
0100
0000
0000
0010
0000
1000
0010
,
0203
0000
0000
0001
0000
0000
1000
0000
0000
0001
0000
0000
0310
0000
1000
0001
,
0020
0000
0000
0100
0000
0000
0001
0000
0000
1000
0000
0000
0130
0000
0001
0010
,
0002
0000
0100
1000
0000
0010
0100
0000
2003
0100
0000
0010
0001
0000
0100
0000
,
3011
0100
0010
0001
0010
0100
1000
0100
0010
0001
1000
0100
0010
0100
0001
0010
,
0100
1000
0100
0010
0001
0100
1000
0100
0010
0100
0001
0010
0100
1000
0100
0010
,
0001
0100
0010
0100
1000
0001
0010
0100
1000
0100
0010
1000
0001
0010
0100
1000
,
0010
0100
0010
0001
0100
0010
1000
0100
0010
0100
0010
0001
1000
0000
0001
0000
,
1000
0010
0100
0010
0001
0100
1000
0100
0010
0001
0010
0100
1000
0010
0100
0001
,
0010
1000
0100
0010
0001
0010
1000
0100
0010
0100
0010
0001
0010
0100
1000
0100
,
0010
1000
0100
0010
0001
0100
1000
0010
0100
0001
0010
0100
1000
0100
0010
0100
,
1002
0000
0000
0000
0000
0100
0000
0100
1013
0100
0010
0001
0010
0100
1000
0010
,
1100
0001
0100
0010
0100
1000
0001
0010
0101
1000
0100
0010
0100
0001
0010
0100
,
1001
0100
0010
0100
0001
0010
1000
0100
1010
0001
0100
0010
1000
0001
0010
0100
,
1001
0010
0100
0010
0100
1000
0001
0010
1100
0000
0001
0000
1100
0000
1100
0000
,
0011
0000
1100
1100
0011
0000
1100
0000
1100
0010
0001
1000
0100
0010
0100
0010
,
1001
0010
0100
0001
0010
0100
1000
0010
1100
0001
0010
0100
1000
0010
0100
0010
,
1001
0100
0010
0001
0010
0100
0010
1000
0101
0010
0001
0010
0100
0010
1000
0100
,
1001
0000
0010
0000
1000
0000
0100
0000
0010
0000
1000
0000
0001
0000
0010
0000
2100
0000
0001
0000
0000
0100
0000
0000
0010
0000
0000
0001
0000
0100
0000
0010
,
3101
0010
0100
1000
0010
0100
0011
0000
1100
0010
0001
0100
0011
1000
0100
1000
,
0011
0100
1000
0001
0010
0100
0011
0000
1100
0010
0001
0100
0011
1000
0010
1100
,
0011
0100
1000
0010
0100
1000
0011
0000
1100
0010
0100
1000
0011
0000
0011
0000
,
0011
0100
1000
0100
0011
0000
0011
0000
1100
0000
0011
0011
1100
1100
0011
0000
,
0011
0100
1000
0010
0100
1000
0011
0000
1100
0010
0001
1000
0011
0100
1000
0100
,
0011
1000
0100
0010
0001
1000
0011
0000
1100
0010
0001
1000
0011
0100
1000
0100
,
0011
1000
0100
0010
1000
0100
0011
0000
1100
0010
0100
1000
0011
0000
0000
1100
,
0011
0000
0011
0000
0011
0000
0011
0011
1100
0000
0011
0000
1100
1100
0011
0000
,
0011
0000
0100
1000
0100
0000
0001
0000
0010
0100
1000
0000
0010
0000
0001
0010
,
0100
0000
0010
0001
1000
0000
0010
0000
0100
1000
0100
0000
0010
0000
0100
0000
,
0010
0000
0001
0010
0100
0000
1000
0000
0100
0010
1000
0000
0100
0000
0001
1000
,
0010
0000
0100
0001
0010
0000
1000
0000
0001
0010
0100
0000
1000
0000
0100
0000
,
0011
0000
0000
0011
0000
0000
0011
0000
0000
0011
0000
0000
0011
0000
0000
0101
,
1010
0000
0000
1010
0000
0000
1010
0000
0000
1010
0000
0000
1010
0000
1001
0110
,
1001
0100
0010
1001
0100
0010
1001
0000
0000
1001
0000
0000
1001
0000
0000
0011
,
1100
0000
0000
1100
0000
0000
1100
0000
0000
1100
0000
0000
1100
0000
0011
0100
,
1001
0000
0010
0100
1000
0000
0010
0000
0100
0000
0000
0000
1100
0000
0011
0100
,
1001
0000
0010
0100
0010
0000
0001
0000
1000
0000
0100
0000
0011
0000
0000
0011
,
0011
0000
0100
0001
1010
0100
0001
0000
1100
0010
0000
0000
1001
0010
0101
0000
,
1001
0000
0010
0100
1000
0100
0011
0000
1010
0000
0101
0000
2010
0000
3200
0000
,
0311
1100
0011
1100
0011
1100
0011
1100
,
0011
0000
1100
0000
0011
0000
1100
0000
0011
0000
1100
0000
0011
0000
0000
1100
,
0011
1100
0011
1100
0011
1100
0011
1100
0011
1100
0011
1100
0011
1100
0011
1100
,
0012
0000
0000
0103
0001
0100
2000
0000
0000
0000
0000
0000
,
0000
0000
0000
0000
3020
0230
0320
0230
,
2302
3023
0030
0000
0002
2003
3002
2003
,
3210
0000
0320
0000
0032
0000
0000
1100
1103
0000
0020
0000
2030
0000
3002
0000
,
0103
0010
0100
1000
0002
0100
0023
0000
2230
0000
0000
0000
0302
0000
0000
0000
,
3013
0100
1000
0010
0101
0000
1010
0000
0102
0000
0023
0000
0032
0000
0023
0000
,
2230
0000
0000
0000
3320
0230
0320
0230
,
2301
0000
3002
0000
2003
0000
3100
0010
0002
0000
0000
0000
0003
0000
1010
0000
,
0101
0010
0100
1000
0010
0100
0001
0010
0100
1000
0100
0010
0001
1000
0100
0010
,
1001
0000
0110
0000
1001
1001
0110
0000
0120
0000
2030
0000
3020
0000
2030
0000
,
3102
0000
0020
0000
2033
3200
2300
3200
,
0321
0000
0032
0000
0203
0000
0000
0011
0321
0000
0000
0100
2030
0000
0100
0000
,
3101
0010
0100
1000
0020
0100
0032
0010
2003
0000
0000
0100
3000
0000
0010
1000
,
0100
0010
0001
0100
1000
0100
0011
0000
0012
0000
2003
0000
3002
0000
2003
0000
,
3220
0000
0000
2300
0000
0000
3032
0000
2003
0000
3200
0000
2300
0000
3200
0000
,
0321
0000
0030
1000
0001
0000
0010
0100
2000
0000
3002
0000
2003
0000
3002
0000
,
1013
0100
1000
0010
0100
0001
0010
1000
0100
0010
0001
0100
0010
1000
0100
0001
,
1100
0000
0011
0000
1100
1100
0011
0000
2012
0000
3000
0000
0200
0000
0300
0000
,
2000
3000
0200
0300
0223
0300
2000
3000
,
0002
0000
0103
0000
1000
0000
0001
1000
0232
0000
0013
0001
2000
0000
3010
0001
,
0020
0000
0031
1000
0002
0000
0023
0000
2330
0000
0020
0000
0031
0000
0020
0000
,
3230
0001
0010
1000
0010
0000
0001
0010
1300
0100
0010
0001
1000
0100
0010
0001
,
1000
0100
0010
0001
1000
0100
0010
0100
0001
0010
0100
1000
0001
0010
0100
1000
,
0001
0010
0100
1000
0001
0010
0100
1000
0010
0100
0001
1000
0010
0100
0001
1000
,
0010
0100
0001
1000
0010
0100
0001
1000
0100
0010
0001
1000
0100
0010
0100
0010
,
0001
0010
0100
1000
0100
0010
0001
1000
0002
0000
0203
0000
1302
0000
0203
0000
,
0310
0000
0000
0011
1100
0000
0011
0000
0021
0000
2030
0000
3120
0000
2030
0000
,
3110
0000
1001
1001
0110
0000
1001
0000
1002
0000
0203
0000
1302
0000
0203
0000
,
1310
0000
0100
1000
0011
1000
0100
0001
1010
0000
0200
0000
0311
0000
2000
0000
,
3110
0000
0002
0000
1103
0000
0011
1100
0012
0000
2003
0000
3102
0000
2003
0000
,
3110
0001
1000
0001
0010
0100
1000
0100
0020
0000
0032
0000
0123
0000
0032
0000
,
1103
0010
1100
1100
0011
0000
1100
0001
1200
0000
0320
0000
0231
0000
0320
0000
,
0031
0010
0100
1000
0100
0010
0100
0001
1010
0000
1010
0000
0101
0000
1010
0000
,
0011
1100
0011
1100
0011
1100
0011
1100
0022
0000
0000
0000
0000
0000
0230
0000
,
0000
0000
0000
0320
2233
0000
0000
0000
,
0010
0000
0000
0000
3322
0000
0000
2030
,
0000
0000
3223
0000
,
0302
0000
0000
0000
2233
0000
0000
3020
,
0000
0000
0000
2030
3322
0000
0000
0000
,
0100
0000
0000
0000
2233
0000
0000
0302
,
0000
0000
0000
0203
3322
0000
0000
0000
,
2003
0000
3230
0000
,
0000
0000
0000
0300
;

//---------------dance-single - ----------------
#NOTEDATA:;
#CHARTNAME:;
#STEPSTYPE:dance-single;
#DESCRIPTION:;
#CHARTSTYLE:;
#DIFFICULTY:Hard;
#METER:17;
#RADARVALUES:0.686803,0.922794,0.065459,0.770965,0.563677,661.000000,652.000000,9.000000,106.000000,0.000000,0.000000,0.000000,0.000000,0.000000,0.686803,0.922794,0.065459,0.770965,0.563677,661.000000,652.000000,9.000000,106.000000,0.000000,0.000000,0.000000,0.000000,0.000000;
#CREDIT:;
#NOTES:
// measure 0
0000
0000
0000
0000
,  // measure 1
0000
0000
0000
0000
,  // measure 2
0000
0000
0000
0000
,  // measure 3
0000
0000
0000
0000
,  // measure 4
0000
0000
0000
0000
,  // measure 5
0000
0000
0000
0000
,  // measure 6
0000
0000
0000
0000
,  // measure 7
0000
0000
0000
0000
,  // measure 8
1001
0000
1000
0010
0100
0000
0001
0000
0100
0010
1000
0000
0100
0000
0010
0100
,  // measure 9
0001
0000
1000
0001
1000
0000
0100
0000
0010
1000
0001
0000
0010
0000
1000
0001
,  // measure 10
1000
0000
0010
0100
0010
0000
0001
0000
1000
0010
1000
0000
0001
0000
0100
0010
,  // measure 11
1000
0000
0001
0100
0001
0000
1000
0000
0010
0100
0010
0000
1000
0000
0001
0000
,  // measure 12
1000
0000
0010
0100
0001
0000
0100
0000
1000
0001
1000
0000
0010
0000
0010
1000
,  // measure 13
0010
0000
1000
0001
1000
0000
0100
0000
0010
0001
0010
0000
0100
0000
0001
1000
,  // measure 14
0001
0000
0100
0010
0100
0000
0001
0000
0100
0010
1000
0000
0100
0000
0001
0100
,  // measure 15
0002
0000
0000
0000
0000
0000
0000
0000
1003
0000
0010
0100
0000
0001
0100
0000
,  // measure 16
0001
1000
0010
0000
0010
0000
0100
0000
0001
0000
1000
0010
0000
0100
0010
0000
,  // measure 17
1000
0000
0001
0000
0100
0000
0100
0000
0010
0000
0100
0010
0000
1000
0001
0000
,  // measure 18
0100
0000
0010
0000
0010
0000
1000
0000
0001
0000
0100
0010
0000
1000
0010
0000
,  // measure 19
0100
0000
0001
1000
0001
0000
0100
0000
0100
0000
0010
1000
0000
0001
1000
0000
,  // measure 20
0010
0100
0001
0000
0100
0000
0010
0000
1000
0000
0010
0100
0000
0001
0100
0000
,  // measure 21
0010
0000
1000
0000
0001
0000
0100
0000
0001
0000
1000
0010
0000
0100
0010
0000
,  // measure 22
1000
0000
0000
0000
0001
0000
0000
0000
0100
0000
0000
0000
0001
0000
0000
0000
0010
0000
0000
0100
0000
0000
0010
0000
0000
0100
0000
0000
0010
0000
1000
0000
,  // measure 23
0001
0100
0010
0100
0001
0000
1000
0000
0010
0000
0100
0000
0001
0000
0100
0000
,  // measure 24
0010
0100
0010
1000
0001
0000
0010
0000
0100
0000
1000
0000
0001
0000
0100
0001
,  // measure 25
0100
0001
1000
0000
0010
0000
0001
0000
1000
0000
0010
0000
0100
0000
0010
0000
,  // measure 26
1000
0000
0001
0000
0100
0000
0001
0000
0100
0000
0100
0010
0100
0001
1000
0000
,  // measure 27
0010
1000
0010
0100
0001
0000
0100
0000
0001
0000
1000
0000
0010
0000
0100
0000
,  // measure 28
0010
1000
0010
0100
0001
0000
0001
0000
1000
0000
0010
0000
1000
0000
0001
0000
,  // measure 29
0100
0010
1000
0010
0100
0000
0100
0000
0010
0000
1000
0000
0001
0000
0100
0010
,  // measure 30
1000
0000
0100
0000
0010
0000
0001
0100
0010
0000
0100
0000
0010
1000
0001
0000
,  // measure 31
0100
0000
1000
0010
0100
0000
0010
0000
1000
0001
1000
0000
0010
0000
0100
0000
,  // measure 32
0010
0000
1000
0010
0100
0000
0001
0000
0010
1000
0001
0000
0010
0000
1000
0000
,  // measure 33
0001
0000
0100
0010
0100
0000
0001
0000
1000
0010
0100
0000
0001
0000
0100
0001
,  // measure 34
1000
0000
0010
0100
0001
0000
1000
0000
0010
0100
0010
0000
1000
0000
0010
0000
,  // measure 35
0100
0000
0000
0100
0000
0000
0100
0000
0000
0100
0000
0000
0100
0000
0000
1000
,  // measure 36
0010
0000
0000
0010
0000
0000
0010
0000
0000
0010
0000
0000
0010
0000
0100
0000
,  // measure 37
0001
0000
0000
0001
0000
0000
0001
0000
0000
0001
0000
0000
0001
0000
0000
0010
,  // measure 38
0100
0000
0000
0100
0000
0000
0100
0000
0000
0100
0000
0000
0100
0000
0010
0000
,  // measure 39
1010
0000
0010
0100
0001
0000
1000
0000
0010
1000
0100
0000
0010
0000
0001
0000
,  // measure 40
0101
0000
1000
0010
1000
0000
0001
0000
0100
0010
0100
0000
0101
0000
0000
0000
,  // measure 41
1001
1010
0110
0101
,  // measure 42
1001
0000
0000
0010
1000
0000
0100
0000
0010
0000
0100
0000
0100
0000
0010
0000
,  // measure 43
0001
1000
0010
0100
0001
0100
0010
1000
,  // measure 44
0010
0000
0100
0000
0001
0000
0010
0000
0100
0000
1000
0000
0100
0000
0000
1000
,  // measure 45
0001
1000
0001
1000
0001
1000
0001
1000
0001
1000
0001
1000
0001
1000
0001
1000
,  // measure 46
0002
0000
0000
1003
0010
1000
0200
0000
0000
0000
0000
0000
,  // measure 47
0000
0000
0000
0000
2300
3020
2030
3020
,  // measure 48
0230
0000
0300
0000
0002
0203
0302
0203
,  // measure 49
0310
1000
0020
0000
0230
0000
0302
2003
,  // measure 50
3010
0100
0010
1000
0001
0000
0100
0000
0002
0000
0000
0000
0203
0000
0000
0000
,  // measure 51
0310
1000
0010
0100
0001
0000
0100
0000
0002
0000
2003
0000
3002
0000
2003
0000
,  // measure 52
3020
0000
0000
0000
0230
0302
0203
0302
,  // measure 53
1003
0000
1000
0000
1000
0000
0010
0100
0002
0000
0000
0000
0003
0000
0000
0000
,  // measure 54
0010
1000
0001
1000
0010
0100
0001
0100
0010
1000
0010
1000
0001
0100
0010
0100
,  // measure 55
0002
0000
1000
0203
0320
2030
3020
2030
,  // measure 56
3002
0000
0000
0000
0203
0320
0230
0320
,  // measure 57
1030
0000
0100
0000
0020
0000
0000
0130
0010
0000
0000
0001
0000
0000
1000
0000
,  // measure 58
0010
0100
0001
0100
0002
0000
0203
0000
0310
0000
0000
0010
0000
0000
0100
0000
,  // measure 59
0010
0100
0010
1000
0002
0000
0203
0000
0320
0000
2030
0000
3020
0000
2030
0000
,  // measure 60
3002
0000
0003
0200
0000
0300
0020
0000
2030
0000
3002
0000
2003
0000
3002
0000
,  // measure 61
0203
0000
0300
0010
1000
0000
0001
0100
0002
0000
2003
0000
3002
0000
2003
0000
,  // measure 62
3010
0100
0001
1000
0001
0100
0010
0100
0001
1000
0010
0100
0010
1000
0010
0100
,  // measure 63
0002
2003
3020
0230
0302
0000
0010
0000
,  // measure 64
1000
0100
2003
0010
,  // measure 65
0001
0100
3020
0100
,  // measure 66
0001
0100
2030
0010
,  // measure 67
3002
0000
0100
0000
0103
0010
0100
0010
,  // measure 68
0100
0010
0100
0010
1000
0001
1000
0001
,  // measure 69
1000
0001
1000
0001
1000
0010
1000
0010
,  // measure 70
1000
0000
0010
0000
1000
0000
0010
0000
1000
0010
1000
0010
0100
0001
0100
0001
,  // measure 71
1000
0010
1000
0010
0100
0001
1000
0001
0200
0000
0320
0000
0230
0000
0320
0000
,  // measure 72
1030
0000
0000
0010
0100
0000
0001
0000
2000
0000
3020
0000
2030
0000
3020
0000
,  // measure 73
0130
0000
0100
0001
0100
0000
0010
0000
2000
0000
0000
3010
0000
0000
0200
0000
,  // measure 74
0000
2300
3020
0230
0302
2003
3002
2003
,  // measure 75
3010
0000
0100
0000
0001
0000
1000
0010
2000
0000
3002
0000
2003
0000
3002
0000
,  // measure 76
0103
0010
1000
0001
1000
0010
0100
0001
0200
0000
0320
0000
0230
0000
0320
0000
,  // measure 77
1030
0010
0100
0010
1000
0000
0010
0100
0002
0000
2003
0000
3002
0000
2003
0000
,  // measure 78
3010
0100
0010
1000
0001
0100
0010
0100
0001
1000
0100
1000
0001
0100
0001
0100
,  // measure 79
0010
1000
0010
1000
0010
1000
0010
1000
0020
0000
0000
0000
0000
0000
0100
0000
,  // measure 80
0000
0000
2030
0000
,  // measure 81
0001
0000
0000
0000
3020
0000
0000
0100
,  // measure 82
0000
0000
0230
0000
,  // measure 83
0010
0000
0000
0000
0302
0000
0000
0100
,  // measure 84
0000
0000
2003
0000
,  // measure 85
0100
0000
0000
0000
3020
0000
0000
1000
,  // measure 86
0000
0000
0230
0000
,  // measure 87
0001
0000
0300
0000
;

//---------------dance-single - ----------------
#NOTEDATA:;
#CHARTNAME:;
#STEPSTYPE:dance-single;
#DESCRIPTION:;
#CHARTSTYLE:;
#DIFFICULTY:Medium;
#METER:9;
#RADARVALUES:0.411458,0.540948,0.058186,0.887337,0.105462,396.000000,388.000000,8.000000,122.000000,0.000000,0.000000,0.000000,0.000000,0.000000,0.411458,0.540948,0.058186,0.887337,0.105462,396.000000,388.000000,8.000000,122.000000,0.000000,0.000000,0.000000,0.000000,0.000000;
#CREDIT:;
#NOTES:
0020
0000
0000
0230
0000
0000
0000
1300
,
0020
0000
0000
0000
,
0230
0000
0000
0000
,
0302
0000
0000
2003
0000
0000
3010
0100
,
0002
0000
0000
0023
0000
0000
0000
0130
,
2000
0000
0000
0000
,
3020
0000
0000
0000
,
0230
0000
0320
0000
,
1030
0000
0000
1000
0000
0000
1000
0000
0000
1000
0000
0000
1000
0000
0000
0000
,
0001
0000
0000
0001
0000
0000
0001
0000
0000
0001
0000
0000
0001
0000
0000
0000
,
0010
0000
0000
0010
0000
0000
0010
0000
0000
0010
0000
0000
0010
0000
0000
0000
,
0100
0000
0000
0100
0000
0000
0100
0000
0000
0100
0000
0000
0100
0000
0010
0000
,
1000
0000
0000
1000
0000
0000
1000
0000
0000
1000
0000
0000
1000
0000
0000
0000
,
0010
0000
0000
0010
0000
0000
0010
0000
0000
0010
0000
0000
0010
0000
0000
0000
,
0001
0000
0000
0001
0000
0000
0001
0000
0000
0001
0000
0000
0001
0000
0000
0000
,
1001
0000
0010
0100
,
1000
0000
0010
0100
0010
0000
0001
0000
,
1000
0010
0100
0000
0001
0000
1000
0000
,
0010
0000
0100
0010
1000
0000
0100
0000
,
0010
0000
1000
0001
0100
0000
0001
0000
,
0010
0000
1000
0100
0010
0000
0000
0000
,
0001
1000
0010
0000
0100
0000
0010
0000
,
1000
0001
0200
0000
,
0310
0000
1000
0000
0001
0000
1000
0100
,
0010
0000
0100
0000
0001
1000
0010
0000
,
1000
0000
0010
0000
0001
0000
0100
1000
,
0001
0000
0010
0100
0010
1000
0001
0100
,
0010
0000
0001
0000
1000
0000
0010
0100
,
0001
0000
1000
0000
0010
1000
0100
0000
,
0010
0000
0001
0000
0010
0000
1000
0100
,
0010
0001
0010
0001
0100
0010
1000
0010
,
0100
0000
0000
0010
0000
0000
0100
0000
0000
0001
0000
0000
1000
0000
0100
0000
,
0010
0000
0000
1000
0000
0000
0010
0000
0000
0100
0000
0000
0001
0000
1000
0000
,
0001
0000
0000
0100
0000
0000
0010
0000
0000
1000
0000
0000
0100
0000
0010
0000
,
0002
0000
0000
0103
0100
0000
0010
1000
,
0001
0000
0000
0001
0000
0000
0001
0000
0000
0001
0000
0000
0001
0000
0000
0000
,
0100
0000
0000
0100
0000
0000
0100
0000
0000
0100
0000
0000
0100
0000
0010
0000
,
1000
0000
0000
1000
0000
0000
1000
0000
0000
1000
0000
0000
1000
0000
0000
0000
,
0010
0000
0000
0010
0000
0000
0010
0000
0000
0010
0000
0000
0010
0000
0100
0000
,
0001
1000
0010
0100
,
0101
0010
1000
0010
,
1001
1010
1001
0101
,
1010
0100
0010
0001
,
1000
0010
1000
0010
1000
0010
1000
0010
,
0100
0010
0100
0010
0100
0010
0100
0000
,
0002
0000
0000
0000
,
0203
0300
1001
0000
,
0000
0000
0000
0000
0020
0230
0320
0230
,
0300
0000
0000
0000
2000
3002
2003
3002
,
0103
0100
0100
0000
0010
1000
0002
0203
,
0310
1000
0020
0230
0302
0000
2003
0000
,
3010
0100
0002
0023
0032
2003
3002
2003
,
3020
0000
0000
0000
0230
0302
0203
0302
,
1003
1000
1000
0010
0200
0000
0300
0000
,
0010
1000
0001
0010
0100
1000
0010
0100
,
0002
0000
0000
0203
0320
2030
3020
2030
,
3002
0000
0000
0000
0203
0320
0230
0320
,
1030
0100
0020
0000
2030
0000
3200
0000
,
0310
0001
0010
0100
2000
0000
0000
0000
,
3010
0100
0001
0010
0002
0203
0302
0203
,
0320
0000
0000
0000
2030
3002
2003
3002
,
0103
0000
0010
1000
0020
0230
0320
0230
,
0301
0100
0010
1000
0100
1000
0010
0100
,
0001
0010
0100
1000
0200
0000
0000
0000
,
0000
0000
0320
0000
,
0000
0000
0032
0000
,
0000
0000
0023
0000
,
0230
0000
2300
0000
,
0000
0000
3020
0000
,
0000
0000
0230
0000
,
0000
0000
0302
2003
,
3020
0000
0230
0000
0302
2003
3002
2003
,
3010
0000
0000
0100
0000
0000
0010
0000
2000
0000
3002
0000
2003
0000
3002
0000
,
0103
0010
0100
0010
0020
2030
3020
2030
,
3001
0100
0010
0100
0002
2003
3002
2003
,
3020
2030
3001
0010
0200
0320
0230
0320
,
2030
0000
0000
0000
3002
0203
0302
0203
,
0310
1000
0020
0000
0230
0302
0203
0302
,
1003
0000
0010
0000
1000
0100
0010
0001
,
0100
0010
1000
0100
2000
0000
0000
0000
,
0000
0000
3020
0000
,
0000
0000
2030
0000
,
0000
0000
3002
0000
,
0000
0000
0203
0000
,
0000
0000
0320
0000
,
0000
0000
0230
0000
,
0000
0000
0302
0000
,
0000
0000
0003
0000
;

//---------------dance-single - ----------------
#NOTEDATA:;
#CHARTNAME:;
#STEPSTYPE:dance-single;
#DESCRIPTION:;
#CHARTSTYLE:;
#DIFFICULTY:Easy;
#METER:5;
#RADARVALUES:0.237939,0.286384,0.000000,0.276384,0.000000,229.000000,229.000000,0.000000,38.000000,0.000000,0.000000,0.000000,0.000000,0.000000,0.237939,0.286384,0.000000,0.276384,0.000000,229.000000,229.000000,0.000000,38.000000,0.000000,0.000000,0.000000,0.000000,0.000000;
#CREDIT:;
#NOTES:
0020
0000
0000
0000
,
2030
0000
0000
0000
,
3020
0000
0000
0000
,
0032
0000
0000
0013
,
0200
0000
0000
0000
,
2300
0000
0000
0000
,
3002
0000
0000
0000
,
0203
0000
0320
0000
,
1030
0000
0010
0000
,
0100
0000
0001
0000
,
1000
0000
0010
0000
,
0100
0000
0001
1000
,
0001
0000
0100
0000
,
0010
0000
1000
0000
,
0001
0000
0100
0010
,
2000
0000
3010
0000
,
0010
0100
0001
0000
,
0010
1000
0001
0000
,
0100
0010
1000
0000
,
0100
0001
1000
0000
,
0010
0100
0001
0000
,
0001
0100
0010
0000
,
1000
0010
0200
0000
,
0301
0000
0010
1000
,
0001
0000
0100
0010
,
1000
0000
0001
0100
,
0010
1000
0010
0100
,
0001
0000
1000
0001
,
0100
0000
0010
1000
,
0001
0000
0100
0010
,
1000
0010
0100
0001
,
0010
0100
1000
0001
,
0100
0001
1000
0010
,
0100
0001
1000
0010
,
0001
0100
0010
1000
,
0020
0000
0000
0000
,
0230
0000
0000
0000
,
0302
0000
0000
0000
,
2003
0000
0000
0000
,
3010
0100
0010
0000
,
1000
0010
1000
0000
,
0001
1000
0001
1000
,
0010
0100
0010
0100
,
1000
0010
0001
0010
,
1000
0010
0100
0001
,
1000
0010
0100
0001
,
0020
0000
0130
0000
,
0000
0000
0010
0100
,
0010
0000
1000
0001
,
1000
0010
0100
0001
,
1000
0010
0200
0302
,
1003
0100
0010
0100
,
0020
0000
1030
0001
,
0100
0010
2000
3000
,
0001
0100
0010
1000
,
0010
0100
0001
1000
,
0020
0000
0130
0010
,
0100
0001
1000
0010
,
0001
0100
0010
1000
,
0010
0100
0001
0010
,
0002
0000
1003
0010
,
0100
0001
1000
0010
,
0100
0001
0010
1000
,
0100
0010
0002
0000
,
0000
0000
0203
0000
,
0000
0000
0320
0000
,
0000
0000
2030
0000
,
3020
0000
0230
0000
,
0000
0000
0302
0000
,
0000
0000
2003
0000
,
0000
0000
3010
0100
,
0010
1000
0010
0100
,
0001
0000
0100
0001
,
1000
0000
0010
0100
,
0010
0000
1000
0001
,
0100
0010
1000
0001
,
1000
0000
0010
0100
,
0010
0000
1000
0001
,
0100
0010
1000
0001
,
0100
0010
2000
0000
,
0000
0000
3020
0000
,
0000
0000
0032
0000
,
0000
0000
0203
0000
,
0000
0000
0302
0000
,
0000
0000
2003
0000
,
0000
0000
3020
0000
,
0000
0000
0230
0000
,
0000
0000
0300
0000
;

//---------------dance-single - ----------------
#NOTEDATA:;
#CHARTNAME:;
#STEPSTYPE:dance-single;
#DESCRIPTION:;
#CHARTSTYLE:;
#DIFFICULTY:Beginner;
#METER:2;
#RADARVALUES:0.137153,0.159102,0.000000,0.225471,0.000000,132.000000,132.000000,0.000000,31.000000,0.000000,0.000000,0.000000,0.000000,0.000000,0.137153,0.159102,0.000000,0.225471,0.000000,132.000000,132.000000,0.000000,31.000000,0.000000,0.000000,0.000000,0.000000,0.000000;
#CREDIT:;
#NOTES:
0020
0000
0000
0000
,
2030
0000
0000
0000
,
3020
0000
0000
0000
,
0032
0000
0000
0000
,
0203
0000
0000
0000
,
0320
0000
0000
0000
,
0032
0000
0000
0000
,
2003
0000
0000
0000
,
3010
0000
0000
0000
,
1000
0000
0000
0000
,
0010
0000
0000
0000
,
0100
0000
0000
0000
,
0001
0000
0000
0000
,
0010
0000
0000
0000
,
1000
0000
0000
0000
,
0020
0000
0130
0000
,
0001
0000
0010
0000
,
1000
0000
0010
0000
,
1000
0000
0001
0000
,
0100
0000
0010
0000
,
1000
0000
0010
0000
,
0100
0000
0001
0000
,
0010
0000
2000
0000
,
3010
0000
0100
0000
,
0001
0000
0010
0000
,
0001
0000
0100
0000
,
0010
0000
1000
0000
,
0001
0000
0100
0000
,
0010
0000
0001
0000
,
1000
0000
0010
0000
,
0100
0000
0010
0000
,
1000
0000
0010
0000
,
0001
0000
0100
0000
,
0010
0000
1000
0000
,
0100
0000
0001
0000
,
0020
0000
0000
0000
,
0230
0000
0000
0000
,
0302
0000
0000
0000
,
2003
0000
0000
0000
,
3010
0000
0100
0000
,
0001
0000
1000
0000
,
0010
0000
0001
0000
,
0100
0000
0010
0000
,
1000
0000
0001
0000
,
1000
0000
0001
0000
,
1000
0000
0010
0000
,
0200
0300
0000
0000
,
0000
0000
0010
0000
,
0000
0000
0100
0000
,
0000
0000
0001
0000
,
1000
0000
0010
0000
,
0100
0000
0001
0000
,
0000
0000
0100
0000
,
0000
0000
0010
0000
,
1000
0000
0001
0000
,
0100
0000
0010
0000
,
0000
0000
1000
0000
,
0000
0000
0001
0000
,
0100
0000
0010
0000
,
1000
0000
0010
0000
,
0000
0000
0100
0000
,
0000
0000
0001
0000
,
1000
0000
0010
0000
,
0100
0000
0002
0000
,
0000
0000
0023
0000
,
0000
0000
2030
0000
,
0000
0000
3020
0000
,
0230
0000
0302
0000
,
0000
0000
0023
0000
,
0000
0000
2030
0000
,
0000
0000
3010
0000
,
0100
0000
0010
0000
,
1000
0000
0001
0000
,
0100
0000
0010
0000
,
1000
0000
0001
0000
,
1000
0000
0010
0000
,
0100
0000
0001
0000
,
1000
0000
0010
0000
,
0100
0000
0001
0000
,
0010
0000
2000
0000
,
0000
0000
3020
0000
,
0000
0000
0230
0000
,
0000
0000
0302
0000
,
0000
0000
2003
0000
,
0000
0000
3020
0000
,
0000
0000
0230
0000
,
0000
0000
0302
0000
,
0000
0000
0003
0000
;
