#VERSION:0.83;
#TITLE:Baby;
#SUBTITLE:;
#ARTIST:ASTRO;
#TITLETRANSLIT:;
#SUBTITLETRANSLIT:;
#ARTISTTRANSLIT:;
#GENRE:;
#ORIGIN:;
#CREDIT:;
#BANNER:AV.avi;
#BACKGROUND:BG.png;
#PREVIEWVID:;
#JACKET:JACKET.png;
#CDIMAGE:;
#DISCIMAGE:;
#LYRICSPATH:;
#CDTITLE:;
#MUSIC:audio.ogg;
#OFFSET:-0.130000;
#SAMPLESTART:55.090172;
#SAMPLELENGTH:14.999995;
#SELECTABLE:YES;
#BPMS:0.000=107.974,
95.000=53.987,
97.000=107.974,
161.000=53.987,
169.000=107.974,
180.000=53.987,
185.000=107.974;
#STOPS:;
#DELAYS:;
#WARPS:;
#TIMESIGNATURES:0.000=4=4;
#TICKCOUNTS:0.000=4;
#COMBOS:0.000=1;
#SPEEDS:0.000=1.000=0.000=0;
#SCROLLS:0.000=1.000;
#FAKES:;
#LABELS:0.000=Song Start;
#BGCHANGES:0.000=MV.avi=0.900=1=0=1===CrossFade==,
3.000=MV.avi=1.000=0=0=1=====,
99999=-nosongbg-=1.000=0=0=0 // don't automatically add -songbackground-
;
#KEYSOUNDS:;
#ATTACKS:
;

//---------------dance-single - ----------------
#NOTEDATA:;
#CHARTNAME:;
#STEPSTYPE:dance-single;
#DESCRIPTION:;
#CHARTSTYLE:;
#DIFFICULTY:Challenge;
#METER:15;
#RADARVALUES:0.756917,0.987853,0.839213,0.896108,0.814321,745.000000,627.000000,118.000000,126.000000,0.000000,29.000000,0.000000,0.000000,0.000000,0.756917,0.987853,0.839213,0.896108,0.814321,745.000000,627.000000,118.000000,126.000000,0.000000,29.000000,0.000000,0.000000,0.000000;
#CREDIT:;
#NOTES:
0000
0000
0000
0000
0000
0000
1000
0100
,
1010
0000
0001
0100
0000
0100
0010
0000
1001
0000
0010
0000
0100
0000
0010
0000
,
1010
0000
0001
0100
0000
0100
0010
0000
1100
0000
0001
0000
0100
0000
0010
0000
,
0110
0000
0001
1000
0000
1000
0010
0000
0110
0000
0001
0000
0100
0000
0010
0000
,
1001
0000
0010
0000
0000
0001
0001
0000
0120
0000
0001
0000
1030
0000
0100
0000
,
1010
0000
0001
0100
0000
0100
0010
0000
1010
0000
0001
0000
0100
0000
0010
0000
,
1001
0000
0010
0001
0000
0001
2000
3000
0110
0000
0002
0003
0010
0000
0100
0000
,
1010
0000
0001
0100
0000
0100
0010
0000
1001
0000
0010
0000
0100
0000
0010
0000
,
1100
0000
0010
0000
0000
0001
0001
1000
0110
0000
1001
0000
0010
0000
1000
0000
,
0101
0000
0010
0000
1000
0001
0000
0100
0011
0000
0000
0100
0010
0000
1000
0000
,
0101
1000
0000
0010
0000
1000
0020
0130
1001
0100
2000
3010
0000
0000
1000
0000
,
0110
0000
1000
0000
0010
0100
0001
1000
0011
0100
0000
0002
0000
0000
0100
0000
,
1013
0000
0002
0003
0200
0310
0200
0300
0021
0030
0200
0300
1001
0000
0010
0000
,
1100
0000
0001
0000
0100
0010
0000
1000
0011
0000
0000
0010
1000
0000
0100
0000
,
0011
0000
0001
1000
0000
0001
0020
0130
1001
0010
2000
3200
0000
0000
0000
0300
,
1010
0000
0001
0000
1000
0100
0010
0100
1001
0000
0100
0010
0000
0000
0001
1000
,
0110
0000
0002
0003
0200
0310
0200
0300
0020
0030
0200
0300
0020
0000
0000
0100
,
1031
0000
0010
1000
0200
0000
0010
1000
0311
0000
0102
0000
0000
0000
0013
0100
,
1001
0100
0001
0000
0100
0010
2000
3001
0110
0000
0020
0030
0200
0000
0000
0010
,
1301
0000
0100
1000
0020
0000
0001
1000
0131
0000
2010
0000
0000
0000
3001
0010
,
0101
0010
1000
0010
0001
0100
0001
0000
0101
0000
0011
1000
0011
0000
0200
0301
,
0100
1000
0002
0013
0000
0100
0020
0030
1000
0000
0020
0130
0010
0000
0200
0300
,
0001
1000
0020
0130
0000
0100
0020
0030
0100
0000
2000
3000
0110
0000
0010
0000
,
1010
0000
0002
1003
0110
0000
0010
0000
2000
0000
0010
0000
3101
1000
0010
0100
,
0000
0010
0100
0000
0020
0000
0100
0030
1002
0000
0000
0000
0023
0000
0000
0000
1100
0000
0030
0000
0001
0000
1000
0000
0100
0000
1000
0000
0010
0000
0100
0000
,
0011
0000
0100
1000
0010
0001
2000
0000
0011
3000
0100
0010
0000
0010
2000
0000
,
3021
0000
0230
0000
0320
0000
1030
0000
0110
0000
0100
0001
0000
0001
0100
0000
,
1010
0000
1000
0000
0001
0000
0200
0000
0321
0000
0230
0000
2300
0001
3002
0000
,
2103
0000
3010
0000
0200
0000
2300
0011
3110
0000
0010
0000
0001
0100
0001
0010
,
2100
0000
0010
3001
0120
0000
2030
0000
0101
3000
0010
1000
0000
1000
0002
0003
,
0110
0000
0020
0030
1000
0000
0001
0100
1010
0000
0010
0100
0001
0000
0010
1000
,
0011
1000
0020
0000
1000
0030
0001
0100
0011
1000
0001
0000
0100
0001
0001
0000
,
1000
0000
0100
0000
0010
0000
1000
0000
0011
0000
0100
0001
0000
1000
0010
0000
,
0110
0000
1000
0000
0100
0000
0010
0000
1010
0000
0001
0200
0000
0000
0320
0000
,
1100
0030
0001
0000
1000
0000
0010
0100
1010
0001
0000
1000
0000
0010
0100
0000
,
1001
0000
0010
0000
0100
0010
0000
1000
0000
0001
0000
0100
0000
0010
1000
0000
,
0100
0010
1000
0001
0100
0000
0020
0000
2031
0100
3010
0100
0001
0000
0200
0000
,
1320
0001
0130
1000
0100
1001
0010
0100
1000
0001
0010
0100
0001
1000
0010
0000
,
0210
0000
0300
0010
1000
0000
0002
0000
1013
0001
0100
0001
0000
1000
0010
0100
,
0000
0000
0001
0100
1000
0001
0010
0000
0000
0000
0100
0000
1000
0000
0100
0000
0010
0000
0001
0000
1000
0000
0010
0000
0100
0000
0001
0000
1000
0000
0010
0000
,
0000
0000
0200
0000
0000
0000
0000
0000
1310
0000
0000
0000
0010
0000
0100
0010
1100
0000
0000
0001
0000
0000
1000
0000
0110
0000
0000
0000
0000
0000
0010
0000
,
1100
0001
0000
1000
0011
0100
0000
0001
0110
0000
0000
0000
1000
0010
0100
0001
1100
0000
0010
0000
0100
0000
0002
0000
0000
0000
2000
3000
0000
0000
2000
3000
,
0000
0000
0000
0000
0000
0000
0000
0000
0000
0000
0000
0000
2000
0000
0000
0000
0000
0000
3000
0000
0000
0000
0000
0000
0000
0000
0000
0000
0000
0000
0000
0000
0000
0000
0000
0000
2003
0000
0000
0000
0000
0000
3000
0000
0000
0000
0000
0000
1010
0000
0000
0000
0000
0000
0000
0000
0000
0000
0000
0000
0000
0000
0000
0000
0000
0000
0000
0000
0000
0000
0000
0000
0001
0000
0000
0000
0000
0000
0000
0000
0000
0000
0000
0000
0000
0000
0000
0000
0000
0000
0000
0000
0000
0000
0000
0000
0010
0000
0000
0000
0000
0000
0000
0000
0000
0000
0000
0000
0000
0000
0000
0000
0000
0000
0000
0000
0000
0000
0000
0000
0100
0000
0000
0000
0000
0000
0000
0000
0000
0000
0000
0000
0000
0000
0000
0000
0000
0000
0000
0000
0000
0000
0000
0000
1100
0000
0000
0000
0000
0000
0000
0000
0000
0000
0000
0000
0000
0000
0000
0000
0001
0000
0000
0000
0000
0000
0000
0000
0010
0000
0000
0000
0000
0000
0000
0000
0000
0000
0000
0000
0000
0000
0000
0000
0100
0000
0000
0000
0000
0000
0000
0000
,
1000
0000
0000
0001
0100
1000
0110
0000
0010
0001
0000
0010
1000
0000
0000
0010
0000
0100
1010
0000
0010
0001
0000
1000
,
0001
0000
0000
0000
0000
0000
0010
0000
0000
0000
0000
0000
0100
0000
0000
0000
0000
0000
1000
0000
0000
0000
0000
0000
0001
0000
0000
0000
0000
0000
0010
0000
0000
0000
0000
0000
0100
0000
0000
0000
0000
0000
1000
0000
0000
0000
0000
0000
0011
0000
0000
0000
0000
0000
0000
0000
0000
0000
0000
0000
0000
0000
0000
0000
0001
0000
0000
0000
0000
0000
0000
0000
0010
0000
0000
0000
0000
0000
0000
0000
0000
0000
0000
0000
0000
0000
0000
0000
1000
0000
0000
0000
0000
0000
0000
0000
0110
0000
0000
0000
0000
0000
0000
0000
0000
0000
0000
0000
0000
0000
0000
0000
0001
0000
0000
0000
0000
0000
0000
0000
0010
0000
0000
0000
0000
0000
0000
0000
0000
0000
0000
0000
0000
0000
0000
0000
0100
0000
0000
0000
0000
0000
0000
0000
1010
0000
0000
0000
0000
0000
0000
0000
0000
0000
0000
0000
0000
0000
0000
0000
0010
0000
0000
0000
0000
0000
0000
0000
0001
0000
0000
0000
0000
0000
0000
0000
0000
0000
0000
0000
0000
0000
0000
0000
0000
0000
0000
0000
0000
0000
0000
0000
,
0110
0000
0001
0000
1000
0010
0200
0301
1000
0100
2000
3010
0000
0001
0200
0300
0010
0000
0020
0130
0001
1000
0020
0031
0100
0000
0002
1003
0000
0020
0000
0000
,
0000
0000
0230
0300
2002
0000
0203
0000
0011
0000
0300
0000
0010
0000
0001
0000
0010
0000
0001
0000
3200
0000
0010
0000
1001
0000
0000
0000
0320
0000
0001
0000
,
0100
1000
0032
0000
1010
0203
0310
0200
0300
0200
0302
0200
2013
0300
3020
0000
,
0230
0000
0301
0000
0110
0000
0010
1000
0000
1000
0010
0000
0101
0000
0001
0000
,
1000
0000
0020
0000
1230
0000
0320
0000
0032
1000
2003
0000
3012
0000
0103
0000
,
0020
0000
0032
1000
0123
0000
0230
0000
1300
0010
1000
0100
0012
0000
0100
1003
,
0210
0000
0302
0000
1020
0003
0100
0031
0000
0001
2000
3000
0110
0000
0200
0300
,
0001
0000
1000
0010
0101
0000
0100
0010
1000
0000
0100
0001
1100
0001
0200
0000
,
0001
0300
1000
0010
1100
0001
1000
0000
0100
0011
1100
0000
1001
0000
0110
0000
,
0002
0000
2003
0000
3010
0001
0100
0020
0000
0001
0200
0030
0301
0010
1000
0002
,
0010
0000
1000
0000
0013
0000
0100
0000
0010
0000
0001
0000
1000
0000
0010
0000
0000
0000
0010
0000
0200
0000
0000
0300
0200
0000
0000
0000
1300
0000
0020
0000
,
0002
0000
0233
0000
0302
0000
0103
0020
1000
0030
0200
0000
0320
0000
1030
0000
,
0001
0000
0001
1010
0100
0000
1001
0000
0000
0010
0110
0000
1000
0000
0011
0000
;

//---------------dance-single - ----------------
#NOTEDATA:;
#CHARTNAME:;
#STEPSTYPE:dance-single;
#DESCRIPTION:;
#CHARTSTYLE:;
#DIFFICULTY:Hard;
#METER:10;
#RADARVALUES:0.348487,0.452766,0.192023,0.248919,0.003556,343.000000,316.000000,27.000000,35.000000,0.000000,0.000000,0.000000,0.000000,0.000000,0.348487,0.452766,0.192023,0.248919,0.003556,343.000000,316.000000,27.000000,35.000000,0.000000,0.000000,0.000000,0.000000,0.000000;
#CREDIT:;
#NOTES:
0000
0000
0000
0000
,
0000
0000
0000
0000
,
0000
0000
0000
0000
,
0000
0000
0000
0000
,
0000
0000
0000
0000
0000
0000
1000
0010
,
0110
0001
0010
0001
0011
0010
1000
0010
,
1010
0100
1000
0100
0110
0001
1000
0010
,
0110
0001
1000
0001
1001
0010
0100
0001
,
0011
0001
0000
0010
0011
0001
1000
0010
,
0100
0001
0010
0001
1000
0000
0010
0100
,
0001
1000
0010
0100
0001
0010
0002
0000
,
1003
0010
0100
0001
1000
0100
0020
0000
,
0031
0000
0010
1000
0010
0000
0001
0100
,
0001
1000
0020
0000
0130
0000
0001
1000
,
0001
0010
0001
1000
0010
0100
0002
0000
,
1003
0010
0100
0001
1000
0100
0020
0000
,
0031
1000
0020
0000
0130
0000
0011
0000
,
1001
0020
0130
1100
,
1001
0000
0010
0100
0001
1000
0002
0000
,
0013
0000
0001
1000
0010
0100
0002
0000
,
0013
0000
1000
0010
1000
0001
0100
0000
,
0101
1010
0011
1001
,
0110
0000
0011
0000
1100
0000
0001
1000
,
0001
1000
0001
0000
0010
0000
0010
0000
,
0010
0000
2010
0000
3010
0000
0001
0100
,
0010
1000
0002
0000
0013
0000
2000
0000
,
3010
0100
0002
0000
0013
0001
2000
0000
,
3010
0000
0001
0100
0010
1000
0001
0000
,
1001
0000
0010
0100
0001
0010
0001
0000
,
0011
0000
0010
1000
0001
0100
0020
0000
,
1030
0000
0001
0010
0001
1000
0010
0100
,
0001
1000
0200
0000
1300
0000
0020
0000
,
1030
0000
0001
0100
0010
1000
0001
0010
,
0100
1000
0001
0100
0010
1000
0002
0000
,
0013
0000
0010
1000
0001
1000
0020
0000
,
0130
1000
1000
1000
,
1010
0000
0001
0100
0101
0000
0010
1000
,
1010
0000
0001
0010
0001
1000
0010
0000
,
0110
0000
0001
1000
0001
0000
0001
0010
,
0001
0000
0010
1000
0001
0100
0010
0000
,
1010
0000
0020
0000
0000
0030
2000
0000
,
0000
3000
0002
0000
0000
0003
0020
0000
,
0000
0030
0100
0000
0010
0000
1000
0010
,
1000
0000
0001
0100
0010
1000
0001
0010
,
0001
1000
1000
0010
,
0010
1000
0000
1000
0000
0010
0100
0002
,
0000
1003
0010
0000
0100
0000
0010
1000
,
0002
0000
0013
0100
2000
0000
3010
0100
,
0020
0000
1030
0001
0020
0000
0031
0000
,
0010
1000
0001
0100
0010
0010
0010
0000
,
1000
0001
1000
0010
0200
0000
0301
0000
,
1000
0001
0010
0001
2000
0000
3010
0000
,
0001
1000
0100
0010
0001
1000
0010
0100
,
0002
0000
1003
0010
2000
0000
3010
0000
,
0001
0010
0001
0010
0002
0000
0013
0000
,
0100
1000
0100
1000
0200
0000
1300
0000
,
0010
0100
0001
1000
0100
0010
0002
0000
,
0013
0000
0001
0000
1000
0000
0010
0000
0000
0010
0100
0000
0010
0000
0010
0000
;

//---------------dance-single - ----------------
#NOTEDATA:;
#CHARTNAME:;
#STEPSTYPE:dance-single;
#DESCRIPTION:;
#CHARTSTYLE:;
#DIFFICULTY:Medium;
#METER:7;
#RADARVALUES:0.205231,0.246963,0.056896,0.170687,0.000000,202.000000,194.000000,8.000000,24.000000,0.000000,0.000000,0.000000,0.000000,0.000000,0.205231,0.246963,0.056896,0.170687,0.000000,202.000000,194.000000,8.000000,24.000000,0.000000,0.000000,0.000000,0.000000,0.000000;
#CREDIT:;
#NOTES:
0000
0000
0000
0000
,
0000
0000
0000
0000
,
0000
0000
0000
0000
,
0000
0000
0000
0000
,
0000
0000
0000
1000
,
0000
1000
0000
0010
,
1000
0010
0000
0001
,
0000
0001
0000
0010
,
0001
0010
0000
0010
,
1000
0020
0130
0001
,
1000
0010
0100
0002
,
0013
0001
1000
0020
,
0130
1000
1000
1010
,
0001
0010
0001
0010
,
1000
0000
0001
0000
0100
0001
0200
0000
,
0301
0010
1000
0002
,
0013
0000
2020
0000
0000
3030
0001
0000
,
0000
0001
1000
0001
,
0000
0010
0100
0010
,
0000
1000
0100
1000
,
0000
0001
0001
0001
,
1000
0010
0010
1000
,
0001
0100
0100
0010
,
1000
0010
0100
0001
,
0000
2002
3003
0010
,
0010
0220
0330
0001
,
0001
1000
0010
0100
,
0100
0000
0001
0000
1000
0000
0010
1000
,
0010
0001
0100
0001
,
1000
0000
0010
0000
1000
0000
0001
0010
,
0001
0010
1000
0001
,
0100
0020
1030
0002
,
0013
1000
0010
0100
,
0001
0010
0001
1000
,
0010
0100
0010
1000
,
0010
0100
0000
0100
,
0000
1010
0010
1000
,
0010
0001
0010
0001
,
0001
1000
0001
0100
,
0100
0010
1000
0010
,
0010
0000
2020
0000
0000
0030
0002
0000
,
0000
0003
0200
0000
0000
0300
0020
0000
,
3030
0001
0000
0001
,
1000
0000
0001
0000
0100
0000
0010
0100
,
0010
1000
1000
0001
,
0001
0000
0000
0000
,
0000
2010
3010
0000
0001
0000
0100
0000
,
0002
0013
1000
0010
,
0100
0100
0001
1000
,
0010
0000
0100
0000
0001
1000
0001
0000
,
0010
0001
1000
1000
,
0010
0000
0100
0000
0001
1000
0001
0000
,
0010
0001
0010
0000
0010
1000
0010
0000
,
0001
0100
0010
1000
,
0001
0001
2000
3010
,
0010
0010
0200
0310
,
0001
0001
1000
1000
,
2002
0000
0000
0000
0000
0000
0000
3003
;

//---------------dance-single - ----------------
#NOTEDATA:;
#CHARTNAME:;
#STEPSTYPE:dance-single;
#DESCRIPTION:;
#CHARTSTYLE:;
#DIFFICULTY:Easy;
#METER:4;
#RADARVALUES:0.090424,0.122681,0.007112,0.128015,0.000000,89.000000,88.000000,1.000000,18.000000,0.000000,0.000000,0.000000,0.000000,0.000000,0.090424,0.122681,0.007112,0.128015,0.000000,89.000000,88.000000,1.000000,18.000000,0.000000,0.000000,0.000000,0.000000,0.000000;
#CREDIT:;
#NOTES:
0000
0000
0000
0000
,
1000
0000
1000
0000
,
1000
0000
1000
0000
,
1000
0000
1000
0000
,
1000
0000
0000
0000
,
0001
0000
0001
0000
,
0001
0000
0001
0000
,
0001
0000
0001
0000
,
0001
0000
0000
0010
,
0000
0100
0000
0020
,
0000
0000
0000
1030
,
0000
0001
0000
0020
,
0000
0000
0000
0031
,
0000
1000
0000
0200
,
0000
0000
0000
1300
,
0000
0010
0000
0002
,
0000
0000
0000
1003
,
0000
1000
0000
0020
,
0000
0000
0000
0130
,
0000
0100
0000
2000
,
0000
0000
0000
3001
,
0000
0001
0000
0002
,
0000
0000
0000
0013
,
0000
0010
0000
1000
,
0000
2000
0000
0000
,
0000
3020
0000
0000
,
0000
0130
0000
0100
,
0000
0010
0000
0010
,
0000
0001
0000
0001
,
0000
0002
0000
0000
,
0000
1003
0000
0010
,
0000
2000
0000
0000
,
0000
3010
0000
0010
,
0000
0020
0000
0000
,
0000
0130
0000
0100
,
0000
2000
0000
0000
,
0000
3001
0000
0001
,
0000
0010
0000
0010
,
0000
1000
0000
1000
,
0000
0010
0000
0100
,
0000
0020
0000
0000
,
0000
0000
0000
0000
,
0000
0030
0000
1000
,
0000
1000
0000
1000
,
0000
0001
0000
0001
,
0000
0000
0000
0000
,
0000
2000
0000
0000
,
0000
0000
0000
0000
,
3001
0000
0001
0000
,
0020
0000
0000
0000
,
1030
0000
1000
0000
,
0002
0000
0000
0000
,
0013
0000
1000
0000
,
0020
0000
0000
0000
,
0130
0000
0001
0000
,
1000
0000
0010
0000
,
0100
0000
0001
0000
,
1001
0000
1000
0000
;

//---------------dance-single - ----------------
#NOTEDATA:;
#CHARTNAME:;
#STEPSTYPE:dance-single;
#DESCRIPTION:;
#CHARTSTYLE:;
#DIFFICULTY:Beginner;
#METER:1;
#RADARVALUES:0.049784,0.081076,0.014224,0.007112,0.000000,49.000000,47.000000,2.000000,1.000000,0.000000,0.000000,0.000000,0.000000,0.000000,0.049784,0.081076,0.014224,0.007112,0.000000,49.000000,47.000000,2.000000,1.000000,0.000000,0.000000,0.000000,0.000000,0.000000;
#CREDIT:;
#NOTES:
// measure 0
0000
0000
0000
0000
,  // measure 1
0000
0000
0000
0000
,  // measure 2
0000
0000
0000
0000
,  // measure 3
0000
0000
0000
0000
,  // measure 4
0000
0000
0000
1000
,  // measure 5
0000
0000
0000
1000
,  // measure 6
0000
0000
0000
0001
,  // measure 7
0000
0000
0000
0001
,  // measure 8
0000
0000
0000
0010
,  // measure 9
0000
0000
0000
0010
,  // measure 10
0000
0000
0000
1000
,  // measure 11
0000
0000
0000
1000
,  // measure 12
0000
0000
0000
0001
,  // measure 13
0000
0000
0000
0001
,  // measure 14
0000
0000
0000
0010
,  // measure 15
0000
0000
0000
0001
,  // measure 16
0000
0000
0000
0001
,  // measure 17
0000
0000
0000
1000
,  // measure 18
0000
0000
0000
0010
,  // measure 19
0000
0000
0000
0010
,  // measure 20
0000
0000
0000
0001
,  // measure 21
0000
0000
0000
0001
,  // measure 22
0000
0000
0000
0001
,  // measure 23
0000
0000
0000
0000
,  // measure 24
0000
1001
0000
0000
,  // measure 25
0000
1000
0000
0000
,  // measure 26
0000
0001
0000
0000
,  // measure 27
0000
0001
0000
0000
,  // measure 28
0000
0010
0000
0000
,  // measure 29
0000
0010
0000
0000
,  // measure 30
0000
1000
0000
0000
,  // measure 31
0000
0001
0000
0000
,  // measure 32
0000
0010
0000
0000
,  // measure 33
0000
1000
0000
0000
,  // measure 34
0000
0001
0000
0000
,  // measure 35
0000
0000
0000
0000
,  // measure 36
0000
1001
0000
0000
,  // measure 37
0000
1000
0000
0000
,  // measure 38
0000
1000
0000
0000
,  // measure 39
0000
1000
0000
0000
,  // measure 40
0000
0000
0000
0000
,  // measure 41
0000
0000
0000
0000
,  // measure 42
0000
1000
0000
0000
,  // measure 43
0000
1000
0000
0000
,  // measure 44
0000
1000
0000
0000
,  // measure 45
0000
0000
0000
0000
,  // measure 46
0000
0002
0000
0000
,  // measure 47
0000
0003
0000
0000
,  // measure 48
1000
0000
0000
0000
,  // measure 49
0000
0000
0000
0000
,  // measure 50
0010
0000
0000
0000
,  // measure 51
0001
0000
0000
0000
,  // measure 52
1000
0000
0000
0000
,  // measure 53
0010
0000
0000
0000
,  // measure 54
1000
0000
0000
0000
,  // measure 55
1000
0000
0000
0000
,  // measure 56
0010
0000
0000
0000
,  // measure 57
0001
0000
0000
0000
;
