#VERSION:0.83;
#TITLE:BBI-BBI;
#SUBTITLE:;
#ARTIST:IU;
#TITLETRANSLIT:;
#SUBTITLETRANSLIT:;
#ARTISTTRANSLIT:;
#GENRE:;
#ORIGIN:;
#CREDIT:;
#BANNER:AV.avi;
#BACKGROUND:bg.png;
#PREVIEWVID:;
#JACKET:jacket.jpg;
#CDIMAGE:;
#DISCIMAGE:;
#LYRICSPATH:;
#CDTITLE:;
#MUSIC:audio.ogg;
#OFFSET:-0.278000;
#SAMPLESTART:40.662010;
#SAMPLELENGTH:14.999999;
#SELECTABLE:YES;
#BPMS:0.000=144.000;
#STOPS:225.500=1.260;
#DELAYS:;
#WARPS:;
#TIMESIGNATURES:0.000=4=4;
#TICKCOUNTS:0.000=4;
#COMBOS:0.000=1;
#SPEEDS:0.000=1.000=0.000=0;
#SCROLLS:0.000=1.000;
#FAKES:;
#LABELS:0.000=Song Start;
#BGCHANGES:0.000=MV.avi=1.000=1=0=1===CrossFade==,
99999=-nosongbg-=1.000=0=0=0 // don't automatically add -songbackground-
;
#KEYSOUNDS:;
#ATTACKS:
;

//---------------dance-single - ----------------
#NOTEDATA:;
#CHARTNAME:;
#STEPSTYPE:dance-single;
#DESCRIPTION:;
#CHARTSTYLE:;
#DIFFICULTY:Challenge;
#METER:14;
#RADARVALUES:0.672744,0.705176,1.068814,1.293827,0.080362,586.000000,453.000000,133.000000,161.000000,0.000000,21.000000,0.000000,0.000000,0.000000,0.672744,0.705176,1.068814,1.293827,0.080362,586.000000,453.000000,133.000000,161.000000,0.000000,21.000000,0.000000,0.000000,0.000000;
#CREDIT:;
#NOTES:
0000
0000
0000
0000
,
1010
0000
0000
0000
0000
0000
0000
0000
0000
0000
0000
0000
0100
0000
0000
0000
0000
0000
0000
0000
0010
0000
0000
0000
0002
0000
0000
0003
0000
0000
0000
0000
0000
0000
0000
0000
0011
0000
0000
0000
0000
0000
0000
0000
0100
0000
0000
0000
,
0000
0000
0100
0011
0000
1000
0002
0000
0003
0100
0000
0000
,
0110
0000
0000
0000
0000
0000
0000
0000
0000
0000
0000
0000
1000
0000
0000
0000
0000
0000
0000
0000
0000
0000
0000
0000
0002
0000
0000
0003
0000
0000
0000
0000
0000
0000
0000
0000
0110
0000
0000
0000
0000
0000
0000
0000
1000
0000
0000
0000
,
0100
0000
0000
0000
0100
0000
1010
0000
0000
0000
1000
0000
0001
0000
0000
1010
0000
0000
0001
0000
0000
1010
0000
0000
,
1010
0000
0100
0000
0010
0000
0100
0000
0002
0003
1000
0000
0210
0300
0000
0000
,
2000
3000
0000
0000
1001
0000
0100
0000
0001
0000
0100
0000
0000
0000
1001
0000
,
1001
0000
0100
0000
0010
0000
0001
0000
2000
3000
0100
0000
1002
0003
0002
0003
,
0000
0000
0000
0000
1001
0000
1000
0000
0002
0003
1001
0000
0000
0000
0110
0000
,
0110
0000
0000
0000
0000
0000
0000
0000
0000
0000
0000
0000
1000
0000
0000
0000
0000
0000
0000
0000
0100
0000
0000
0000
0020
0000
0000
0030
0000
0000
0000
0000
0000
0000
0000
0000
0110
0000
0000
0000
0000
0000
0100
0000
0000
0000
0000
0000
,
0001
0000
0100
0000
1010
0000
0100
0000
0020
0030
0000
0000
1000
0000
0110
0000
,
0110
0000
0000
0000
0010
0000
1000
0000
0002
0003
0000
0000
0110
0000
0100
0000
,
0001
0000
1000
0000
0110
0000
1000
0000
0002
0003
0110
0000
0000
0000
1100
0000
,
1100
0001
0100
0010
0200
0301
0020
0030
,
0200
0000
0300
0000
1010
0000
0100
0000
2000
3000
0100
0000
0010
0000
0110
0000
,
0110
0000
1000
0000
0100
0000
0010
0000
0002
0003
0010
0000
1100
0000
0010
0000
,
0000
0000
0000
0000
1001
0000
0100
0000
0002
0003
0110
0000
1000
0000
0101
0000
,
0101
1000
0100
0011
1000
0000
0010
0100
,
0001
0000
0000
0000
0011
0000
0000
0000
0011
0000
0000
0000
0100
0000
0000
0000
2000
3000
0000
0000
0000
0000
0000
0000
0100
0000
0000
0000
0010
0000
0000
0000
,
1001
0010
0100
0011
1000
0000
0101
0010
,
0100
0000
0000
0000
1001
0000
0000
0000
1001
0000
0000
0000
0100
0000
0000
0000
0002
0003
0000
0000
0011
0000
0000
0000
2000
3000
0000
0000
0011
0000
0000
0000
,
0110
0001
0010
0101
0010
0100
0001
0000
,
0001
0000
0000
0000
0110
0000
0000
0000
0110
0000
0000
0000
0001
0000
0000
0000
2000
3000
0000
0000
0000
0000
0000
0000
0010
0000
0000
0000
0001
0010
0100
1000
,
0011
0000
0001
1010
0002
2003
3120
0000
,
0030
0000
0100
0010
0001
0010
0200
0000
,
2301
0000
3010
0000
0020
0000
0131
0010
,
1000
0000
0100
0000
1010
0000
0001
0000
2000
3000
0010
0000
0002
0000
0110
0000
,
0123
0031
1002
0113
,
0100
0000
1000
0000
0101
0000
0010
0000
0002
0003
0110
0000
0100
0000
0011
0000
,
0210
0000
0000
0000
0000
0000
0320
0000
0002
0003
0000
0000
0230
0000
0000
0000
,
0310
0000
0000
0000
1001
0000
0000
0000
2000
3000
0100
0000
0010
0000
0011
0000
,
0021
0000
0000
0000
0000
0000
0230
0000
2000
3000
0000
0000
0320
0000
0000
0000
,
0130
0000
0000
0000
1001
0000
0100
0000
0020
0030
0101
0000
0010
0000
0101
0000
,
0102
0000
0103
0000
0200
0000
1310
0100
,
0001
0000
0010
0000
0101
0000
1000
0000
0002
0003
0100
0000
2000
0000
0110
0000
,
3210
0000
1300
0000
2001
0000
3011
0100
,
0010
0000
0001
0000
1010
0000
0100
0000
2000
3000
0110
0000
0010
0000
1100
0000
,
0120
0000
0000
0000
0000
0000
0230
0000
2000
3000
0000
0000
0320
0000
0000
0000
,
0130
0000
0000
0000
1001
0000
0000
0000
0002
0003
0010
0000
0100
0000
1100
0000
,
1200
0000
0000
0000
0000
0000
0320
0000
0002
0003
0000
0000
0230
0000
0000
0000
,
0301
0010
0100
0001
0020
0100
1000
0100
,
2001
0000
0030
0000
0020
0030
0001
0000
0200
0300
0010
0000
0102
0003
0000
0000
,
0020
0030
0100
0000
0002
0003
0100
0000
0020
0030
0000
0000
0020
0030
0000
0000
,
0020
0030
0000
0000
0020
0030
0000
0000
0020
0030
0000
0000
3020
0030
0000
0000
,
1000
0010
0100
1000
0010
0000
0001
0000
0210
0000
0300
0000
1000
0000
0000
0000
0200
0000
0300
0000
1010
0000
0000
0000
0001
0000
0000
0000
0010
0000
0000
0000
,
0201
0000
0000
0000
0002
0003
0010
0000
2000
3000
0001
0000
0020
0030
0000
0000
,
0002
0003
1000
0000
0002
0003
1000
0000
0020
0030
0000
0000
0020
0030
0000
0000
,
0020
0030
0000
0000
0020
0030
0000
0000
0020
0030
0000
0000
0320
0030
0000
0000
,
1000
0010
0100
1000
0010
0000
0001
0000
0210
0000
0300
0000
0000
0000
0000
0000
0200
0000
0300
0000
0011
0000
0000
0000
0200
0000
0300
0000
0001
0000
0000
0000
,
2010
3000
0000
0000
0020
0030
0100
0000
0002
0003
0100
0000
0120
0030
1000
0000
,
0002
0003
0210
0300
0020
0030
0200
0300
,
2002
3000
0003
0000
0000
0000
0010
0000
2000
3000
0001
0000
0200
0300
0010
0000
,
0200
0300
1020
0030
0002
0003
0020
1030
,
0201
0000
0310
1000
0001
0000
0010
0000
0200
0300
1000
0000
0011
0000
0100
0000
,
0001
0000
0100
0000
1020
0000
0030
0000
2000
3000
0010
0000
0200
0000
0000
0300
,
0020
0000
0031
0000
0200
0000
0000
0300
0020
0000
0030
0000
0001
0000
0000
0000
,
1020
1030
0100
0000
0010
0100
1000
0100
,
0020
0000
1032
0000
0023
0030
0220
0030
,
1320
0000
0130
0000
0001
0000
0010
0000
0101
0000
1000
0000
0002
0003
0100
0000
,
2000
0000
0110
0000
3210
0000
0000
0000
2300
0000
0000
3000
2001
0000
0000
0000
,
3110
0000
0000
0000
0010
0000
0001
0000
1010
0000
0100
0000
2000
3000
0110
0000
,
0010
0000
1100
0000
0120
0000
0000
0000
0000
0000
0230
0000
2000
3000
0000
0000
,
0320
0000
0000
0000
0130
0000
0000
0000
1001
0000
0000
0000
0002
0003
0010
0000
,
0100
0000
1100
0000
1200
0000
0000
0000
0000
0000
0320
0000
0002
0003
0000
0000
,
0230
0000
0000
0000
0310
0000
0000
0000
1001
0000
0010
0000
0200
0300
1010
0000
,
0100
1010
2010
0000
3200
0300
0220
0300
,
0231
0310
1000
0100
1020
0032
2003
0010
,
0002
0000
0110
0000
3123
0000
0000
0000
0032
0000
0000
0003
1002
0000
0000
0000
,
1103
0000
0010
0000
0100
0000
1000
0000
0101
0000
0010
0000
0002
0003
0110
0000
,
0100
0000
0011
0000
0210
0000
0000
0000
0000
0000
0320
0000
0002
0003
0000
0000
,
0230
0000
0000
0000
0310
0000
0000
0000
1001
0000
0000
0000
2000
3000
0100
0000
,
0010
0000
0011
0000
0021
0000
0000
0000
0000
0000
0230
0000
2000
3000
0000
0000
,
0320
0000
0000
0000
0130
0000
0000
0000
1010
0000
0010
0000
2000
3000
0010
0000
,
0100
0010
0000
0000
0000
0000
0000
0000
;

//---------------dance-single - ----------------
#NOTEDATA:;
#CHARTNAME:;
#STEPSTYPE:dance-single;
#DESCRIPTION:;
#CHARTSTYLE:;
#DIFFICULTY:Hard;
#METER:9;
#RADARVALUES:0.377701,0.410650,0.080362,0.233050,0.000000,329.000000,319.000000,10.000000,29.000000,0.000000,0.000000,0.000000,0.000000,0.000000,0.377701,0.410650,0.080362,0.233050,0.000000,329.000000,319.000000,10.000000,29.000000,0.000000,0.000000,0.000000,0.000000,0.000000;
#CREDIT:;
#NOTES:
// measure 0
0000
0000
0000
0000
,  // measure 1
1000
0001
0100
0010
,  // measure 2
0100
0001
0100
0010
0002
0000
0000
0000
,  // measure 3
0013
0100
0001
0100
,  // measure 4
0010
1000
0001
0010
0001
0000
0100
0000
,  // measure 5
0001
1000
0010
0000
0001
0010
0100
0000
,  // measure 6
1000
0010
0110
0000
,  // measure 7
0001
0010
0001
0000
1000
0010
0100
0000
,  // measure 8
0001
1000
1001
0000
,  // measure 9
0001
0010
0001
1000
,  // measure 10
0010
1000
0001
1000
0100
0000
0000
0000
,  // measure 11
0010
0100
0001
1000
,  // measure 12
0001
0010
0100
0010
0001
0000
0000
0000
,  // measure 13
1000
0010
0001
0010
,  // measure 14
0100
0001
0100
0000
0001
0000
0000
0000
,  // measure 15
0001
0100
1000
0100
,  // measure 16
0010
0100
0001
0000
0010
0000
0000
0000
,  // measure 17
0001
0000
0000
0001
0000
0000
0001
0000
,  // measure 18
1000
0001
1000
0000
0011
0000
0000
0000
,  // measure 19
0001
0000
0000
0001
0000
0000
0001
0000
,  // measure 20
0001
0010
0001
0000
1001
0000
0000
0000
,  // measure 21
0010
0000
0000
0010
0000
0000
0010
0000
,  // measure 22
0010
0100
0010
0000
0110
0000
0000
0000
,  // measure 23
0001
0000
1000
0000
0001
1000
0001
0000
,  // measure 24
0100
0001
1001
0010
,  // measure 25
0200
0000
0000
0000
0310
0000
0001
0010
,  // measure 26
0100
1000
0001
0100
0010
0100
0001
0000
,  // measure 27
2000
0000
3010
0000
,  // measure 28
0001
0010
0001
0000
0001
1000
0001
0000
,  // measure 29
0200
0000
0300
0200
0000
0300
0100
0000
,  // measure 30
0100
0000
0000
0000
0010
1000
0010
0000
,  // measure 31
0020
0000
0030
0020
0000
0030
0010
0000
,  // measure 32
0010
0000
0001
0100
0001
0010
0001
0000
,  // measure 33
2000
0000
0000
0000
3010
0000
0001
0010
,  // measure 34
0100
0010
0001
0100
0010
1000
0001
0000
,  // measure 35
0020
0000
0130
0001
,  // measure 36
0001
0010
0001
0000
0001
1000
0001
0000
,  // measure 37
2000
0000
3000
2000
0000
3000
1000
0000
,  // measure 38
1000
0000
0000
0000
0010
0100
0010
0000
,  // measure 39
0200
0000
0300
0200
0000
0300
0100
0000
,  // measure 40
0001
0100
0001
0000
0001
0010
0001
0000
,  // measure 41
2000
0100
0010
0001
,  // measure 42
0100
0001
0010
0001
,  // measure 43
0100
0010
0001
0010
,  // measure 44
3001
0000
0110
0000
,  // measure 45
0002
0010
1000
0100
,  // measure 46
1000
0010
1000
0010
,  // measure 47
1000
0100
1000
0010
,  // measure 48
1003
0010
0100
0001
,  // measure 49
1001
0010
0001
1000
,  // measure 50
0010
0100
0010
0100
,  // measure 51
0110
0000
0001
1000
,  // measure 52
0001
0010
0001
0010
,  // measure 53
0011
1000
0010
0100
,  // measure 54
0010
0100
0001
0020
,  // measure 55
0031
2000
3010
0100
,  // measure 56
0001
0000
0001
0000
0100
1000
0001
0100
,  // measure 57
0010
2000
0001
3001
,  // measure 58
0001
0100
0010
0100
0001
0010
0100
1000
,  // measure 59
0001
0200
0010
0310
,  // measure 60
0001
0000
1000
0001
0010
0100
1000
0010
,  // measure 61
0100
0001
0020
0000
0030
0020
0000
0030
,  // measure 62
0010
0000
0010
0000
0001
0000
1000
0010
,  // measure 63
1000
0000
0002
0000
0003
0002
0000
0003
,  // measure 64
0001
0000
0001
0000
0010
0100
0001
1000
,  // measure 65
0100
0020
0031
0001
,  // measure 66
0001
0100
0010
1000
0001
0010
0100
1000
,  // measure 67
0010
0200
0310
0010
,  // measure 68
0001
1000
0010
0100
0001
0010
0100
1000
,  // measure 69
0001
0100
0020
0000
0030
0020
0000
0030
,  // measure 70
0010
0000
0010
0000
0000
0000
0001
1000
,  // measure 71
0010
0100
0002
0000
0003
0002
0000
0003
,  // measure 72
0001
0000
0001
0000
0001
1000
0100
0010
,  // measure 73
0001
0000
0000
0000
;

//---------------dance-single - ----------------
#NOTEDATA:;
#CHARTNAME:;
#STEPSTYPE:dance-single;
#DESCRIPTION:;
#CHARTSTYLE:;
#DIFFICULTY:Medium;
#METER:5;
#RADARVALUES:0.237642,0.292317,0.104471,0.120543,0.000000,207.000000,194.000000,13.000000,15.000000,0.000000,0.000000,0.000000,0.000000,0.000000,0.237642,0.292317,0.104471,0.120543,0.000000,207.000000,194.000000,13.000000,15.000000,0.000000,0.000000,0.000000,0.000000,0.000000;
#CREDIT:;
#NOTES:
0000
0000
0000
0000
,
1000
0001
1000
0000
,
0001
0010
0001
0000
,
1000
0010
1000
0000
,
0001
0010
0001
0000
,
0010
1000
0001
0100
,
0010
0000
0011
0000
,
0100
1000
0001
0100
,
0010
0000
0011
0000
,
0100
1000
0001
1000
,
0010
1000
1001
0000
,
0100
0010
0001
0010
,
0100
1000
1010
0000
,
1000
0010
0001
0100
,
1000
0000
1010
0000
,
1000
0010
0001
0100
,
1000
0000
1001
0000
,
0001
0000
0000
0001
0000
0000
0001
0000
,
0000
0000
0101
0000
,
1000
0000
0000
1000
0000
0000
1000
0000
,
0000
0000
1100
0000
,
0010
0000
0000
0010
0000
0000
0010
0000
,
0000
0000
0110
0000
,
0001
0010
0001
0000
,
1000
0001
0010
0001
,
0200
0000
0000
0300
0001
0000
0010
0000
,
1000
0000
0001
0000
0010
0001
0010
0000
,
0002
0000
1003
0000
,
0010
1000
0001
0010
,
0200
0000
1000
0000
,
0310
0000
0001
1000
,
0020
0000
1000
0000
,
0130
0001
1000
0001
,
0020
0000
0000
0030
0001
0000
0001
0000
,
1000
0001
0010
0001
,
2000
0000
3001
0000
,
0010
0100
0010
1000
,
0001
0000
0000
0001
0000
0000
0001
0000
,
0001
0000
0010
0000
,
0100
0000
0000
0100
0000
0000
0100
0000
,
0100
0000
0001
0000
,
2000
0000
3010
0000
,
0002
0000
0013
0000
,
2000
0000
3100
0000
,
1100
0000
0010
0000
,
0002
0000
0013
0000
,
0020
0000
0031
0000
,
0002
0000
1003
0000
,
1001
0000
0010
0000
,
0001
0000
0010
0000
,
0100
1000
0100
1000
,
0100
0000
0010
0000
,
0001
0010
0001
0010
,
0001
0000
1000
0000
,
0010
0000
0100
0000
,
0001
0000
0001
0000
,
0001
0000
0000
0000
,
0000
1010
0000
0001
,
0000
0010
1000
0001
,
0010
0002
0000
1003
,
0000
0010
0100
0001
,
1000
0000
0010
0000
0000
0010
0000
0000
,
0010
0010
0000
0001
,
0000
0000
1000
0000
0000
1000
0000
0000
,
1000
1000
0000
0010
,
0000
0002
0000
0013
,
0000
0100
1000
0100
,
0000
0020
0000
1030
,
0000
0001
0010
0001
,
0000
0000
1000
0000
0000
1000
0000
0000
,
1000
1000
0000
0010
,
0000
0000
0001
0000
0000
0001
0000
0000
,
0001
0001
0000
0101
;

//---------------dance-single - ----------------
#NOTEDATA:;
#CHARTNAME:;
#STEPSTYPE:dance-single;
#DESCRIPTION:;
#CHARTSTYLE:;
#DIFFICULTY:Easy;
#METER:3;
#RADARVALUES:0.157280,0.203215,0.056253,0.176796,0.000000,137.000000,130.000000,7.000000,22.000000,0.000000,0.000000,0.000000,0.000000,0.000000,0.157280,0.203215,0.056253,0.176796,0.000000,137.000000,130.000000,7.000000,22.000000,0.000000,0.000000,0.000000,0.000000,0.000000;
#CREDIT:;
#NOTES:
0000
0000
0000
0000
,
1000
0000
0010
0000
,
2000
0000
0000
0000
,
3010
0000
0100
0000
,
0002
0000
0000
0000
,
1003
0000
1000
0000
,
0020
0000
0000
0000
,
0031
0000
1000
0000
,
0020
0000
0000
0000
,
0130
0000
0100
0000
,
1000
0000
1000
0000
,
0001
0000
1000
0000
,
0002
0000
0000
0000
,
0013
0000
0010
0000
,
0010
0000
0000
0000
,
0001
0000
0001
0000
,
0001
0000
0000
0000
,
0001
0000
1000
0000
,
0011
0000
0000
0000
,
0010
0000
1000
0000
,
0110
0000
0000
0000
,
0001
0000
1000
0000
,
0011
0000
0000
0000
,
0010
0000
1000
0000
,
0011
0000
0010
0000
,
0200
0000
0301
0000
,
0001
0000
1000
0000
,
0002
0000
0013
0000
,
0001
0000
1000
0000
,
0010
0000
0010
0000
,
0020
0000
0130
0000
,
1000
0000
1000
0000
,
2000
0000
3001
0000
,
0002
0000
0013
0000
,
1000
0000
1000
0000
,
0200
0000
0310
0000
,
0001
0000
0010
0000
,
0002
0000
0010
0000
,
1003
0000
0010
0000
,
2000
0000
0100
0000
,
3010
0000
0001
0000
,
0010
0000
0001
0000
,
1000
0000
1000
0000
,
1000
0000
1000
0000
,
1000
0000
0010
0000
,
0100
0000
0001
0000
,
0010
0000
0010
0000
,
0010
0000
0010
0000
,
0010
0000
0001
0000
,
1000
0000
0010
0000
,
0200
0000
0000
0000
,
0310
0000
0001
0000
,
0020
0000
0000
0000
,
0031
0000
1000
0000
,
0010
0000
0100
0000
,
0002
0000
1000
0000
,
1003
0000
0000
0000
,
0000
2010
0000
3010
,
0000
0001
0000
0001
,
0000
0002
0000
0013
,
0000
0100
0000
1000
,
0000
0010
0000
0010
,
0000
0110
0000
0001
,
0000
0010
0000
0010
,
0000
0011
0000
0001
,
0000
2000
0000
3010
,
0000
0001
0000
1000
,
0000
0002
0000
0013
,
0000
0100
0000
1000
,
0000
0002
0000
0010
,
0000
1003
0000
0010
,
0000
0200
0000
0001
,
0000
0310
0000
0000
;

//---------------dance-single - ----------------
#NOTEDATA:;
#CHARTNAME:;
#STEPSTYPE:dance-single;
#DESCRIPTION:;
#CHARTSTYLE:;
#DIFFICULTY:Beginner;
#METER:1;
#RADARVALUES:0.106767,0.145154,0.000000,0.120543,0.000000,93.000000,93.000000,0.000000,15.000000,0.000000,0.000000,0.000000,0.000000,0.000000,0.106767,0.145154,0.000000,0.120543,0.000000,93.000000,93.000000,0.000000,15.000000,0.000000,0.000000,0.000000,0.000000,0.000000;
#CREDIT:;
#NOTES:
0000
0000
0000
0000
,
1000
0000
1000
0000
,
0010
0000
0000
0000
,
1000
0000
0001
0000
,
1000
0000
0000
0000
,
0100
0000
0100
0000
,
0100
0000
0000
0000
,
0010
0000
0010
0000
,
0010
0000
0000
0000
,
1000
0000
0001
0000
,
1000
0000
0000
0000
,
0100
0000
0100
0000
,
0100
0000
0000
0000
,
0010
0000
1000
0000
,
0010
0000
0000
0000
,
1000
0000
0001
0000
,
1000
0000
0000
0000
,
0100
0000
0100
0000
,
0100
0000
0000
0000
,
0010
0000
0010
0000
,
0010
0000
0000
0000
,
1000
0000
1000
0000
,
1000
0000
0000
0000
,
0001
0000
0000
0000
,
0000
0000
0000
0000
,
1000
0000
0000
0000
,
0010
0000
0010
0000
,
1000
0000
0000
0000
,
0100
0000
0001
0000
,
2000
0000
0000
0000
,
3010
0000
0000
0000
,
0002
0000
0000
0000
,
0013
0000
0000
0000
,
1000
0000
0100
0000
,
1000
0000
1000
0000
,
0002
0000
0000
0000
,
1003
0000
0010
0000
,
0100
0000
0100
0000
,
0100
0000
0000
0000
,
1000
0000
1000
0000
,
1000
0000
0000
0000
,
0002
0000
0000
0000
,
1003
0000
0000
0000
,
0020
0000
0000
0000
,
1030
0000
0000
0000
,
0200
0000
0000
0000
,
0301
0000
0000
0000
,
0002
0000
0000
0000
,
1003
0000
0000
0000
,
0020
0000
0000
0000
,
1030
0000
0000
0000
,
0200
0000
0000
0000
,
0301
0000
0000
0000
,
0002
0000
0000
0000
,
1003
0000
0000
0000
,
2000
0000
0000
0000
,
3010
0000
0000
0000
,
0000
0002
0000
0000
,
0000
1003
0000
0000
,
0000
0020
0000
0000
,
0000
1030
0000
0000
,
0000
0100
0000
0100
,
0000
0100
0000
0000
,
0000
0001
0000
0001
,
0000
0001
0000
0000
,
0000
2000
0000
0000
,
0000
3010
0000
0000
,
0000
0200
0000
0000
,
0000
0301
0000
0000
,
0000
0010
0000
0010
,
0000
0010
0000
0000
,
0000
1000
0000
1000
,
0000
1000
0000
0000
;
