#VERSION:0.83;
#TITLE:-Arcana Force;
#SUBTITLE:;
#ARTIST:Mzet;
#TITLETRANSLIT:;
#SUBTITLETRANSLIT:;
#ARTISTTRANSLIT:;
#GENRE:;
#ORIGIN:;
#CREDIT:;
#BANNER:AV.avi;
#BACKGROUND:1525.PNG;
#PREVIEWVID:;
#JACKET:jacket.png;
#CDIMAGE:;
#DISCIMAGE:;
#LYRICSPATH:;
#CDTITLE:;
#MUSIC:1525.mp3;
#OFFSET:-0.171000;
#SAMPLESTART:71.189003;
#SAMPLELENGTH:15.000000;
#SELECTABLE:YES;
#DISPLAYBPM:*;
#BPMS:0.000=174.954,
29.000=306.170,
29.875=43.738,
30.000=306.170,
30.875=43.738,
31.000=306.170,
31.875=43.738,
32.000=174.954,
47.000=349.888,
49.000=174.954,
62.000=349.908,
63.000=174.954,
100.000=349.908,
101.000=174.954,
104.000=349.908,
105.000=174.954,
112.000=306.170,
112.875=43.738,
113.000=174.954,
144.000=306.170,
144.875=43.738,
145.000=174.954,
240.500=306.170,
241.375=43.738,
241.500=174.954;
#STOPS:62.000=0.042,
62.250=0.042,
62.500=0.042,
62.750=0.042,
100.000=0.021,
100.125=0.021,
100.250=0.021,
100.375=0.021,
100.500=0.021,
100.625=0.021,
100.750=0.021,
100.875=0.021,
104.000=0.021,
104.125=0.021,
104.250=0.021,
104.375=0.021,
104.500=0.021,
104.625=0.021,
104.750=0.021,
104.875=0.021;
#DELAYS:;
#WARPS:;
#TIMESIGNATURES:0.000=4=4;
#TICKCOUNTS:0.000=4;
#COMBOS:0.000=1;
#SPEEDS:0.000=1.000=0.000=0;
#SCROLLS:0.000=1.000;
#FAKES:;
#LABELS:0.000=Song Start;
#BGCHANGES:0.000=MV.avi=1.000=1=0=1===CrossFade==,
99999=-nosongbg-=1.000=0=0=0 // don't automatically add -songbackground-
;
#KEYSOUNDS:;
#ATTACKS:
;

//---------------dance-single - ----------------
#NOTEDATA:;
#CHARTNAME:;
#STEPSTYPE:dance-single;
#DESCRIPTION:;
#CHARTSTYLE:;
#DIFFICULTY:Challenge;
#METER:17;
#RADARVALUES:1.415868,1.862789,2.379660,1.436146,1.202355,1187.000000,900.000000,285.000000,172.000000,0.000000,69.000000,0.000000,0.000000,0.000000,1.415868,1.862789,2.379660,1.436146,1.202355,1187.000000,900.000000,285.000000,172.000000,0.000000,69.000000,0.000000,0.000000,0.000000;
#CREDIT:;
#DISPLAYBPM:*;
#NOTES:
0000
0000
0000
0000
,
0000
0000
0000
0000
,
0000
0000
0000
0000
,
0000
0000
0000
0000
,
1100
0010
0001
1000
0100
0000
0001
0010
1000
0000
0100
0010
0001
1000
0010
0100
,
1001
0000
0010
0000
0001
0000
0010
0100
0010
0001
1000
0010
0101
1000
0010
0100
,
1001
0000
1000
0100
0010
1000
0001
0010
0100
0000
0010
0001
1000
0100
0010
1000
,
0101
1000
0110
0000
0110
0000
0110
0000
,
0110
0000
0001
0000
0100
0000
0001
1000
0010
0001
0100
0000
0001
0000
0010
0000
,
1001
0000
0010
0000
0100
0000
0001
1000
0010
0001
0100
0000
0001
0000
0100
0010
,
1100
0000
0001
0000
1010
0100
0001
0010
1100
0000
0011
0000
1100
0000
0011
0000
,
1101
0000
0010
0000
0001
0000
0010
0000
1100
0011
1100
0011
1100
0000
0000
0000
,
0000
0000
0000
0000
2100
0000
0010
0000
3101
0010
1000
0100
0011
1000
0200
0000
,
1310
0000
0001
0000
1020
0000
0230
0000
1301
0010
0100
1000
0110
0001
0010
0100
,
1001
0000
0010
0000
1002
0000
0000
0000
0113
1000
0001
0100
1010
0001
0020
0000
,
0131
0000
1000
0000
0110
0000
1000
0000
0011
1100
0011
1100
0011
0000
0100
0000
,
1001
0000
0100
0000
1020
0000
0000
0000
0131
1000
0100
0010
1001
0100
0020
0000
,
1130
0000
0001
0000
2100
0000
3020
0000
0131
1000
0010
0100
0011
0000
2000
0000
,
3110
0000
0001
0000
0210
0000
0000
0000
1301
0010
0100
0010
1001
0010
0200
0000
,
1310
0000
0001
0000
1100
0000
0001
0010
0100
0000
1000
0000
0010
0100
0010
0100
,
0011
0000
1100
0000
0002
0000
0000
0000
1103
0001
0020
0100
1031
0100
0002
0000
,
0113
0000
0002
0000
1013
0000
0002
0000
1013
0100
0002
0010
1103
0010
0002
1000
,
0113
0000
0020
0000
2031
0000
0100
0000
3110
0001
2000
0100
3011
0100
0010
0000
,
1100
0000
0020
0000
1031
0000
1020
0000
0131
1000
0020
0100
1031
0100
0020
0000
,
1130
0000
0002
0000
2103
0000
0000
0000
3011
0100
2000
0010
3101
0010
0200
0000
,
0312
0000
0000
0000
1103
0000
0020
0000
1130
0001
0020
1000
0131
1000
0020
0000
,
2130
0000
3011
1100
0011
1100
0011
1100
,
0011
0000
1100
0000
1001
0010
0100
0010
1001
0100
0010
0100
1001
0010
0100
0010
,
1001
0000
0000
0000
0020
0100
1000
0100
0032
1000
0100
0010
1000
0010
0100
0010
,
2003
0100
0010
0001
3200
0001
0010
1000
0010
1000
0001
0010
1000
0010
0001
1000
,
0302
0010
0100
1000
0023
0100
1000
0001
1000
0100
0001
0100
1000
0001
1000
0100
,
0001
0100
1000
0001
0100
1000
0100
0001
2030
0001
0100
0010
3200
0001
0010
1000
,
0320
0001
1000
0001
0230
0001
1000
0010
0302
0010
1000
0100
0010
0100
1000
0010
,
2003
0100
0010
0001
3020
0100
1000
0001
1000
0100
0001
0100
1000
0100
0001
1000
,
0032
0100
1000
0010
0203
0010
0001
1000
0001
0010
1000
0001
1000
0010
0001
0010
,
1000
0010
0001
1000
0302
0010
0100
1000
0010
0100
0010
1000
0100
0010
0100
1000
,
0113
0000
0000
0000
1001
0000
0100
0000
1010
0001
0100
0001
1010
0000
0001
0010
,
1100
0001
0010
1000
0101
0000
0010
0000
1001
0100
1000
0100
0011
0000
0001
1000
,
0110
0000
1001
0010
0101
0000
1000
0000
0011
0100
0010
0100
1001
0000
0010
0001
,
1100
0000
0010
1000
0101
0000
0010
0000
1100
0001
0010
0001
1100
0000
0011
0000
,
1100
0000
0011
0000
1110
0000
0001
0000
1010
0100
0010
0100
1001
0000
0010
1000
,
0110
1000
0001
0010
1100
0000
0001
0000
0101
1000
0100
0010
1001
0000
0010
1000
,
0110
0001
1000
0001
0110
0000
0001
0000
1010
0100
0010
0100
1001
0010
0100
1000
,
0101
0010
0001
0000
1000
0100
0010
0001
1000
0100
0010
0001
1000
0100
0010
0001
,
1000
0100
0010
0001
1100
0000
0000
0000
1010
0000
0000
0000
1001
0000
0000
0011
,
0100
0000
0010
0000
1100
0000
0000
0000
0110
0000
0000
0000
1001
0000
0000
0101
,
0010
0000
0100
0000
1010
0000
0000
0000
0101
0000
0000
0000
1100
0000
0000
0110
,
0001
0000
0110
0000
1001
0000
0000
0000
0101
0000
0000
0000
1010
0000
0000
0011
,
0100
0000
0010
0000
1001
0000
0010
0000
0101
0000
1000
0000
0110
0000
1000
0011
,
1000
0000
0100
0000
0011
0000
0101
0000
1010
0000
0101
0000
1100
0000
0001
0110
,
0001
0000
0010
0000
1100
0000
1010
0000
0101
0000
1010
0000
0011
0000
1100
0011
,
1100
0000
0110
0000
0011
0000
0010
0000
0101
0000
1000
0100
0011
1000
0001
0010
,
1100
0000
0011
0000
2100
0000
3001
0010
1200
0000
0301
1000
0120
0000
1030
0100
,
0012
0000
0023
0000
1230
0000
0310
0100
0012
0000
0103
0010
2001
0000
3020
0000
,
1230
0000
0320
0000
0132
0000
1003
0100
1002
0000
0103
1000
0012
0000
1003
0100
,
0021
0230
2301
3020
0132
0203
2310
3020
,
0132
0000
0023
0000
0231
0000
1300
0001
0210
0000
0301
0010
1200
0000
0301
0010
,
2001
0000
3200
0000
0321
0000
1030
0100
0012
0000
0103
0010
2100
0000
3020
0000
,
2031
0000
3020
0000
1032
0000
0103
1000
0012
0000
0103
0010
0102
0000
1003
0100
,
1020
0000
0032
0000
2013
0000
3200
0010
0302
0000
0023
1000
0230
0000
0320
0001
,
1230
0000
2301
0000
3000
0000
0001
0010
1200
0000
0310
1000
0201
0000
1300
0001
,
1020
0000
0230
0000
2301
0000
3001
0010
1200
0000
0310
0001
0120
0000
0032
0000
,
1203
0000
2300
0000
3021
0000
0130
0001
1020
0000
1030
0100
0021
0000
0031
0100
,
2010
0000
3200
0000
0321
0000
1030
0000
0011
0000
1100
0000
0011
0000
0000
0011
,
0000
0011
0011
0100
1001
0100
1010
0001
,
0110
1001
0110
1000
0101
0010
1100
0011
,
1100
0000
0011
0000
1100
0000
0011
0000
1100
0000
0001
0010
1100
0001
0010
0100
,
0011
1100
0011
1100
0011
0100
1001
0100
0011
0100
1000
0100
0011
0100
1001
0010
,
1100
0010
0101
1000
0021
0000
0230
0000
2301
0000
3020
0000
0230
0000
0302
0000
,
0123
2030
3200
0320
2031
3200
0302
0023
,
2130
3200
0320
0032
2103
3020
0230
0302
,
0123
2030
3020
0230
1302
0023
2030
3200
,
0321
2030
3002
0023
0231
2300
3020
0230
,
0312
2003
3200
0320
0132
2003
3200
0320
,
0230
0302
0023
2030
3201
2300
3002
0023
,
2130
0000
3020
0000
0131
0000
1010
0000
0101
0000
1010
0001
1000
0100
0010
0001
,
1000
0001
0010
0100
1000
0010
0100
0001
0010
0100
1000
0100
0010
0100
0010
0001
,
1000
0010
0100
0001
0010
0100
1000
0010
0100
0010
0001
1000
0100
0010
0100
0001
,
0010
0100
1000
0010
0001
0100
1000
0100
0010
0001
1000
0100
0010
0100
0001
0010
,
0100
0010
0100
1000
0100
0010
0001
0010
0001
1000
0100
0010
0100
0001
0010
1000
,
0100
0010
0100
0010
1001
0100
0010
1000
0001
0010
0100
1000
0010
0100
0001
1000
,
0100
0010
0001
0100
1001
0010
0100
0001
0010
0100
1000
0010
0100
0001
0010
1000
,
0100
1000
0010
0100
0011
0000
1100
0000
0011
0000
1100
0000
0011
1100
0011
0000
,
1100
0000
0011
1100
0011
1100
0011
1100
0011
1100
0011
1100
0011
1100
0011
1100
,
0011
1100
0011
1100
0000
0000
0000
0000
0000
0000
0000
0000
0000
0000
0000
0000
;

//---------------dance-single - ----------------
#NOTEDATA:;
#CHARTNAME:;
#STEPSTYPE:dance-single;
#DESCRIPTION:;
#CHARTSTYLE:;
#DIFFICULTY:Hard;
#METER:15;
#RADARVALUES:0.808727,1.124703,0.183693,2.070722,0.396610,678.000000,656.000000,22.000000,248.000000,0.000000,0.000000,0.000000,0.000000,0.000000,0.808727,1.124703,0.183693,2.070722,0.396610,678.000000,656.000000,22.000000,248.000000,0.000000,0.000000,0.000000,0.000000,0.000000;
#CREDIT:;
#DISPLAYBPM:*;
#NOTES:
// measure 0
0000
0000
0000
0000
,  // measure 1
0000
0000
0000
0000
,  // measure 2
0000
0000
0000
0000
,  // measure 3
0000
0000
0000
0000
,  // measure 4
1001
0000
1000
0000
0001
0000
0100
0010
0100
0000
0010
0000
0001
1000
0010
1000
,  // measure 5
0001
0000
0100
0000
0001
0000
1000
0001
0100
0001
1000
0000
0010
1000
0010
0100
,  // measure 6
0010
0000
0100
0000
0001
0000
1000
0100
1000
0000
0010
0000
0100
0000
0001
1000
,  // measure 7
0001
0100
0110
0000
0110
0000
0110
0000
,  // measure 8
0110
0000
0000
0000
0001
0000
1000
0010
1000
0000
0010
0000
0001
0000
0000
0000
,  // measure 9
1001
0000
1000
0000
0010
0000
0100
0001
0100
0010
1000
0000
0001
0000
1000
0000
,  // measure 10
1010
0000
1010
0000
0100
0001
0100
0001
,  // measure 11
0101
0000
0100
0000
0010
0000
0001
0000
1000
0001
1000
0001
2000
0000
0000
0000
,  // measure 12
0000
0000
0000
0000
3020
0000
0000
0000
0130
0000
0001
1000
0001
0000
0100
0000
,  // measure 13
0010
0000
1000
0000
0010
0000
0010
0000
0100
0000
1000
0001
1000
0000
0010
0100
,  // measure 14
0010
0000
0001
0000
2000
0000
0000
0000
3010
0000
0010
0100
0010
0000
1000
0000
,  // measure 15
0100
0000
0010
0000
0001
0000
1000
0000
0001
1000
0001
1000
0001
0000
0100
0000
,  // measure 16
0010
0000
0100
0000
0020
0000
0000
0000
0031
0000
0100
0010
0100
0000
0001
0000
,  // measure 17
1000
0000
0100
0000
0010
0000
0010
0000
0001
0000
1000
0010
1000
0000
0002
0000
,  // measure 18
0103
0000
0010
0000
2000
0000
0000
0000
3100
0000
0001
0100
0010
0000
0001
0000
,  // measure 19
1000
0000
0001
0000
0100
0000
0010
1000
0001
0000
0001
0000
0100
0010
1000
0001
,  // measure 20
0100
0010
1000
0001
0200
0000
0000
0000
0310
0000
2000
0000
3010
0000
0002
0000
,  // measure 21
0103
0002
0103
0002
1003
0002
0103
0002
,  // measure 22
1003
0020
0230
0000
0310
0002
0103
2000
,  // measure 23
3010
2000
3001
0001
1001
2000
3010
2000
,  // measure 24
3100
2000
3002
0000
0103
0010
1000
0010
,  // measure 25
0200
0000
0000
0000
0310
0000
0100
0000
0001
0000
1000
0010
1000
0000
0010
0000
,  // measure 26
0002
0000
0013
0100
0110
0010
1000
0010
,  // measure 27
1010
1000
0002
0100
1000
0010
1000
0010
,  // measure 28
2003
3020
0230
0000
,  // measure 29
0302
2003
0000
0000
,  // measure 30
3200
0320
0000
0000
,  // measure 31
0000
0000
0032
0023
,  // measure 32
0230
2300
3002
0000
,  // measure 33
0203
0320
0000
0000
,  // measure 34
0230
2300
0000
0000
,  // measure 35
0000
3020
0000
0000
,  // measure 36
0130
0000
0000
0000
0101
0000
0001
0000
1000
0010
1000
0000
0001
0000
0100
0010
,  // measure 37
1000
0000
0010
0100
0001
0000
1000
0000
0010
0100
0010
0000
1000
0000
0001
0100
,  // measure 38
0010
0000
1000
0010
0100
0000
0010
0000
0001
1000
0001
0000
0100
0000
0010
1000
,  // measure 39
0010
0000
0100
0001
0100
0000
0010
0000
1000
0000
1000
0001
0100
0010
0100
0001
,  // measure 40
1000
0000
0001
0000
0101
0000
0010
0000
1000
0010
1000
0000
0100
0000
0001
1000
,  // measure 41
0001
0000
0100
0010
0100
0000
1000
0000
0010
0100
0001
0000
0010
0000
1000
0001
,  // measure 42
0100
0000
0001
0100
0010
0000
1000
0000
0010
0100
0010
0000
0001
1000
0001
1000
,  // measure 43
0001
0000
0100
0000
0010
1000
0001
0100
0010
1000
0001
0100
0010
1000
0001
0100
,  // measure 44
0010
1000
0001
0100
0020
0000
0030
0000
0020
0000
0030
0000
0200
0000
0300
1000
,  // measure 45
0020
0000
1030
0000
0002
0000
0003
0000
0200
0000
0300
0000
0200
0000
0300
0001
,  // measure 46
2000
0000
3200
0000
0320
0000
0030
0000
0200
0000
0300
0000
0200
0000
0300
0010
,  // measure 47
2000
0000
3100
0000
0002
0000
0003
0000
0200
0000
0300
0000
0020
0000
0030
1000
,  // measure 48
0020
0000
0230
0000
0301
0000
0001
0000
0100
0000
0010
0000
1000
0000
0001
1000
,  // measure 49
0001
0000
0010
0000
0110
0000
0100
0000
0001
0000
0100
0000
1000
0000
0001
1000
,  // measure 50
0001
0000
0100
0000
0110
0000
0010
0000
1000
0000
0010
0000
0110
0000
0100
0001
,  // measure 51
0100
0000
0001
0000
0101
0000
0000
0000
1000
0010
0100
0001
0100
0001
1000
0010
,  // measure 52
2000
3020
0230
0301
0002
0103
0002
1003
,  // measure 53
0020
0230
0320
1030
0002
0103
2000
3020
,  // measure 54
0230
0302
2003
3010
2000
3010
2000
3010
,  // measure 55
0200
0320
0032
2003
3002
0203
0302
2003
,  // measure 56
3020
0230
0302
0013
0002
1003
0002
0103
,  // measure 57
0200
0320
2030
3001
0200
0310
0020
0230
,  // measure 58
0320
0230
0302
0013
0002
1003
0002
0103
,  // measure 59
0200
0000
0320
0000
1030
0000
0001
0100
0001
0000
0010
1000
0100
0000
0010
0100
,  // measure 60
0001
0100
0001
0000
0000
0000
0001
0000
1002
0000
1003
0000
0002
0000
0103
0000
,  // measure 61
0200
0320
2030
3010
0020
1030
0020
0230
,  // measure 62
0320
2030
3002
0103
0002
0013
0002
0103
,  // measure 63
0200
0320
2030
3020
0230
0320
2030
3020
,  // measure 64
0230
0302
0023
1030
1020
1030
0020
0130
,  // measure 65
0102
0203
0302
1003
1020
1030
0020
0230
,  // measure 66
0320
0230
0301
1000
0001
1000
0001
1000
,  // measure 67
0001
1000
0001
1000
0002
0000
0203
0000
0302
0000
0023
0000
0032
0000
2003
0000
,  // measure 68
3020
0230
0320
2030
3200
2300
3020
0230
,  // measure 69
0320
0032
0203
0320
2030
3020
0230
0302
,  // measure 70
0023
2030
3002
0203
0320
2030
3020
0230
,  // measure 71
0302
0023
2030
3200
0320
0032
0203
0302
,  // measure 72
0023
0230
0302
2003
3020
0230
0320
2030
,  // measure 73
3020
0230
0302
2003
3002
0203
0320
2030
,  // measure 74
3200
2300
3200
0320
0032
2003
3020
0230
,  // measure 75
0302
0000
0203
0000
0301
0000
1000
0000
0001
0000
1000
0000
0001
0100
0001
1000
,  // measure 76
0001
0100
0001
1000
0002
0000
0203
0000
0320
0000
2030
0000
3020
0000
0230
0000
,  // measure 77
0302
2003
3002
0023
0230
2300
3020
0230
,  // measure 78
0302
0023
0032
2003
3002
0203
0320
0230
,  // measure 79
2300
3020
0230
0302
0023
2030
3002
0203
,  // measure 80
0320
2030
3200
0320
0032
2003
3002
0203
,  // measure 81
0320
0230
0320
2030
3200
0320
0032
2003
,  // measure 82
3002
0000
0203
0000
0310
1000
0010
0100
0010
1000
0001
1000
0010
0100
0010
1000
,  // measure 83
0001
0100
0001
1000
0001
1000
0001
1000
0001
1000
0001
1000
0001
1000
0001
1000
,  // measure 84
0001
1000
0001
1000
0000
0000
0000
0000
0000
0000
0000
0000
0000
0000
0000
0000
;

//---------------dance-single - ----------------
#NOTEDATA:;
#CHARTNAME:;
#STEPSTYPE:dance-single;
#DESCRIPTION:;
#CHARTSTYLE:;
#DIFFICULTY:Medium;
#METER:9;
#RADARVALUES:0.460425,0.597055,0.066797,0.509331,0.000000,386.000000,378.000000,8.000000,61.000000,0.000000,0.000000,0.000000,0.000000,0.000000,0.460425,0.597055,0.066797,0.509331,0.000000,386.000000,378.000000,8.000000,61.000000,0.000000,0.000000,0.000000,0.000000,0.000000;
#CREDIT:;
#DISPLAYBPM:*;
#NOTES:
0000
0000
0000
0000
,
2000
0000
0000
0000
,
0000
0000
0000
0000
,
0000
0000
0000
0000
,
3010
0000
0100
0000
0001
1000
0000
0000
,
0010
0000
0100
0000
0010
1000
0001
0000
,
0001
0000
0100
0000
0010
1000
0000
0000
,
0001
0101
0101
0101
,
0101
0100
1000
0010
,
0110
0100
0001
1000
,
1001
0000
0010
0000
0100
0010
0100
0010
,
0100
0001
0100
0010
2000
0000
3000
0000
,
0000
0000
0010
0000
0100
0000
0001
1000
,
0001
0000
0100
0000
0010
0000
1000
0001
,
1000
0000
0010
0000
0001
0000
0100
0010
,
0100
0001
0020
0030
,
1000
0000
0010
0000
0100
0000
0001
1000
,
0001
0000
0100
0000
0010
0000
1000
0100
,
1000
0010
0100
0000
0001
0000
1000
0010
,
0100
0001
1000
0010
,
0100
0100
0200
0000
0310
0000
0001
0000
,
0010
1000
0010
0001
,
0010
2000
3100
0001
,
0100
0000
1000
0001
1000
0000
0010
0000
,
0100
2000
3010
0100
,
0002
0103
0010
1000
,
0200
0000
0301
1000
0001
1000
0001
1000
,
0001
1000
0002
0000
0000
0000
0000
0000
,
0103
0020
2030
0000
,
3200
0302
0000
0000
,
0203
0320
0000
0000
,
0000
0000
2030
3200
,
0320
0032
2003
0000
,
3020
0230
0000
0000
,
0320
0032
0000
0000
,
0000
0203
0000
0000
,
0310
1010
0100
0010
,
0100
0001
0100
0010
,
1000
0001
1000
0000
0010
0000
0100
0000
,
0001
0000
0010
0000
0001
0000
1000
0001
,
1000
0001
1000
0000
0010
0000
0100
0000
,
0001
0010
1000
0010
,
0100
0001
1000
0100
,
0001
0020
0230
2300
,
3200
0310
1000
0001
,
0100
0010
1000
0010
,
0100
0001
0100
0000
0010
0000
1000
0000
,
0100
0010
0001
1000
,
0010
0100
0001
0000
1000
0000
0010
0000
,
0100
0001
1000
0010
,
0100
0001
1000
0001
,
1000
0000
0110
0000
0001
0000
0100
0010
,
0100
0010
0100
0000
0001
0000
1000
0000
,
0010
0100
0001
0000
0010
0000
1000
0010
,
0100
0001
0010
0000
0010
0000
0010
0000
,
1000
0001
0100
0001
1000
0001
0100
0001
,
1000
0010
0100
0000
0100
0000
0100
0000
,
0010
1000
0001
0000
0100
0000
0010
1000
,
0010
1000
0001
0000
0001
0000
0001
0000
,
0100
0010
1000
0010
0100
0010
1000
0001
,
0100
0001
0000
0000
0010
0000
0010
0000
,
1000
0001
1000
0000
0010
0000
0100
0001
,
0100
0001
1000
0000
1000
0000
1000
0000
,
0010
0100
0001
0100
0010
0100
0001
0100
,
0010
0100
0001
0000
0001
0000
0001
0000
,
0001
1000
0010
0000
0100
0000
1000
0010
,
1000
0010
0100
0000
0100
0000
0100
0000
,
0010
1000
0001
1000
0010
1000
0001
1000
,
0010
1000
0002
0000
0203
0000
0320
0000
,
2030
3020
0230
0302
,
2003
3002
0203
0320
,
2030
3002
0023
0032
,
0203
0320
2030
3002
,
2003
3020
0230
0302
,
2003
3020
2030
3002
,
2003
3020
0230
0302
,
0023
0000
1030
0001
1000
0000
0010
0000
,
0100
0001
0100
0000
0001
0000
0010
0100
,
0010
1000
0010
0100
0001
0000
0010
0000
,
0100
0001
0100
0000
0010
0000
1000
0001
,
1000
0010
1000
0001
1000
0000
0010
0000
,
0100
0001
0100
0000
0010
0000
1000
0001
,
1000
0001
1000
0010
1000
0010
0100
0010
,
0100
0001
0100
0001
0010
0001
0010
0001
,
0100
0010
0000
0000
0000
0000
0000
0000
;

//---------------dance-single - ----------------
#NOTEDATA:;
#CHARTNAME:;
#STEPSTYPE:dance-single;
#DESCRIPTION:;
#CHARTSTYLE:;
#DIFFICULTY:Easy;
#METER:4;
#RADARVALUES:0.336373,0.350687,0.016699,0.250491,0.000000,282.000000,280.000000,2.000000,30.000000,0.000000,0.000000,0.000000,0.000000,0.000000,0.336373,0.350687,0.016699,0.250491,0.000000,282.000000,280.000000,2.000000,30.000000,0.000000,0.000000,0.000000,0.000000,0.000000;
#CREDIT:;
#DISPLAYBPM:*;
#NOTES:
0000
0000
0000
0000
,
0000
0000
0000
0000
,
0000
0000
0000
0000
,
0000
0000
0000
0000
,
1001
0000
0010
0000
0000
0100
0000
0000
,
0010
0000
1000
0000
0000
0001
0000
0000
,
0100
0000
0010
0000
0000
1000
0000
0000
,
0010
0100
0100
0100
,
0100
0010
0100
0001
,
1000
0001
1000
0010
,
0100
0010
1000
0001
,
1001
0000
0000
0020
,
0000
0030
0100
0001
,
0010
1000
0010
0100
,
0001
0020
0030
1000
,
0010
0100
0000
0000
,
0010
2000
3000
0100
,
0010
0001
0100
0010
,
1000
0020
0030
0100
,
0001
0010
0000
0000
,
0000
0020
1030
0001
,
1000
0010
1000
0001
,
1000
0020
0130
0001
,
0100
0010
0100
0001
,
0100
0020
1030
0001
,
0200
0300
0010
1000
,
0020
0030
0100
0001
,
0010
1000
0001
1000
,
0001
0200
0320
0000
,
2030
3002
0000
0000
,
0203
0320
0000
0000
,
0000
0000
2030
3002
,
0203
0320
2030
0000
,
3020
0230
0000
0000
,
0302
2003
0000
0000
,
0000
3020
0000
0000
,
0030
0100
0010
1000
,
0010
0100
0001
1000
,
0001
0100
0010
1000
,
0010
0100
0001
2000
,
0000
3001
0100
0010
,
0001
1000
0010
0100
,
0010
1000
0001
0100
,
0010
2000
3002
0203
,
0320
1030
0010
0100
,
0010
1000
0010
0001
,
0100
0010
0100
0000
0001
0000
1000
0000
,
0010
1000
0001
0100
,
0010
1000
0010
0000
0100
0000
0100
0000
,
0001
1000
0010
0010
,
0100
0001
1000
0001
,
1000
0001
0000
0000
,
0000
1000
0010
0010
,
0100
0001
1000
0010
,
0100
0001
0001
0001
,
1000
0010
0100
0001
,
1000
0010
0010
0010
,
1000
0001
0100
0010
,
0010
0010
1000
0001
,
0100
0010
1000
0001
,
0100
0000
0000
0000
,
1000
0001
0100
0010
,
1000
0001
0001
0001
,
0100
0010
1000
0010
,
0100
0001
0001
0001
,
1000
0010
0100
1000
,
1000
1000
0010
0100
,
0001
1000
0010
0001
,
0100
0010
0000
0001
,
0100
0010
0001
0010
,
0100
1000
0010
0100
,
0010
0001
1000
0001
,
0100
0010
1000
0001
,
0010
0001
0100
1000
,
0010
0100
0001
1000
,
0010
0100
0001
1000
,
0010
0001
0100
0010
,
1000
0010
0100
0001
,
0010
0001
1000
0010
,
0100
0010
1000
0001
,
0100
0010
0000
1000
,
0010
0001
0000
0100
,
0010
1000
0001
0100
,
0010
1000
0001
0100
,
0010
0000
0000
0000
;

//---------------dance-single - ----------------
#NOTEDATA:;
#CHARTNAME:;
#STEPSTYPE:dance-single;
#DESCRIPTION:;
#CHARTSTYLE:;
#DIFFICULTY:Beginner;
#METER:2;
#RADARVALUES:0.184886,0.315618,0.058448,0.083497,0.000000,155.000000,148.000000,7.000000,10.000000,0.000000,0.000000,0.000000,0.000000,0.000000,0.184886,0.315618,0.058448,0.083497,0.000000,155.000000,148.000000,7.000000,10.000000,0.000000,0.000000,0.000000,0.000000,0.000000;
#CREDIT:;
#DISPLAYBPM:*;
#NOTES:
0000
0000
0000
0000
,
0000
0000
0000
0000
,
0000
0000
0000
0000
,
0000
0000
0000
0000
,
0010
0000
0000
0000
,
0100
0000
0000
0000
,
0001
0000
0000
0000
,
0010
0000
0000
0000
,
1000
0000
0000
0000
,
0010
0000
0000
0000
,
0100
0000
0010
0000
,
0001
0000
0000
0100
,
0000
0000
0100
0000
,
0010
0000
1000
0000
,
0001
0000
0100
0000
,
0010
0000
0000
0000
,
0010
0000
1000
0000
,
0001
0000
0100
0000
,
0010
0000
0001
0000
,
1000
0010
0000
0000
,
0000
0000
0010
0000
,
0100
0000
0001
0000
,
1000
0000
0010
0000
,
0001
0000
0100
0000
,
0010
0000
1000
0000
,
0001
0000
0100
0000
,
0010
0000
1000
0000
,
0010
0200
0000
0000
,
0300
0002
0000
0000
,
0000
0023
0000
0000
,
0000
0230
0000
0000
,
0000
0000
0000
0000
,
0000
2300
0000
0000
,
0000
3020
0000
0000
,
0000
0230
0000
0000
,
0000
0302
0000
0000
,
0003
0000
0010
0000
,
0100
0000
0010
0000
,
1000
0010
0100
0000
,
0001
0000
1000
0010
,
0100
0001
1000
0000
,
0010
0000
0100
0000
,
0001
0000
1000
0000
,
0010
0000
0000
0000
,
0000
1001
0000
0000
,
0000
0010
0000
0000
,
0000
0100
0000
0000
,
0000
0001
0000
0000
,
0000
0110
0000
0000
,
0000
1010
0000
0000
,
0000
0101
0000
0000
,
0000
1001
0000
0000
,
0000
0110
0000
1000
,
0000
0001
0000
0100
,
0010
0100
0000
1000
,
0000
0001
0100
0001
,
0100
0001
0000
1000
,
0000
0010
0000
0100
,
0010
0100
0000
0001
,
0000
1000
0010
0100
,
0001
0000
0000
0010
,
0000
0100
0000
1000
,
0001
1000
0000
0010
,
0000
0100
0001
0100
,
0001
0100
0010
0100
,
0000
1000
0000
0001
,
0100
0001
0000
0010
,
0000
1001
0000
0000
,
0000
0000
0100
0000
,
0010
0000
1000
0000
,
0001
0000
0100
0000
,
0010
0000
0100
0000
,
1000
0000
0010
0000
,
0001
0000
0100
0000
,
0000
0000
1000
0000
,
0010
0200
0000
0302
,
0000
1003
0010
0000
,
0010
0000
0100
0000
,
0001
0000
1000
0000
,
0010
0000
0001
0000
,
0100
0000
1000
0000
,
0010
0000
0100
0000
,
0001
0100
0001
1000
,
0001
0100
0001
1000
,
0001
0000
0000
0000
;
