#TITLE:Anima no Sasayaki;
#SUBTITLE:;
#ARTIST:Iyashi;
#TITLETRANSLIT:;
#SUBTITLETRANSLIT:;
#ARTISTTRANSLIT:;
#GENRE:;
#CREDIT:;
#BANNER:AV.avi;
#BACKGROUND:BG.png;
#LYRICSPATH:;
#CDTITLE:;
#MUSIC:Anima no Sasayaki.ogg;
#OFFSET:-0.079000;
#SAMPLESTART:93.980003;
#SAMPLELENGTH:15.000000;
#SELECTABLE:YES;
#BPMS:0.000000=103.919998
,58.000000=104.919998
,65.000000=103.919998
,126.000000=100.959999
,130.000000=103.959999
,154.000000=100.959999
,156.000000=96.959999
,158.000000=88.959999
,160.250000=96.959999
,162.000000=99.959999
,194.000000=103.959999
,218.000000=99.959999
,219.000000=95.959999
,220.000000=87.959999
,221.000000=79.959999
,222.000000=99.959999
;
#STOPS:
;
#BGCHANGES:0.000=MV.avi=1.200=1=1=1=StretchRewind==CrossFade==,
2.000=MV.avi=1.000=0=0=1=====,
99999=-nosongbg-=1.000=0=0=0 // don't automatically add -songbackground-
;
#KEYSOUNDS:;
#ATTACKS:;

//---------------dance-single - ----------------
#NOTES:
     dance-single:
     :
     Challenge:
     13:
     0.436125,0.681890,0.675354,1.254230,0.268763,443.000000,345.000000,98.000000,182.000000,0.000000,73.000000,0.436125,0.681890,0.675354,1.254230,0.268763,443.000000,345.000000,98.000000,182.000000,0.000000,73.000000:
0000
0000
0000
0000
,
0000
0000
0000
0000
0000
0000
0000
0000
0000
0000
0000
0000
0000
0000
0000
0000
0000
0000
0000
0000
0000
0000
0000
0000
0000
0000
0000
0000
0000
0000
0000
0000
0000
0000
0000
0000
0000
0000
0000
0000
0000
0000
0000
0000
0000
0000
0000
0000
0000
0000
0000
0000
0000
0000
0100
0000
0000
0000
0000
0000
1000
0000
0000
0000
0000
0000
0000
0000
0000
0000
0000
0000
0000
0000
0000
0000
0000
0000
0000
0000
0000
0000
0000
0000
0100
0000
0000
0000
0000
0000
0000
0000
0010
0000
0000
0000
0000
0000
0000
0000
0000
0000
0000
0000
0000
0000
0000
0000
1000
0000
0000
0000
0000
0000
0000
0000
0000
0000
0000
0000
0001
0000
0000
0000
0000
0000
0000
0000
0000
0000
0000
0000
0100
0000
0000
0000
0000
0000
0000
0000
0000
0000
0000
0000
0000
0000
0000
0000
0000
0000
0000
0000
0000
0000
0000
0000
0000
0000
0000
0000
0000
0000
0000
0000
0000
0000
0000
0000
0000
0000
0000
0000
0000
0000
0000
0000
0000
0000
0000
0000
0000
0000
0000
0000
0100
0000
0000
0000
0000
0000
0000
0000
,
0000
0010
0000
0001
0000
0000
0100
0000
0000
1000
0000
0100
0000
0000
0000
0000
0000
0000
0000
0000
0000
0000
0000
0000
0000
0000
0000
0000
0000
0000
0000
0000
0000
0000
0000
0000
0000
0000
0000
0000
0000
0000
0100
0000
0000
0010
0000
0000
,
0100
0010
1000
0000
0001
0000
1000
0010
0100
0000
1000
0000
0000
0001
0000
1000
0000
0100
0000
0010
0000
0000
0000
0000
0000
0000
0000
0000
0100
0000
0010
1000
,
0000
0100
0000
0000
0000
0000
0010
1000
0000
0001
0100
0000
0010
1000
0100
0000
0001
1000
0000
0100
0000
0010
0000
0001
0000
1000
0000
0010
1000
0100
0000
0000
,
0000
0000
0000
0000
0000
0000
0000
0000
0000
0000
0000
0000
0000
2000
0000
3000
,
0000
0000
0000
0000
0100
0000
0010
0100
0000
0001
0000
0000
0100
0000
0000
0000
0000
0000
0000
0000
0000
0000
0000
0000
0000
0000
0000
0000
0000
0000
0000
0000
,
1000
0000
0001
0000
0010
0100
0000
0000
0001
0000
0100
1000
0000
0000
0000
0000
0000
0000
0000
0000
0000
1000
0100
0000
0000
0010
0000
0001
0000
1000
0000
0000
,
0000
0000
0000
0000
0120
0001
2030
3020
,
0230
0000
0302
0000
2013
0100
3020
0000
,
0000
0000
0000
0000
0000
0030
0000
0000
2100
0000
0000
0000
3201
0000
0320
0000
,
0230
0000
0320
0000
2031
0100
3002
0000
,
0000
0000
0003
0000
1200
0001
1320
0230
,
0320
0000
2030
0000
3102
0010
1203
0000
,
0000
0000
0300
0000
0120
0001
2130
3002
,
0203
0000
0320
0230
0321
1000
0132
0000
,
1000
0000
0103
0000
0210
0000
1320
0230
,
0320
0000
0000
0030
0020
0000
0000
0000
1032
0000
0010
0000
1203
0000
0000
0000
,
0010
0000
0000
0000
0310
0000
0000
0000
0120
0000
1000
0030
0021
0000
0230
0000
,
0320
0000
0032
0000
1023
0001
1230
0000
,
0010
0000
0000
0000
0310
0000
0000
0000
2100
0000
0001
3000
2010
0000
3200
0000
,
0320
0000
0000
0030
0020
0000
0000
0000
1032
0000
0100
0000
1023
0000
0000
0000
,
0000
1000
0031
1000
0201
0010
1320
0231
,
1320
0000
1032
0100
1023
0001
0100
1000
,
0131
0000
2001
3200
0321
0000
0000
1000
,
0030
0200
0321
2030
3102
2003
3020
1000
,
0000
0000
1230
0320
0132
0000
0000
1000
,
0023
0230
1320
0032
0123
0000
1230
0000
,
0010
0000
2301
3200
1320
0000
0000
0001
,
0230
0302
1023
0230
0312
0000
0203
0010
,
0300
2000
3201
0320
1032
0000
0000
0100
,
0003
0020
1230
0000
0000
0000
0312
0000
,
0123
0000
2130
0010
3102
0000
0000
0010
,
0003
0200
0312
2003
3120
2030
3002
0100
,
0000
0000
2003
3020
0231
0000
0000
1300
,
0012
2003
3201
0320
2130
3002
0123
0000
,
0130
0000
2001
3200
0321
0000
0000
1030
,
0200
0000
2310
0000
3201
0320
0230
0001
,
1000
0301
2000
3200
0321
0000
0030
2001
,
3200
0320
0230
0000
0320
0000
0000
0000
,
1130
0000
1001
0000
0210
1000
0302
0203
,
0320
0000
2030
0000
3102
0010
0203
0000
,
0000
0000
0000
0000
0000
0300
0000
0000
0012
0000
0000
0000
1023
0000
0230
0000
,
0320
0000
0230
0000
1302
0010
2003
0000
,
0000
0000
3000
0000
0021
1000
0231
0320
,
0230
0000
0302
0000
2013
0100
3021
0000
,
0000
0000
0030
0000
0210
1000
0312
2003
,
3020
0000
0230
0320
1230
0001
2310
0000
,
0001
0000
3010
0000
0120
0000
0231
0320
,
0230
0000
0000
0300
0200
0000
0000
0000
2301
0000
0100
0000
3021
0000
0000
0000
,
0100
0000
0000
0000
0130
0000
0000
0000
0210
0000
0001
0300
1200
0000
0320
0000
,
0230
0000
2300
0000
3201
1000
0321
0000
,
0100
0000
0000
0000
0130
0000
0000
0000
0012
0000
1000
0003
0102
0000
0023
0000
,
0230
0000
0000
0300
0200
0000
0000
0000
2301
0000
0010
0000
3201
0000
0000
0000
,
0000
0001
1300
0001
1020
0100
0231
1320
,
0231
0000
2301
0010
3201
0000
0000
0000
,
0000
0000
0000
0000
0000
0000
0000
0000
0000
0000
0000
0000
0000
0000
0000
0000
0000
0000
0000
0000
0000
0000
0000
0000
0000
0000
0000
0001
0000
0000
0010
0000
0300
1000
0000
0000
0000
0010
0000
0000
0000
0000
0000
0000
0000
0000
0000
0000
0000
0000
0000
0000
0000
0000
0000
0000
0000
0000
0000
0000
0000
0000
0000
0000
,
0000
0000
0000
0000
0000
0000
0000
0000
0000
1000
0000
0000
0000
0000
0000
0000
0000
0000
0000
0000
0000
0001
0000
0000
0000
0000
0000
0000
0000
0000
0000
0000
0000
0100
0000
0000
0000
0000
0000
0000
0000
0000
0000
0000
0000
0010
0000
0000
0000
0000
0000
0000
0000
0000
0000
0000
0000
1000
0000
0000
0000
0000
0000
0000
0000
0000
0000
0000
0100
0000
0000
0000
0000
0000
0000
0000
0000
0000
0000
0000
0000
0000
0000
0000
0000
0000
0000
0000
0000
0000
0000
0000
0000
0000
0000
0000
0000
0000
0000
0000
0000
0000
0000
0000
0000
0000
0000
0000
0000
0000
0000
0000
0000
0000
0000
0000
0100
0000
0000
0000
0000
0000
0000
0000
0000
0000
0000
0000
0000
0000
0000
0000
0000
0000
0000
0000
0000
0000
0010
0000
0000
0000
0000
0000
0000
0000
0000
0000
0000
0000
0000
0000
0000
1000
0000
0000
0000
0000
0000
0000
0000
0000
0000
0000
0000
0001
0000
0000
0000
0000
0000
0000
0000
0000
0000
0000
0000
0010
0000
0000
0000
0000
0000
0000
0000
0000
0000
0000
0000
1000
0000
0000
,
0000
0000
0000
0000
0000
0000
0000
0100
0010
0001
1000
1000
0000
0000
0000
0000
,
0100
0000
0000
0000
0000
0000
0000
0000
0000
0000
0010
0000
1000
0000
0000
0000
0000
0000
0001
0000
0000
0000
0000
0000
0000
0000
0000
0000
0000
0000
0000
0000
0000
0000
0000
0000
0000
0000
0000
0000
0000
0000
0000
0100
0000
0000
0001
0000
0000
0000
0010
0000
0000
0000
0100
0000
0000
0000
0010
0000
0000
0000
0001
0000
;

//---------------dance-single - Copied from----------------
#NOTES:
     dance-single:
     Copied from:
     Hard:
     9:
     0.188036,0.213676,0.006891,1.247338,0.000000,191.000000,190.000000,1.000000,181.000000,0.000000,0.000000,0.188036,0.213676,0.006891,1.247338,0.000000,191.000000,190.000000,1.000000,181.000000,0.000000,0.000000:
// measure 0
0000
0000
0000
0000
,  // measure 1
0000
0000
0000
0000
,  // measure 2
0000
0000
0000
0000
,  // measure 3
0000
0000
0000
0000
,  // measure 4
0000
0000
0001
0000
,  // measure 5
0100
0000
0000
0100
0010
0000
0000
0000
,  // measure 6
1000
0000
0100
0000
,  // measure 7
0000
0000
0101
0000
,  // measure 8
0000
0000
0000
0000
0020
0000
0032
0023
,  // measure 9
2030
3200
0302
0023
,  // measure 10
0000
0000
0000
0000
0000
0030
0000
0000
0002
0000
0000
0000
2003
0000
3020
0000
,  // measure 11
2030
3020
0032
0203
,  // measure 12
0000
0000
0300
0000
2000
0000
3020
2030
,  // measure 13
3020
0032
0203
2300
,  // measure 14
0000
0000
3000
0000
0020
0000
0032
0203
,  // measure 15
2300
0000
3020
2030
3020
0000
0230
0000
,  // measure 16
0000
0000
0300
0000
2000
0000
3020
2030
,  // measure 17
3020
0000
0000
0030
0020
0000
0000
0000
0230
0000
0000
0000
2300
0000
0000
0000
,  // measure 18
0000
0000
0000
0000
3000
0000
0000
0000
0020
0000
0000
0030
0020
0000
2030
0000
,  // measure 19
3020
0230
0320
2030
,  // measure 20
0000
0000
0000
0000
3000
0000
0000
0000
0002
0000
0000
0003
0002
0000
2003
0000
,  // measure 21
3020
0000
0000
0030
0020
0000
0000
0000
0230
0000
0000
0000
0320
0000
0000
0000
,  // measure 22
0000
0000
0030
0000
2000
0000
3020
2030
,  // measure 23
3020
0230
0320
0000
,  // measure 24
0030
0000
0002
2003
3020
0000
0000
0000
,  // measure 25
0030
2000
3020
0032
0203
0302
0023
0000
,  // measure 26
0000
0000
2030
3020
0230
0000
0000
0000
,  // measure 27
0320
2030
3020
0230
0320
0000
2030
0000
,  // measure 28
0000
0000
3002
2003
3020
0000
0000
0000
,  // measure 29
2030
3200
0320
2030
3200
0000
2300
0000
,  // measure 30
3000
0002
2003
3002
0203
0000
0000
0000
,  // measure 31
0300
0020
2030
0000
0000
0000
3200
0000
,  // measure 32
0320
0032
0203
0000
,  // measure 33
0300
2000
3200
0302
0023
0032
0023
0000
,  // measure 34
0000
0000
0032
0023
2030
0000
0000
3000
,  // measure 35
0200
0302
2003
3020
0032
0203
0320
0000
,  // measure 36
0030
0000
0002
2003
3020
0000
0000
0030
,  // measure 37
2000
0000
3002
0000
2003
3020
2030
0000
,  // measure 38
0000
3000
0002
2003
3020
0000
0030
0002
,  // measure 39
2003
3020
2030
0000
3020
0000
0000
0000
,  // measure 40
0031
0000
0001
0000
2000
0000
3200
2300
,  // measure 41
3020
0032
0203
2300
,  // measure 42
0000
0000
0000
0000
0000
3000
0000
0000
0200
0000
0000
0000
0320
0000
2030
0000
,  // measure 43
3020
2030
3200
0302
,  // measure 44
0000
0000
0003
0000
0020
0000
2030
3020
,  // measure 45
2030
3200
0302
0023
,  // measure 46
0000
0000
0030
0000
2000
0000
3200
0302
,  // measure 47
0023
0000
2030
3020
2030
0000
3002
0000
,  // measure 48
0000
0000
0003
0000
0020
0000
2030
3020
,  // measure 49
2030
0000
0000
3000
2000
0000
0000
0000
3002
0000
0000
0000
0023
0000
0000
0000
,  // measure 50
0000
0000
0000
0000
0030
0000
0000
0000
2000
0000
0000
3000
2000
0000
3020
0000
,  // measure 51
2030
3002
2003
3020
,  // measure 52
0000
0000
0000
0000
0030
0000
0000
0000
0200
0000
0000
0300
0200
0000
0320
0000
,  // measure 53
2030
0000
0000
3000
2000
0000
0000
0000
3002
0000
0000
0000
2003
0000
0000
0000
,  // measure 54
0000
0000
3000
0000
0020
0000
2030
3020
,  // measure 55
2030
3002
2003
0000
,  // measure 56
0000
0000
0000
3000
0000
0000
0000
0000
;

//---------------dance-single - Copied from Copied f----------------
#NOTES:
     dance-single:
     Copied from Copied f:
     Medium:
     5:
     0.120107,0.135674,0.000000,0.330786,0.000000,122.000000,122.000000,0.000000,48.000000,0.000000,0.000000,0.120107,0.135674,0.000000,0.330786,0.000000,122.000000,122.000000,0.000000,48.000000,0.000000,0.000000:
0000
0000
0000
0000
,
0000
0000
0000
0000
,
0000
0000
0000
0000
,
0000
0000
0000
0000
,
0000
0000
0000
0000
,
0000
0000
0000
0000
,
0000
0000
0000
0000
,
0000
0000
0000
0000
,
0000
0000
0100
0001
,
1000
0010
0200
0002
,
0000
0303
1000
0100
,
0010
0001
0200
0020
,
0000
0330
0000
0000
1000
0000
0001
0000
,
0100
0010
2000
0002
,
0000
3003
0100
0010
,
1000
0001
0200
0020
,
0000
0330
1000
0001
,
1000
0100
0020
0200
,
0000
0330
1000
0001
,
1000
0010
0002
0200
,
0000
0303
1000
0100
,
0010
0001
0020
0200
,
0000
0330
1000
1000
,
0100
0100
0020
0000
,
0030
0100
0200
0000
,
0300
0010
0010
0002
,
0000
0003
0100
0000
0200
0000
0000
0300
,
1000
1000
0100
0200
,
0000
0300
0010
0000
0020
0000
0000
0030
,
0100
0000
0010
0000
2000
0000
0000
3000
,
0010
0100
0002
0000
,
0000
0003
0200
0000
0000
0000
0300
0000
,
0000
0010
2000
0000
,
3000
0010
0100
0002
,
0000
0003
0200
0000
,
0320
0000
2030
0000
,
0000
3000
0000
0000
0200
0000
0000
0300
,
0010
1000
0002
0000
,
0003
0100
0020
0030
,
0200
0000
0300
0000
0020
0000
0000
0030
,
0000
0000
2000
0000
,
0000
0000
0000
3000
0100
0000
0200
0000
,
0000
0300
0020
0000
,
0000
0000
0000
0030
0001
0000
0002
0000
,
0000
0003
0100
0010
,
0100
0010
0002
0200
,
0000
0303
1000
0010
,
1000
0010
0200
2000
,
0000
3300
0010
0001
,
0010
0100
0020
2000
,
0000
3030
0100
0001
,
0100
0010
0002
2000
,
0000
3003
0100
0010
,
0100
0100
0020
2000
,
0000
3030
0100
0000
,
0100
0000
0200
0000
,
0000
0300
0000
0000
;

//---------------dance-single - Copied from Copied f----------------
#NOTES:
     dance-single:
     Copied from Copied f:
     Easy:
     2:
     0.047255,0.058663,0.000000,0.330786,0.000000,48.000000,48.000000,0.000000,48.000000,0.000000,0.000000,0.047255,0.058663,0.000000,0.330786,0.000000,48.000000,48.000000,0.000000,48.000000,0.000000,0.000000:
0000
0000
0000
0000
,
0000
0000
0000
0000
,
0000
0000
0000
0000
,
0000
0000
0000
0000
,
0000
0000
0000
0000
,
0000
0000
0000
0000
,
0000
0000
0000
0000
,
0000
0000
0000
0000
,
0000
0000
2000
0000
,
0000
0000
0000
3200
,
0000
0000
0000
0320
,
0000
0000
0000
2030
,
0000
0000
0000
3200
,
0000
0000
0000
0320
,
0000
0000
0000
2030
,
0000
0000
0000
3200
,
0000
0000
0000
2300
,
0000
0000
0000
3020
,
0000
0000
0000
0230
,
0000
0000
0000
0302
,
0000
0000
0000
2003
,
0000
0000
0000
3200
,
0000
0000
0000
0320
,
0000
0000
0000
2030
,
0000
3000
0000
2000
,
0000
0000
0000
3200
,
0000
0000
0000
0320
,
0000
0000
0000
0032
,
0000
0000
0000
2003
,
0000
0000
0000
3002
,
0000
0000
0000
2003
,
0000
0000
0000
3200
,
0000
0000
0000
0320
,
0000
0000
0000
2030
,
0000
0000
0000
3200
,
0000
0000
0000
0320
,
0000
0000
0000
2030
,
0000
0000
0000
3200
,
0000
0000
0000
2300
,
0000
0000
0000
3020
,
0000
0000
0000
0230
,
0000
0000
0000
0302
,
0000
0000
0000
2003
,
0000
0000
0000
3200
,
0000
0000
0000
0320
,
0000
0000
0000
2030
,
0000
3000
0000
2000
,
0000
0000
0000
3200
,
0000
0000
0000
0320
,
0000
0000
0000
0032
,
0000
0000
0000
2003
,
0000
0000
0000
3200
,
0000
0000
0000
0320
,
0000
0000
0000
2030
,
0000
0000
0000
3200
,
0000
0000
0000
0320
,
0000
0000
0000
0030
;

//---------------dance-single - Copied from Copied f----------------
#NOTES:
     dance-single:
     Copied from Copied f:
     Beginner:
     1:
     0.047255,0.057371,0.000000,0.000000,0.000000,48.000000,48.000000,0.000000,0.000000,0.000000,0.000000,0.047255,0.057371,0.000000,0.000000,0.000000,48.000000,48.000000,0.000000,0.000000,0.000000,0.000000:
0000
0000
0000
0000
,
0000
0000
0000
0000
,
0000
0000
0000
0000
,
0000
0000
0000
0000
,
0000
0000
0000
0000
,
0000
0000
0000
0000
,
0000
0000
0000
0000
,
0000
0000
0000
0000
,
0000
0000
0001
0000
,
0000
0000
1000
0000
,
0000
0000
0100
0000
,
0000
0000
0001
0000
,
0000
0000
1000
0000
,
0000
0000
1000
0000
,
0000
0000
0100
0000
,
0000
0000
1000
0000
,
0000
0000
1000
0000
,
0000
0000
0001
0000
,
0000
0000
0010
0000
,
0000
0000
0010
0000
,
0000
0000
0100
0000
,
0000
0000
0010
0000
,
0000
0000
1000
0000
,
0000
0000
0100
0000
,
0000
0000
0001
0000
,
0000
0000
0010
0000
,
0000
0000
0100
0000
,
0000
0000
0100
0000
,
0000
0000
0001
0000
,
0000
0000
0100
0000
,
0000
0000
0100
0000
,
0000
0000
0010
0000
,
0000
0000
0010
0000
,
0000
0000
0001
0000
,
0000
0000
0001
0000
,
0000
0000
1000
0000
,
0000
0000
0100
0000
,
0000
0000
0010
0000
,
0000
0000
0100
0000
,
0000
0000
0100
0000
,
0000
0000
0010
0000
,
0000
0000
0100
0000
,
0000
0000
0010
0000
,
0000
0000
0010
0000
,
0000
0000
0010
0000
,
0000
0000
0010
0000
,
0000
0000
0001
0000
,
0000
0000
1000
0000
,
0000
0000
0001
0000
,
0000
0000
0001
0000
,
0000
0000
0010
0000
,
0000
0000
1000
0000
,
0000
0000
1000
0000
,
0000
0000
0001
0000
,
0000
0000
0001
0000
,
0000
0000
0100
0000
;
