#VERSION:0.83;
#TITLE:Altros;
#SUBTITLE:;
#ARTIST:ARForest;
#TITLETRANSLIT:;
#SUBTITLETRANSLIT:;
#ARTISTTRANSLIT:;
#GENRE:;
#ORIGIN:;
#CREDIT:;
#BANNER:AV.avi;
#BACKGROUND:bg.png;
#PREVIEWVID:;
#JACKET:;
#CDIMAGE:;
#DISCIMAGE:;
#LYRICSPATH:;
#CDTITLE:;
#MUSIC:Altros.mp3;
#OFFSET:0.050000;
#SAMPLESTART:84.220001;
#SAMPLELENGTH:15.000000;
#SELECTABLE:YES;
#BPMS:0.000=97.510,
37.000=195.020,
101.000=97.510,
121.000=195.020,
185.000=97.505,
201.000=195.020;
#STOPS:;
#DELAYS:;
#WARPS:;
#TIMESIGNATURES:0.000=4=4;
#TICKCOUNTS:0.000=4;
#COMBOS:0.000=1;
#SPEEDS:0.000=1.000=0.000=0;
#SCROLLS:0.000=1.000;
#FAKES:;
#LABELS:0.000=Song Start;
#BGCHANGES:1.000=MV.avi=1.000=0=0=1=====,
99999=-nosongbg-=1.000=0=0=0 // don't automatically add -songbackground-
;
#KEYSOUNDS:;
#ATTACKS:
;

//---------------dance-single - ----------------
#NOTEDATA:;
#CHARTNAME:;
#STEPSTYPE:dance-single;
#DESCRIPTION:;
#CHARTSTYLE:;
#DIFFICULTY:Challenge;
#METER:14;
#RADARVALUES:1.152025,1.476493,1.751610,0.812341,0.905421,953.000000,746.000000,207.000000,96.000000,0.000000,18.000000,0.000000,0.000000,0.000000,1.152025,1.476493,1.751610,0.812341,0.905421,953.000000,746.000000,207.000000,96.000000,0.000000,18.000000,0.000000,0.000000,0.000000;
#CREDIT:;
#NOTES:
// measure 0
0000
0000
0000
0000
1000
0100
0020
0130
0002
0023
0130
2000
3100
0020
0230
0301
,  // measure 1
0200
0320
1030
0002
0013
2000
3200
2300
3010
0200
0301
0020
0130
2000
3020
0130
,  // measure 2
0002
0023
0230
2300
3011
0100
1000
0010
1100
0010
1001
0100
0010
1000
0101
0010
,  // measure 3
1100
0000
0010
0000
1001
0000
0100
0000
0011
0000
1000
0000
0100
0000
0010
0000
1001
0000
0010
0000
0100
0000
1010
0000
0001
0000
0110
0000
1000
0000
0001
0010
,  // measure 4
0100
0000
0010
0100
1000
0000
0100
0010
2001
0000
0000
0000
0000
0000
0010
0000
0101
0000
0000
0000
0010
0000
0000
0000
3200
0000
0001
0000
1010
0000
0000
0000
,  // measure 5
0011
0000
1000
0000
0312
0000
0000
0100
1010
0000
0100
0000
0023
1000
0101
0000
,  // measure 6
1001
0000
0100
0000
2031
0000
0000
0010
0101
0000
0010
0000
3200
0001
1010
0000
,  // measure 7
0011
0000
1000
0000
0312
0000
0000
0100
1010
0000
0100
0000
0023
1000
0101
0000
,  // measure 8
1002
0000
0000
0000
0100
0000
0000
0000
2133
0000
0000
0000
0000
0000
0000
0000
0000
0000
0000
0000
0000
0000
0000
0000
0020
0000
0030
0000
0100
0001
0100
0001
,  // measure 9
0000
0000
0000
0000
3010
0100
0010
0100
0010
0000
0000
0000
1001
0000
0000
0000
1010
0000
0000
0000
0100
0000
0000
0000
1001
0000
0000
0000
0110
0000
0000
0000
,  // measure 10
0001
0000
1100
0000
0010
0000
0101
0000
1100
0000
1001
0000
0010
0000
0000
0100
,  // measure 11
0000
0000
1000
0000
0011
0000
1100
0000
0001
0010
0100
0000
1000
0000
0001
0000
,  // measure 12
1000
0000
0001
0000
1000
0000
0001
0010
0100
1000
0100
0010
0001
0000
0100
0010
,  // measure 13
1000
0100
1010
1010
0101
0010
1100
0011
,  // measure 14
1000
0000
0101
0000
0010
0000
1100
0000
0011
0000
1010
0000
0100
0000
1000
0001
,  // measure 15
1000
0000
0110
0000
0001
0000
1010
0000
0101
0000
1010
0000
0001
0010
0100
1000
,  // measure 16
0011
0000
1100
0000
0011
0000
1000
0100
0010
0001
0010
0100
1000
0001
0010
0100
,  // measure 17
1000
0100
0010
0001
1100
0000
1100
0000
0011
0000
0100
0000
0011
0000
1100
0000
,  // measure 18
0001
0000
1010
0000
0100
0000
1010
0000
0011
0000
0101
0000
1000
0000
0000
0100
,  // measure 19
0000
0010
0101
0101
1010
0110
1000
0001
,  // measure 20
1000
0000
0001
0000
1000
0000
0100
0010
0001
1000
0100
0000
0010
0000
0100
0001
,  // measure 21
1000
0110
1001
1001
0110
1000
0011
1100
,  // measure 22
0010
0000
1001
0000
0010
0000
1100
0000
0011
0000
1001
0000
0100
0000
0010
0001
,  // measure 23
0010
0000
1001
0000
0100
0000
0011
0000
1100
0000
0011
0000
1000
0100
0010
0001
,  // measure 24
1000
0000
0100
0000
0001
0000
1000
0100
0010
0001
0010
0100
1000
0001
0010
0100
,  // measure 25
1000
0001
1000
0002
0000
0000
0000
0000
0000
0000
0000
0000
0000
0000
0000
0000
,  // measure 26
0000
0000
0003
0000
0120
0030
0000
0120
0030
1000
0001
1000
0000
0100
0010
0000
,  // measure 27
1001
0000
0000
0000
1100
0000
0000
0000
0011
0000
1000
0100
1000
0000
0011
0000
0000
0000
0100
0000
1000
0000
0100
0000
0000
0000
0001
0000
0010
0000
0000
0000
,  // measure 28
1000
0000
0010
0000
0100
0000
0001
0000
1020
0000
0030
0000
0000
0000
1010
0100
0001
0000
0100
0000
0001
0000
0100
0000
0000
0000
0010
0000
1000
0000
0000
0000
,  // measure 29
0001
0000
0100
0000
0010
0000
1000
0000
0101
0010
0100
0000
0000
0000
0101
0000
0000
0000
1000
0000
0001
0000
1000
0000
0000
0000
0010
0000
0100
0000
0001
0000
,  // measure 30
1000
0010
0100
1000
0202
0000
0303
0000
1010
0000
0202
0000
0303
0000
0110
0000
,  // measure 31
0001
1010
0000
0011
0100
1001
0110
0110
,  // measure 32
1001
0100
0022
0033
1100
0022
0033
0110
,  // measure 33
1000
0000
0101
0000
0000
0000
1000
0100
0011
0000
1100
0000
0011
0000
0011
0000
,  // measure 34
1100
0011
2200
3300
0011
2200
3300
0011
,  // measure 35
0100
1001
0000
0011
0011
1100
0011
0011
,  // measure 36
1100
1001
0110
1100
0011
0011
1100
0011
,  // measure 37
0011
0000
1100
0000
0001
0010
1100
0000
0011
0000
0011
0000
1100
0000
0001
0010
,  // measure 38
1000
0001
1000
0001
0200
0000
0010
0000
0001
0000
0010
0000
1000
0000
0010
0000
,  // measure 39
0001
1000
0010
1000
0001
0010
1000
0010
,  // measure 40
0001
1000
0320
0100
1000
0100
0001
0100
,  // measure 41
1000
0001
0100
1000
0100
0001
1000
0100
,  // measure 42
0001
0100
2030
0100
0001
0010
0100
0010
,  // measure 43
0001
0100
0001
0010
0100
0001
0010
0001
,  // measure 44
0100
0010
3002
0100
0010
1000
0100
1000
,  // measure 45
0010
0000
0100
0000
0023
0000
1000
0000
0001
0000
0100
0000
1030
0001
1000
0001
,  // measure 46
2000
0000
3000
0000
0101
0010
0100
1001
0000
0010
0000
1100
0000
0100
1010
0001
,  // measure 47
0000
1000
0010
1100
0011
1000
0100
0011
0000
0100
0001
1010
0000
0100
0010
1001
,  // measure 48
0000
0001
0010
1100
1001
0100
1010
0101
0000
1010
0000
0110
0000
0011
0000
1100
,  // measure 49
0000
0001
1010
0101
1100
0110
0011
1100
0000
0101
0010
0001
0010
1000
0100
0010
,  // measure 50
0001
0010
0100
1000
0100
0010
0001
0010
1100
0000
0000
0000
1100
0000
0000
0000
0011
0000
0000
0000
1100
0000
0000
0000
0000
0000
0000
0000
0011
0000
0000
0000
,  // measure 51
0100
0000
1000
0001
1000
0000
0110
0000
1001
0000
0110
0000
0110
0000
1001
0000
,  // measure 52
0010
0100
1000
0011
1100
0011
0011
1100
,  // measure 53
0011
0000
0011
0000
1000
0000
0100
0010
0001
0000
0010
0000
1100
0010
0001
1000
,  // measure 54
0100
0010
0001
0100
0010
0000
1100
0000
1001
0000
0110
0000
0000
0000
0011
0000
,  // measure 55
0100
1001
0010
1100
0011
1100
1100
0011
,  // measure 56
0100
0000
1000
0000
0001
0010
0100
1000
0100
0010
0100
0010
0001
1000
0100
0010
,  // measure 57
0001
0010
0100
1000
0100
0010
0001
0100
0010
1000
0100
0010
0001
0100
0010
1000
,  // measure 58
0001
0010
0100
1000
0011
0000
0011
0000
1100
0000
0011
0000
0000
0000
1001
0000
,  // measure 59
0100
0000
0010
1000
0001
0000
0110
0000
0101
0000
1010
0000
1001
0000
0110
0000
,  // measure 60
0001
0010
0100
1000
0010
0100
1000
0100
0010
0001
0100
0010
0001
0010
0100
1000
,  // measure 61
0100
0010
0001
0010
1100
0000
1100
0000
0000
0000
0011
0000
0000
0000
0110
0000
,  // measure 62
0000
0000
1100
0000
0001
0010
0100
1000
0011
0000
0100
0000
1000
0000
0101
0000
,  // measure 63
0010
0000
1000
0000
0000
0000
0001
0010
1100
0000
0001
0000
1100
0000
0010
0000
,  // measure 64
1100
0000
0001
0000
1000
0100
0010
0001
0010
0100
1000
0100
0010
0001
1000
0100
,  // measure 65
0010
0001
0010
0100
1000
0010
0100
0001
0010
0100
1000
0100
1000
0010
0001
0010
,  // measure 66
0001
0010
0100
1000
0001
0000
0020
0000
0230
0000
0310
0000
2000
0000
3200
0000
,  // measure 67
0310
0000
0002
0000
1003
0000
0200
0010
2300
0000
3001
0000
0020
0000
0032
0000
,  // measure 68
0103
0000
2000
0000
3100
0000
0020
0001
0230
0000
1300
0000
0002
0000
0023
0000
,  // measure 69
0130
0000
2000
0000
3001
0000
0200
0000
0320
0000
0031
0100
2000
0000
3020
0000
,  // measure 70
0230
0000
0302
1000
0103
0000
0020
0000
0230
0000
0301
0000
2000
0000
3002
0000
,  // measure 71
0013
0000
0200
0000
1300
0000
0020
0001
2030
0000
3100
0000
0002
0000
0203
0000
,  // measure 72
0310
0000
2000
0000
3001
0000
0200
0000
0320
1000
0031
0000
2000
0000
3020
0000
,  // measure 73
0230
1000
0302
0000
1003
0000
0020
0001
0230
0000
1300
0000
0002
0010
0203
1000
,  // measure 74
0320
0001
2030
0100
3000
0000
0000
0000
0000
0000
0000
0000
0000
0000
0000
0000
;

//---------------dance-single - Copied from----------------
#NOTEDATA:;
#CHARTNAME:Copied from;
#STEPSTYPE:dance-single;
#DESCRIPTION:Copied from;
#CHARTSTYLE:;
#DIFFICULTY:Hard;
#METER:12;
#RADARVALUES:0.799044,1.036686,0.110004,0.744646,0.715029,661.000000,648.000000,13.000000,88.000000,0.000000,0.000000,0.000000,0.000000,0.000000,0.799044,1.036686,0.110004,0.744646,0.715029,661.000000,648.000000,13.000000,88.000000,0.000000,0.000000,0.000000,0.000000,0.000000;
#CREDIT:Copied from;
#NOTES:
0000
0000
0000
0000
1000
0100
0010
0001
0100
0010
1000
0010
0100
0001
0010
1000
,
0100
0010
0100
0001
1000
0100
0010
1000
0010
0001
0100
0010
1000
0100
1000
0001
,
0010
0100
1000
0100
0010
0100
0001
1000
0001
0010
0100
0010
1000
0100
0010
0001
,
0100
0010
1000
0100
0010
0100
0001
0010
1000
0100
0010
0100
1000
0001
0010
0100
,
0010
0001
1000
0010
0200
0000
0000
0001
0000
0000
0010
0000
0302
1000
0000
0000
,
0010
0000
0100
0000
2003
0000
0000
0001
0000
0000
0100
0000
3020
0100
0000
0000
,
1000
0000
0100
0000
0230
0000
0000
0010
0000
0000
1000
0000
0302
0010
0000
0000
,
1000
0000
0100
0000
2003
0000
0000
0001
0000
0000
0100
0000
3020
0100
0000
0000
,
0001
0000
0100
0000
2030
0000
0000
0000
0000
0000
0000
0000
0020
0030
0000
0000
,
0000
0000
0000
0000
3010
0100
0010
0100
0010
0000
0000
0000
1000
0000
0000
0000
0001
0000
0000
0000
0100
0000
0000
0000
0010
0000
0000
0000
1000
0000
0000
0000
,
0100
0000
0010
0000
0001
0000
0100
0000
0010
0000
1000
0000
0100
0000
0000
0010
,
0000
0001
0010
0100
1000
0001
0100
0010
,
0100
0000
0010
0000
0100
0000
0001
1000
0001
0000
0100
0000
0001
0000
0100
0001
,
1000
0010
0100
0010
0100
0001
1000
0010
,
0100
0000
0010
0000
1000
0000
0001
0000
0010
0000
1000
0000
0010
0000
0100
0010
,
0100
0000
0001
0000
0010
0000
0100
0000
1000
0000
0010
0000
0100
0001
0100
0000
,
0010
1000
0010
0000
0001
0000
0100
0000
0010
0000
1000
0010
0100
0000
0001
1000
,
0001
1000
0001
1000
0002
0000
0103
0000
0001
0000
2000
0000
3010
0000
0100
0000
,
0020
1030
0100
0002
0103
0010
2000
3010
,
0200
0301
0020
0130
1000
0002
0103
0010
,
2000
0000
3001
0000
0010
0000
1000
0001
1000
0000
0100
0000
0001
0000
1000
0010
,
1000
0001
0002
0013
0100
2000
3010
0001
,
0200
0000
1300
0000
0001
0000
0020
0000
0130
0000
1000
0000
0002
0000
1003
0010
,
1000
0001
0200
0310
1000
0001
1000
0010
,
1000
0010
0100
0000
0001
0000
1000
0000
0001
0000
0100
0001
0100
0010
0100
0001
,
1000
0001
1000
0002
0000
0000
0000
0000
0000
0000
0000
0000
0000
0000
0000
0000
,
0000
0000
0000
0000
0203
0300
0000
0200
0300
0001
1000
0001
0000
1000
0001
0000
,
1010
0000
1001
0000
0020
0030
0000
0020
0030
0100
1000
0010
0000
0001
1000
0000
,
1000
0001
0100
0001
2000
3000
0000
2000
3000
0001
0010
0001
0000
1000
0010
0000
,
0100
0001
1000
0010
0200
0300
0000
0200
0300
0010
1000
0010
0000
0001
0010
0100
,
1000
0001
1000
0001
0210
0000
0300
0000
0000
0000
0210
0000
0300
0000
1000
0000
,
0001
1000
0000
0100
0010
0001
1000
0100
,
0010
0001
2010
3000
0000
2010
3000
0001
,
0010
0000
0001
0000
0000
0000
1000
0010
0100
0000
0001
0000
1000
0000
0010
0000
,
0100
0010
2001
3000
0000
2001
3000
0010
,
0100
0010
0000
0001
1000
0010
0100
0001
,
0010
0100
1000
0001
1000
1000
0001
1000
,
1000
0000
0001
0000
0100
0001
0100
0000
1000
0000
1000
0000
0001
0000
0010
0100
,
0001
1000
0001
1000
0002
0000
0000
0000
0100
0000
1000
0000
0000
0000
1000
0000
,
0100
0000
0010
0000
0100
1000
0000
1000
,
0100
1000
0023
0000
0100
1000
0000
1000
,
0100
0000
0001
0000
0100
1000
0000
1000
,
0100
1000
0230
0000
0010
0001
0000
0001
,
0010
0000
1000
0000
0001
0010
0000
0010
,
0001
0010
0302
0000
0100
1000
0000
1000
,
0100
0000
0000
0000
2003
0000
0000
0000
0100
0000
0000
0000
3010
1000
0010
0000
,
0001
0000
0000
0000
1000
0010
0100
0001
0000
0010
0000
0100
0000
1000
0001
1000
,
0000
0100
0010
0100
0001
0100
0001
0010
0000
0001
1000
0100
0000
0001
0010
0100
,
0000
1000
0010
0100
0001
0010
0001
1000
0000
0100
0000
0001
0000
1000
0000
0001
,
0000
1000
0100
1000
0100
0010
0001
0100
0000
1000
0010
0100
0010
1000
0010
0100
,
0001
0100
0010
1000
0010
0000
0100
0000
0010
0000
1000
0000
0000
0000
0001
0000
,
0010
0000
0100
0010
0100
0000
1000
0000
0100
0000
0010
0000
0001
0000
0100
0000
,
0010
1000
0001
0100
0001
1000
0010
0100
,
0001
0000
0100
0000
0010
0000
0100
0001
1000
0000
0010
0000
0100
0001
0100
0010
,
0100
0001
0100
0000
0010
0000
1000
0000
0010
0000
0100
0000
0000
0000
1000
0000
,
0001
0010
0100
0010
0001
1000
0010
1000
,
0001
0000
0100
0000
0010
1000
0010
0100
0001
0010
0001
0010
0001
0100
0010
1000
,
0010
0100
0001
0100
0010
0100
0001
1000
0010
0100
0001
1000
0001
0100
0010
1000
,
0100
1000
0010
0100
0001
0000
0010
0000
0100
0000
0001
0000
0000
0000
1000
0000
,
0001
0000
0010
0100
0010
0000
0001
0000
0100
0000
1000
0000
0001
0000
1000
0010
,
0100
0010
1000
0001
0100
0010
1000
0100
1000
0100
0010
0001
0100
0010
1000
0010
,
0100
0001
0100
0000
0101
0000
0101
0000
0000
0000
0011
0000
0000
0000
0110
0000
,
0000
1100
0100
1000
0010
0100
0001
0100
,
0010
0000
1000
0000
0000
0000
0001
0100
0001
0000
1000
0000
0001
0000
1000
0000
,
0001
0000
1000
0000
0001
0000
0010
1000
0010
0000
0100
0000
0010
1000
0010
0100
,
0001
1000
0010
0100
0010
1000
0100
1000
0010
0100
0001
0010
0001
0100
0010
0100
,
0001
1000
0010
0100
0000
0000
0020
0000
0032
0000
0003
0000
0200
0000
0302
0000
,
0003
2000
3000
0002
0203
0300
0020
2030
,
3000
0200
0300
0020
0032
0003
2000
3020
,
0030
0200
0300
0002
0023
0030
0200
0320
,
0032
2003
3000
0020
0230
0300
0020
2030
,
3000
0002
0003
0020
0230
0300
2000
3002
,
0003
0200
0300
0002
0023
0030
0200
0320
,
0032
2003
3000
0020
0230
0300
2000
3002
,
0023
0230
0300
0000
0000
0000
0000
0000
;

//---------------dance-single - ----------------
#NOTEDATA:;
#CHARTNAME:;
#STEPSTYPE:dance-single;
#DESCRIPTION:;
#CHARTSTYLE:;
#DIFFICULTY:Medium;
#METER:8;
#RADARVALUES:0.491998,0.564513,0.093081,0.152314,0.016924,407.000000,396.000000,11.000000,18.000000,0.000000,0.000000,0.000000,0.000000,0.000000,0.491998,0.564513,0.093081,0.152314,0.016924,407.000000,396.000000,11.000000,18.000000,0.000000,0.000000,0.000000,0.000000,0.000000;
#CREDIT:;
#NOTES:
0000
0000
1000
0100
0010
0000
1000
0100
,
0010
0000
0001
0010
0100
0000
1000
0001
,
1000
0000
0100
0010
0100
0001
0100
0010
,
1000
0100
0010
0001
1000
0010
0100
0001
,
1000
0010
1001
0000
0010
0100
0001
1000
,
0100
0010
0100
0000
0010
0100
0001
1000
,
0010
0100
0010
0000
1000
0100
0010
1000
,
0010
0100
0001
0000
0010
1000
0010
0100
,
0001
0100
0020
0000
0000
0000
1000
0000
,
0000
1030
0100
0010
,
0001
0010
0100
1000
,
0001
0000
0010
0000
0100
0000
0001
1000
,
0001
1000
0001
0000
0100
0000
0001
0000
,
1000
0010
0100
0000
0010
0000
0001
0000
,
0010
1000
0001
0100
,
0010
1000
0001
0100
,
0010
1001
0110
1001
,
0010
1000
0001
0000
1000
0000
0100
0000
,
0010
0001
0010
0100
,
0001
0000
1000
0000
0010
0000
0100
0001
,
0100
0001
0100
0000
1000
0000
0010
0000
,
0100
0010
1000
0000
0010
0000
0100
0000
,
0001
0100
0010
1000
,
0001
0100
0010
1000
,
0001
1010
0101
1010
,
0100
0001
1000
0000
0000
0000
0000
0000
,
0000
0000
0000
0000
1000
0000
0000
1000
0000
0000
0100
0000
0010
0000
0100
0000
,
0001
0000
1000
0000
0010
0000
0000
0010
0000
0000
0100
0000
0001
0000
0100
0000
,
0010
0000
1000
0000
0010
0000
0000
0010
0000
0000
0100
0000
0001
0000
0100
0000
,
0010
0000
1000
0000
0100
0000
0000
0100
0000
0000
0010
0000
0100
0000
1000
0000
,
0001
0010
1000
0000
0100
0010
0100
0000
,
1000
0000
0001
0000
0100
0000
0010
1000
,
0100
0001
1000
0100
,
0010
1000
1000
0001
,
0010
1000
0100
0000
0100
0010
1000
0000
,
0010
0000
1000
0001
0001
0100
0001
0001
,
0100
0010
0010
1000
0010
0010
1000
0010
,
0010
1000
0001
0001
0100
0010
0010
1000
,
0001
0100
0010
0000
0001
0000
1000
0000
,
0100
0001
1000
0010
,
0100
0001
0100
0000
1000
0000
0010
0000
,
0001
1000
0010
0100
,
0010
1000
0010
0000
0010
0000
1000
0000
,
0100
0010
0001
1000
,
0010
1000
0001
0000
0100
0000
1000
0000
,
0010
0100
0001
2000
,
3020
0030
1001
0010
0100
0010
0100
0001
,
1000
0001
1000
0010
0100
0010
0001
1000
,
0100
0010
0100
0001
0100
0010
1000
0001
,
0100
0010
0001
1000
0100
0010
0100
0010
,
0001
1000
0010
1000
0010
0100
0000
0010
,
1000
0001
1000
0000
0100
0000
0010
0000
,
0100
0010
1000
0001
,
0100
0010
1000
0001
,
0100
0000
1000
0001
0100
0010
0000
0001
,
1000
0010
1000
0001
0100
0010
0100
0001
,
1000
0001
0200
0000
0320
0000
2030
0000
,
3002
0000
0203
0000
0320
0000
0130
0001
,
1000
0010
0100
0001
0010
0001
0000
0010
,
1000
0001
1000
0000
0010
0000
1000
0000
,
0020
0230
0302
2003
,
3020
0000
0130
0100
0000
0001
0000
0010
,
0000
0100
0000
0000
0001
1000
0001
0100
,
0001
1000
0000
0000
0001
0100
0010
1000
,
0010
0100
0002
0000
0203
0000
0320
0000
,
2030
0000
3001
0100
0010
0100
0001
0100
,
0010
0100
0001
0000
1000
0000
0100
0000
,
0010
1000
0001
0010
,
0100
1001
0100
0010
,
0100
0001
1000
0010
,
0100
1001
0010
0100
,
0001
1000
0010
0100
,
0001
0011
0010
0100
,
0001
0000
1000
0000
0010
0000
0100
0001
,
0100
0010
0000
0000
0000
0000
0000
0000
;

//---------------dance-single - ----------------
#NOTEDATA:;
#CHARTNAME:;
#STEPSTYPE:dance-single;
#DESCRIPTION:;
#CHARTSTYLE:;
#DIFFICULTY:Easy;
#METER:5;
#RADARVALUES:0.253857,0.312032,0.016924,0.076157,0.000000,210.000000,208.000000,2.000000,9.000000,0.000000,0.000000,0.000000,0.000000,0.000000,0.253857,0.312032,0.016924,0.076157,0.000000,210.000000,208.000000,2.000000,9.000000,0.000000,0.000000,0.000000,0.000000,0.000000;
#CREDIT:;
#NOTES:
0000
1000
0100
0010
,
0100
0010
1000
0001
,
0100
0010
0100
0010
,
1000
0001
0100
0010
,
0100
1001
0010
0100
,
0010
1000
0100
0010
,
1000
0001
0100
0010
,
1000
0010
0100
0001
,
0100
1002
0000
0000
,
0000
0103
0000
1000
,
0000
0010
0100
0001
,
0000
1000
0000
0010
,
0000
0100
0001
0100
,
0010
1000
0000
0010
,
0000
0100
0001
1000
,
0000
0100
0000
0010
,
0000
1000
0001
0100
,
0010
1000
0000
0001
,
0000
0100
0010
1000
,
0000
0001
0000
0100
,
0000
0010
1000
0001
,
0010
0100
0000
0010
,
0000
1000
0001
0100
,
0000
0010
0000
1000
,
0000
0001
0100
0010
,
1000
0001
0000
0000
,
0000
1000
1000
0100
,
0001
0010
0010
0100
,
1000
0001
0001
0100
,
0001
0010
0010
0100
,
0001
0010
0000
1000
,
0000
0010
0100
0001
,
0000
1000
0000
0010
,
0000
1000
0001
1000
,
0001
0010
0000
0100
,
0000
0001
0100
0001
,
0100
1000
0010
1000
,
0010
0001
0100
0010
,
0100
2000
0000
0000
,
0000
3020
0000
0000
,
0000
0230
0000
0000
,
0000
0320
0000
0000
,
0000
0032
0000
0000
,
0000
0023
0000
0000
,
0000
0230
0000
0000
,
0000
0320
0000
0030
,
0000
1000
0001
0010
,
0100
1000
0100
0010
,
1000
0010
0001
0100
,
1000
0010
0100
0001
,
1000
0010
0000
0100
,
0000
0001
1000
0010
,
0000
0100
0000
0001
,
0000
1000
0001
1000
,
0010
0100
0000
0010
,
0000
1000
0001
0100
,
0000
0010
0100
1000
,
0010
0001
0100
0001
,
0100
1000
0000
0010
,
0000
0100
0001
0100
,
0000
0010
0100
1000
,
0010
0001
0000
0000
,
0000
1000
0010
1000
,
0100
0000
0001
0100
,
0001
0010
1000
0001
,
0010
0100
0010
1000
,
0001
0100
0000
0100
,
0000
0010
0000
0010
,
0000
1000
0000
1000
,
0000
0001
0000
0001
,
0000
0100
0000
0100
,
0000
0010
0000
0010
,
0000
1000
0000
1000
,
0000
0010
0000
0100
;

//---------------dance-single - ----------------
#NOTEDATA:;
#CHARTNAME:;
#STEPSTYPE:dance-single;
#DESCRIPTION:;
#CHARTSTYLE:;
#DIFFICULTY:Beginner;
#METER:2;
#RADARVALUES:0.117258,0.187219,0.050771,0.000000,0.000000,97.000000,91.000000,6.000000,0.000000,0.000000,0.000000,0.000000,0.000000,0.000000,0.117258,0.187219,0.050771,0.000000,0.000000,97.000000,91.000000,6.000000,0.000000,0.000000,0.000000,0.000000,0.000000,0.000000;
#CREDIT:;
#NOTES:
0000
1000
0000
0100
,
0000
0010
0000
0001
,
0000
0100
0000
1000
,
0000
0010
0000
0100
,
0000
1001
0000
0010
,
0000
0100
0000
0001
,
0000
1000
0000
0100
,
0000
0010
0000
0001
,
0000
0100
0000
0000
,
0000
1000
0000
0000
,
0000
0001
0000
0000
,
0000
1000
0000
0000
,
0000
0100
0000
0000
,
0000
0010
0000
0000
,
0000
0001
0000
0000
,
0000
1000
0000
0000
,
0000
0100
0000
0000
,
0000
0010
0000
0000
,
0000
0001
0000
0000
,
0000
1000
0000
0000
,
0000
0100
0000
0000
,
0000
0010
0000
0000
,
0000
1000
0000
0000
,
0000
0001
0000
0000
,
0000
0100
0000
0000
,
0000
0000
0000
0000
,
0000
1001
0000
0000
,
0000
0110
0000
0000
,
0000
1100
0000
0000
,
0000
0011
0000
0000
,
0000
0110
0000
1000
,
0000
0000
0000
0010
,
0000
0001
0000
0100
,
0000
0000
0000
0010
,
0000
1000
0000
0001
,
0000
0000
0000
0100
,
0000
0010
0000
0100
,
0000
0001
0000
1000
,
0000
0100
0000
0000
,
0000
0100
0000
0000
,
0000
0010
0000
0000
,
0000
0010
0000
0000
,
0000
1000
0000
0000
,
0000
1000
0000
0000
,
0000
0001
0000
0000
,
0000
0001
0000
0000
,
0000
0100
0000
0010
,
0000
1000
0000
0001
,
0000
0100
0000
0010
,
0000
1000
0000
0100
,
0000
0001
0000
0000
,
0000
0100
0000
0000
,
0000
0010
0000
0000
,
0000
1000
0000
0000
,
0000
0001
0000
0000
,
0000
0100
0000
0000
,
0000
0010
0000
0000
,
0000
1000
0000
0000
,
0000
0010
0000
0000
,
0000
0100
0000
0000
,
0000
0001
0000
0000
,
0000
1000
0000
0000
,
0000
0010
0000
0000
,
0000
0100
0000
0000
,
0000
0010
0000
0000
,
0000
0001
0000
0000
,
0000
0100
0000
0000
,
0000
1000
0000
0000
,
0000
0001
0000
0000
,
0000
0100
0000
0000
,
0000
0010
0000
0000
,
0000
1000
0000
0000
,
0000
0100
0000
0000
,
0000
0010
0000
0010
;
