#TITLE:-Ad Astra;
#SUBTITLE:;
#ARTIST:Fractal Dreamers;
#TITLETRANSLIT:;
#SUBTITLETRANSLIT:;
#ARTISTTRANSLIT:;
#GENRE:;
#CREDIT:;
#BANNER:Ad Astra.png;
#BACKGROUND:Ad Astra-bg.png;
#LYRICSPATH:;
#CDTITLE:;
#MUSIC:Ad Astra.ogg;
#OFFSET:-0.214000;
#SAMPLESTART:130.485001;
#SAMPLELENGTH:15.000000;
#SELECTABLE:YES;
#DISPLAYBPM:105.000000:210.000000;
#BPMS:0.000000=105.000000
,42.000000=210.000000
,102.000000=105.000000
,104.000000=210.000000
,352.000000=105.000000
,368.000000=210.000000
;
#STOPS:
;
#BGCHANGES:;
#KEYSOUNDS:;
#ATTACKS:;

//---------------dance-single - ----------------
#NOTES:
     dance-single:
     :
     Challenge:
     19:
     1.239538,1.876365,2.177720,2.098117,0.480463,1526.000000,1130.000000,383.000000,369.000000,0.000000,109.000000,1.239538,1.876365,2.177720,2.098117,0.480463,1526.000000,1130.000000,383.000000,369.000000,0.000000,109.000000:
0020
0000
1000
0100
1000
0000
0001
0100
0001
0000
0100
1000
0100
0000
0001
0100
,
0032
0000
1000
0010
1000
0000
0100
0010
0203
0000
0001
0010
0001
0000
1000
0000
,
2300
0000
0010
0100
0001
0000
0100
0010
0001
0000
0010
0100
0001
0000
0010
0001
,
3200
0000
0010
1000
0010
0000
0001
1000
0320
0000
0100
0001
0100
0000
1000
0001
,
1230
0000
0010
1000
0010
0000
0001
1000
0001
0000
1000
0010
1000
0000
0310
1000
,
0002
0000
0100
0010
1000
0000
0013
1000
0200
0000
0010
0001
0010
0000
1000
0000
,
0320
0000
1000
0001
1000
0000
0100
0001
0100
0000
1000
0001
1000
0000
0001
1000
,
0032
0000
0100
0010
0100
0000
1003
0100
0020
0000
1000
0001
1000
0000
0130
0000
,
1001
0100
0010
1000
0001
0100
0010
1000
0001
0100
0010
1000
0021
0030
0200
0300
,
0002
0003
2000
3000
0120
0030
0000
0002
0203
0300
0020
0030
2001
3000
0200
0300
,
0020
0030
0002
0003
0120
0030
0000
2000
3021
0030
0200
0300
1001
0100
0020
0030
,
1200
0300
0020
0030
0001
0010
0200
0300
1002
0003
0020
0030
1100
0001
0020
0030
,
0102
0003
2000
3000
0002
0003
1000
0000
0210
0300
0002
0003
1010
0001
0200
0300
,
2001
3000
0200
0300
0011
0100
2000
3000
0120
0030
0002
0003
1100
0010
0002
0003
,
2010
3000
0200
0000
0000
0000
0320
0000
1130
0000
0011
0000
1100
0000
0011
0000
,
1100
0011
1100
0011
1100
0011
1100
0011
,
1100
0000
0011
0000
1100
0000
0011
0000
1100
0011
1100
0011
1100
0011
1100
0011
,
1100
0011
1100
0011
1100
0011
1100
0011
1200
0000
0010
0000
0001
0000
0020
0000
,
0000
0031
1000
0001
2311
3020
0230
0302
,
0023
0230
2300
3200
0320
0032
2003
3002
,
0203
0320
0032
0023
2131
3002
0213
0302
,
2003
3020
0230
2300
3200
0320
0032
0203
,
0320
0230
2300
3002
1213
0320
0032
0023
,
0230
2300
3200
0320
0032
0203
0320
2030
,
3200
2300
3200
0320
1132
0203
0321
2030
,
3020
0000
0230
0000
2300
0000
3200
0000
0311
0011
0011
0011
0011
0100
1001
0100
,
0011
0100
0011
1000
0101
0010
1001
0100
,
1010
0001
0110
1000
0011
1000
0101
1010
,
0101
0010
1001
0010
1100
0010
0101
1000
,
0110
0001
1100
0010
1001
0110
1001
0110
,
1001
0100
0011
1000
0110
1000
0101
0010
,
1100
0001
0110
1000
0101
1000
0110
1001
,
0110
0001
1100
0010
1001
0010
1100
0001
,
0110
1000
0011
0100
0011
1000
0101
1010
,
0101
1000
0011
0100
1001
0100
0011
1000
,
0110
0001
0110
1000
0011
1100
0011
1100
,
0212
0003
2000
3000
0020
0030
0002
0003
0020
0030
2000
0000
3020
0030
2000
3000
,
0020
0030
0002
0003
0020
0030
2000
0000
3002
0003
0020
0030
2000
3000
0020
0030
,
1301
0010
0100
1000
0001
0010
0100
1000
,
0001
0010
0100
1000
0010
0100
0001
0100
,
1000
0001
0100
0010
1000
0001
0100
0010
,
1000
0001
0100
0010
0001
0010
0100
1000
,
0001
0010
1000
0100
0001
0010
1000
0100
,
0001
0010
1000
0100
0010
0001
0010
0100
,
1000
0010
0100
0001
0010
0100
0010
1000
,
0100
0010
0100
0001
0010
0100
0010
1000
,
0102
0000
1100
0023
,
2030
0000
0011
3200
,
0302
0000
0000
0023
1100
0000
2030
0000
,
3020
0000
1001
0230
,
1302
0000
0100
0023
1100
0000
0231
0000
,
2300
0000
0100
3020
0101
0000
1230
0000
,
0312
0000
0000
0010
0100
0000
0000
1000
0100
1000
0100
1000
0010
0000
0000
0000
,
1010
0000
0203
0000
,
1311
0010
0101
1000
0010
1100
0011
0100
,
1000
0011
1100
0010
0001
1100
0011
0100
,
1001
0000
0010
0000
1100
0000
0001
0000
0010
0000
1100
0000
0011
0000
1000
0100
,
1000
0011
1100
0010
0001
1100
0011
0100
,
1010
0001
1100
0010
0001
1100
0011
0100
,
1000
0011
1100
0010
0001
1100
0011
0100
,
1010
0001
1100
0001
0010
1100
0011
1000
,
0100
0011
1100
0001
0010
1100
0011
1000
,
0101
0010
1001
0100
0010
1001
0110
0001
,
1000
0110
1001
0100
0010
1100
0011
1000
,
0101
0000
0010
0000
1100
0000
0001
0000
0010
0000
1100
0000
0011
0000
1000
0100
,
1000
0011
1100
0010
0001
1100
0011
0100
,
1010
0001
1100
0001
0100
1010
0101
1000
,
0010
0101
1010
0100
0010
1001
0110
0001
,
1100
0010
0001
0100
0010
1000
0100
0010
0001
0010
0100
1000
0010
0100
0001
0000
,
1100
0010
0001
0000
0100
0000
0000
0000
0020
0000
0000
0000
1130
0000
1100
0000
,
0012
0003
0002
0003
2100
3000
0020
0030
0201
0300
0002
0003
2100
3000
0020
0000
,
1031
0000
0020
0030
1200
0300
0002
0003
0120
0030
0200
0300
2001
3000
0020
0000
,
0131
0000
0020
0030
2100
3000
0002
0003
0120
0030
0200
0300
2010
3000
0002
0000
,
0113
0000
0002
0003
2100
3000
0020
0000
1031
0000
0020
0030
0201
0300
2000
3000
,
0012
0003
0002
0003
2100
3000
2000
3000
0012
0003
0002
0003
2100
3000
2000
3000
,
0012
0003
0002
0003
2100
3000
0020
0030
1200
0300
0012
0003
2100
3000
2000
3000
,
0012
0003
0002
0003
2010
3000
2000
3000
0102
0003
0002
0003
2010
3000
2000
3000
,
0102
0003
0002
0003
2010
3000
2000
3000
0201
0000
0000
0000
1320
0000
0000
0000
,
0132
0003
2000
3000
0012
0003
0200
0300
1020
0030
2000
3000
0021
0030
0200
0000
,
1301
0000
0200
0300
0021
0030
2000
3000
0012
0003
0020
0030
2100
3000
0020
0000
,
0131
0000
0020
0030
1200
0300
0002
0003
1020
0030
2000
3000
0210
0300
0002
0000
,
1103
0000
0002
0003
2010
3000
0200
0000
1301
0000
0200
0300
1020
0030
0102
0003
,
1100
0011
1100
0011
1100
0011
1100
0011
,
1100
0011
1100
1100
0011
1100
1100
1100
,
0011
0011
1100
1100
0011
0011
1100
1100
,
0012
0003
0002
0003
0200
0300
0020
0030
2000
0000
0000
0000
3200
0000
0000
0000
,
0320
0000
0000
0000
,
0000
0000
0000
0000
,
1130
0000
0010
0000
1001
0000
0100
0010
0001
0000
1000
0000
0011
0000
0000
0000
,
1000
0000
0010
0000
0101
0000
1000
0010
0200
0000
0302
0000
0203
0000
0302
0000
,
0013
0000
0100
0000
1001
0000
0010
0100
0001
0000
0010
0000
1100
0000
0000
0000
,
1000
0001
1010
0100
2000
3002
2003
3002
,
1113
0100
1001
0010
0101
1000
0110
0001
,
1010
0100
1001
0010
1100
0010
0101
1000
,
0011
0100
1010
0001
1100
0010
1001
0100
,
0011
1000
0110
0001
1100
0010
1001
0100
,
0011
1100
0011
1100
0011
1100
0011
1100
,
0011
1100
0011
1100
0011
1100
0011
1100
,
0012
0000
0000
0000
,
0203
0320
2030
3210
,
0301
0010
0100
1000
0010
0100
0001
0010
0100
1000
0100
0010
0001
1000
0100
0010
,
0001
0100
0010
1000
0100
0010
0100
0001
0010
0100
1000
0010
0100
0001
1000
0010
,
0100
0010
0001
0100
0010
1000
0100
0001
0010
0100
1000
0001
0100
0010
1000
0010
,
0100
0001
0010
0100
1000
0001
0010
0100
1000
0010
0100
0001
1000
0001
0010
0100
,
1000
0001
0100
0010
0001
0100
0010
1000
0100
0001
0010
0100
1000
0100
0010
0001
,
1000
0100
0010
0001
0100
1000
0010
0100
0001
1000
0001
0100
0010
1000
0100
0010
,
0001
0100
0010
1000
0100
0001
0010
0100
1000
0010
0100
0001
0010
0100
1000
0100
,
0010
0001
1000
0010
0001
0100
1000
0010
0100
0001
0100
0010
1000
0100
0010
0001
,
0100
1000
0100
0010
0001
0100
0010
1000
0001
0100
0010
0100
1000
0010
0100
0001
,
1000
0100
0010
0001
0100
0010
1000
0001
0010
0100
1000
0010
0100
0001
0010
0100
,
1000
0001
0010
0100
1000
0100
0010
0001
1000
0010
0100
0001
1000
0100
0010
0001
,
1000
0001
0100
0010
1000
0001
0100
0010
1000
0100
0010
0001
1100
0000
0011
0000
,
2101
0000
0000
0000
0000
0000
0000
0000
0101
0000
0000
0110
3000
0000
0011
0000
,
1102
0000
1123
0000
,
1231
0000
0000
0000
,
0311
0000
0011
0000
0011
0000
0011
1100
,
0021
0030
0200
0000
2301
3000
0200
0000
1320
0030
0002
0000
0123
0030
2000
0000
,
3201
0300
2000
0000
3021
0030
0200
0000
1320
0030
0200
0000
2301
3000
0200
0000
,
0312
0003
2000
0000
3012
0003
2000
0000
3012
0003
2000
0000
3102
0003
0020
0000
,
1230
0300
0002
0000
1203
0300
0002
0000
1203
0300
0002
0000
2013
3000
2000
0000
,
3120
0030
0002
0000
0123
0030
0002
0000
0123
0030
0002
0000
1023
0030
0200
0000
,
0312
0003
2000
0000
3012
0003
2000
0000
3012
0003
2000
0000
3102
0003
0020
0000
,
1230
0300
0002
0000
1203
0300
0002
0000
1203
0300
0002
0000
2013
3000
2000
0000
,
3120
0030
0002
0000
0123
0030
0002
0000
0123
0030
0002
0000
2103
3000
0012
0000
,
2103
3000
0020
0000
0132
0003
0020
0000
1032
0003
0200
0000
0321
0030
2100
0000
,
3021
0030
0200
0000
2301
3000
0200
0000
2301
3000
0020
0000
1230
0300
0012
0000
,
1203
0300
0020
0000
2031
3000
0200
0000
0311
0000
0200
0000
1320
0030
0201
0000
,
2310
3000
0200
0000
1302
0003
0020
0000
0231
0300
2000
0000
3011
0000
0200
0000
,
1320
0000
0002
0000
2133
3000
0020
0000
0131
0000
0020
0000
1001
0000
0230
0000
,
0312
0000
2000
0000
3213
0300
0002
0000
1103
0000
0020
0000
1001
0000
0230
0000
,
0321
0030
2000
0000
3021
0030
1200
0000
0312
0000
0020
0000
2133
3000
0021
0000
,
1132
0000
0010
0000
0100
0010
0100
0010
2003
0000
0000
0000
0000
0000
0000
0000
,
3111
0000
0000
0000
;

//---------------dance-single - ----------------
#NOTES:
     dance-single:
     :
     Hard:
     16:
     0.776539,0.938182,0.307041,1.103075,0.144992,956.000000,902.000000,54.000000,194.000000,0.000000,0.000000,0.776539,0.938182,0.307041,1.103075,0.144992,956.000000,902.000000,54.000000,194.000000,0.000000,0.000000:
0000
0000
0000
0000
,
0000
0000
0000
0000
,
0000
0000
0000
0000
,
0000
0000
0000
0000
,
2010
0000
0000
0000
0000
0000
0000
3100
,
0002
0000
0000
0103
2000
0000
0000
3010
,
0200
0000
0000
0000
,
0302
0000
0000
0000
0000
0000
1003
0010
2000
0000
0000
0000
0000
0000
3010
0000
,
0110
0000
0000
0000
0000
0001
1001
0100
,
0001
0000
0100
0000
0110
0000
0000
1000
0010
0000
0100
0000
0101
0000
0010
0000
,
1000
0000
0010
0000
0110
0000
0000
1000
0010
0000
0100
0000
0001
0000
1000
0000
,
0001
0100
0001
1000
0001
0100
0010
1000
,
0100
0010
0002
0000
1003
0010
0100
0010
,
1000
0010
0100
0010
1000
0010
0100
0001
,
0010
0002
0000
1003
1001
0001
1000
0001
,
1000
0001
1000
0001
1000
0001
1000
0001
,
1000
0000
0001
0000
1000
0000
0001
0000
1000
0001
1000
0001
1000
0001
1000
0001
,
1000
0001
1000
0001
1000
0001
1000
0001
2000
0000
0000
0000
0000
0000
0000
0000
,
0000
0000
0000
0000
3001
0100
0010
1000
,
0010
1000
0001
1000
0010
0100
0002
0003
,
0001
0100
0010
1000
1001
1000
0001
0100
,
0010
1000
0001
0010
0001
1000
0010
0100
,
0001
0100
0010
1000
1001
1000
0010
1000
,
0010
0100
0010
0100
0001
1000
0100
1000
,
0010
0100
0001
0100
0101
0001
1000
0100
,
1000
0000
0010
0000
0100
0000
0010
0000
0100
0001
0100
0001
1000
0000
1010
0000
,
0101
0001
1000
0001
0100
0010
0100
0001
,
1000
0010
0100
0001
0010
0100
1000
0010
,
1000
0001
1000
0010
1000
0001
0100
0001
,
1000
0010
0100
0010
1000
0100
0010
0001
,
0100
0010
0100
0001
0100
0010
1000
0001
,
0100
0001
1000
0010
0100
0001
0010
0100
,
1000
0001
1000
0010
1000
0001
1000
0010
,
0100
0001
0010
0100
1000
0010
0100
0001
,
0001
0100
0001
1000
0001
0100
0010
1000
,
0010
1000
0100
0010
0001
0100
0010
1000
,
2010
0000
0000
0000
,
0000
0000
0000
0000
,
3001
0100
0001
0010
0001
0010
0100
1000
,
0001
0010
0100
1000
0010
0100
0010
1000
,
0001
1000
0010
0100
0001
1000
0010
0100
,
0001
1000
0010
0100
0001
0100
0010
1000
,
0001
0010
0100
1000
0001
0010
0100
1000
,
0001
0010
0100
1000
0001
0100
0010
1000
,
0010
0100
0001
0100
0010
1000
0010
0100
,
0001
0100
0010
1000
0010
0100
0001
0100
,
0102
0000
0100
2003
,
3020
0000
1000
0230
,
0320
0000
0000
2030
0001
0000
3200
0000
,
0320
0000
0001
0230
,
2300
0000
0000
3020
1000
0000
0230
0000
,
0302
0000
0100
2003
0100
0000
3020
0000
,
0230
0010
0001
0010
,
0001
0000
0302
0000
,
1003
0001
0100
0001
1000
0010
0100
0010
,
0100
0001
1000
0001
0100
0001
1000
0010
,
0100
0000
0010
0000
1000
0000
0001
0000
0010
0000
0001
0000
0100
0000
0001
1000
,
0001
0010
0100
0010
0001
0010
0100
1000
,
0100
1000
0001
0100
0010
0100
1000
0100
,
0001
1000
0010
0100
0001
0010
0100
0010
,
0100
1000
0010
0100
0001
0100
0010
1000
,
0100
0010
0001
1000
0001
0010
0100
1000
,
0010
0100
0010
1000
0001
0100
0010
1000
,
0100
0010
0100
0010
0001
0010
0100
1000
,
0010
0000
0100
0000
0001
0000
0100
0000
0010
0000
1000
0000
0001
0000
1000
0010
,
1000
0010
1000
0001
0010
0001
1000
0001
,
1000
0010
0100
0001
0100
0010
1000
0010
,
1000
0001
0010
0001
0010
0100
1000
0010
,
0100
0001
0100
0001
1000
0010
1000
0010
0100
0001
0100
0001
0100
0000
0010
0000
,
1000
0010
1000
0000
0000
0000
0000
0000
0020
0000
0000
0000
1030
0000
0001
0000
,
1002
0003
0200
0300
0200
0300
0020
0030
2000
3000
0002
0003
0200
0300
0002
0000
,
1003
0000
0020
0030
0200
0300
0002
0003
2000
3000
0020
0030
0200
0300
0002
0000
,
0103
0000
0002
0003
2000
3000
0020
0030
2000
3000
0020
0030
0200
0300
0002
0000
,
1003
0000
0002
0003
0200
0300
0020
0000
1030
0000
0020
0030
0200
0300
0002
0003
,
2000
3000
0200
0300
0020
0030
0002
0003
2000
3000
0200
0300
0020
0030
0002
0003
,
2000
3000
0200
0300
0020
0030
0002
0003
2000
3000
0020
0030
2000
3000
0002
0003
,
0002
0003
0020
0030
0200
0300
2000
3000
0002
0003
0020
0030
0200
0300
2000
3000
,
0002
0003
0020
0030
0200
0300
2000
3000
1002
0000
0000
0000
2003
0000
0000
0000
,
3002
0003
0002
0003
2000
3000
0020
0030
0200
0300
0002
0003
0200
0300
0020
0000
,
1030
0000
0020
0030
0200
0300
0002
0003
2000
3000
0020
0030
0200
0300
0002
0000
,
2003
3000
0020
0030
2000
3000
0002
0003
0020
0030
0002
0003
0200
0300
0002
0000
,
1003
0000
2000
3000
0200
0300
0020
0030
0001
0000
0020
0030
0200
0300
2000
3000
,
1001
0001
0101
0100
0110
0010
1010
1000
,
1001
0001
0101
0101
0100
0001
1000
0001
,
1000
0001
1000
0001
1000
0001
1000
0001
,
1002
0000
0000
0000
,
0203
0000
0000
0000
,
0000
0000
0000
0000
,
0310
1000
1001
0000
0010
0100
0101
0000
,
1000
0010
0110
0000
0002
2003
3002
2003
,
3010
0100
0101
0000
0001
1000
0110
0000
,
0001
0000
0000
0000
0000
0000
0000
0000
1000
0000
0000
0000
0000
0000
0000
0000
1001
0000
0000
0000
0000
0000
0000
0000
0001
0000
0000
0000
0000
0000
0000
0000
0200
0000
0000
0000
0000
0000
0000
0000
0320
0000
0000
0000
0000
0000
0000
0000
0230
0000
0000
0000
0000
0000
0000
0000
0320
0000
0000
0000
0000
0000
0000
0030
,
0110
0110
0110
0110
,
1010
1010
1010
1010
,
0110
0110
0110
0110
,
0101
0101
0101
0101
,
1000
0001
1000
0001
1000
0001
1000
0001
,
1000
0001
1000
0001
1000
0001
1000
0001
,
2001
0000
0000
0000
,
3020
0230
0302
2003
,
3010
0100
0001
0000
0010
0000
0100
0000
1000
0001
0100
0000
0010
0000
1000
0000
,
0010
0100
0010
0000
1000
0000
0001
0000
0100
0001
0100
0000
0010
0000
0100
0000
,
0001
1000
0001
0000
0100
0000
0010
0000
1000
0001
1000
0000
0010
0000
0100
0000
,
0010
1000
0001
0000
0100
0000
0001
0000
0100
0010
1000
0000
0001
0000
0100
0000
,
0001
1000
0001
0000
0100
0000
0010
0000
1000
0010
0100
0000
0001
0000
0100
0000
,
0001
0100
0010
0000
1000
0000
0010
0000
0100
0001
0100
0000
0010
0000
1000
0000
,
0010
0100
0010
0000
1000
0000
0001
0000
0100
0001
0100
0000
0010
0000
1000
0000
,
0010
1000
0010
0000
0100
0000
0001
0000
0100
0001
0100
0000
0010
0000
0010
0000
,
0010
1000
0001
0000
0100
0000
0001
0000
0100
0010
1000
0000
0001
0000
0100
0000
,
0001
1000
0001
0000
0100
0000
0010
0000
0100
0001
0100
0000
0010
0000
0100
0000
,
0010
1000
0010
0000
1000
0000
0010
0000
0010
1000
0010
0000
0100
0000
0001
0000
,
0100
0010
0100
0000
0001
0000
1000
0000
0001
0100
0001
0000
1000
0000
0001
0000
,
0201
0000
0000
0000
0000
0000
0000
0000
0010
0000
0000
0320
0000
0000
1030
0000
,
2001
0000
3020
0000
,
0230
0000
0000
0300
,
0110
0000
0110
0000
0110
0000
0110
0010
,
1010
1000
0001
0100
0010
0100
0001
0100
,
0010
1000
0001
0010
0001
1000
0010
1000
,
0002
0103
0002
0103
0002
0103
0001
0010
,
0200
1300
0200
1300
0200
1300
1000
0100
,
0010
0001
0020
0031
0020
0031
1000
0001
,
0200
0310
0200
0310
0200
0310
0100
0001
,
2000
3010
2000
3010
2000
3010
0100
0010
,
0020
1030
0020
1030
0020
1030
0020
0230
,
0302
1003
0002
0203
0320
0130
0020
2030
,
3002
1003
0002
0203
0302
1003
0002
0203
,
0320
0130
0020
2030
3001
2000
3020
0230
,
0302
1003
0020
0130
0200
0320
1030
0020
,
2030
0000
3002
0203
0310
2000
0010
0000
,
3002
0000
0203
0320
1030
2000
0010
0000
,
3020
0230
0302
2003
3002
0000
0203
0320
,
1030
0000
0001
0000
1000
0001
1000
0001
0100
0010
0100
0010
0200
0000
0000
0000
,
0310
0000
0000
0000
;

//---------------dance-single - ----------------
#NOTES:
     dance-single:
     :
     Beginner:
     3:
     0.133214,0.262691,0.028430,0.011372,0.000000,164.000000,159.000000,5.000000,2.000000,0.000000,0.000000,0.133214,0.262691,0.028430,0.011372,0.000000,164.000000,159.000000,5.000000,2.000000,0.000000,0.000000:
0000
0000
0000
0000
,
0000
0000
0000
0000
,
0000
0000
0000
0000
,
0000
0000
0000
0000
,
1000
0000
0000
0000
,
0100
0000
0000
0000
,
0001
0000
0000
0000
,
0010
0000
0000
0000
,
0100
0000
0000
0000
,
0000
0000
0000
0000
,
0000
0000
1000
0000
,
0000
0000
0001
0000
,
0000
0000
0010
0000
,
0000
0000
0100
0000
,
0000
0000
0001
0000
,
0000
0000
1000
0000
,
0000
0000
0010
0000
,
0000
0000
0100
0000
,
0000
0000
1001
0000
,
0000
0000
0001
0000
,
0000
0000
0010
0010
,
0000
0000
0100
0000
,
0000
0000
0010
0000
,
0000
0000
1000
0000
,
0000
0000
0100
0100
,
0000
0000
0010
0000
,
0100
0000
0000
0000
,
1000
0000
0000
0000
,
0010
0000
0000
0000
,
0001
0000
0000
0000
,
0100
0000
0000
0000
,
0010
0000
0000
0000
,
1000
0000
0000
0000
,
0001
0000
0000
0000
,
0100
0000
0000
0000
,
0010
0000
0000
0000
,
1000
0000
0000
0000
,
0000
0000
0000
0000
,
0100
0000
0000
0000
,
0000
0000
0000
0000
,
0010
0000
0000
0000
,
0000
0000
0000
0000
,
0100
0000
0000
0000
,
0000
0000
0000
0000
,
0001
0000
0000
0000
,
0000
0000
0000
0000
,
1000
0000
0000
0000
,
0000
0000
0000
0000
,
0100
0000
0000
0000
,
0000
0000
0000
0000
,
0010
0000
0000
0000
,
0000
0000
0000
0000
,
0100
0000
0000
0000
,
0000
0000
0000
0000
,
0001
0000
0000
0000
,
1000
0000
0000
0000
,
0100
0000
0000
0000
,
0010
0000
0000
0000
,
0001
0000
0000
0000
,
1000
0000
0000
0000
,
0010
0000
0000
0000
,
0100
0000
0000
0000
,
0001
0000
0000
0000
,
1000
0000
0000
0000
,
0010
0000
0000
0000
,
0100
0000
0000
0000
,
0001
0000
0000
0000
,
0010
0000
0000
0000
,
0100
0000
0000
0000
,
1000
0000
0000
0000
,
0100
0000
0000
0000
,
1000
0000
0000
0000
,
0010
0000
0000
0000
,
0010
0000
0000
0000
,
0010
0000
0000
0000
,
0100
0000
0000
0000
,
1000
0000
0000
0000
,
0001
0000
0000
0000
,
0010
0000
0000
0000
,
0100
0000
0000
0000
,
0010
0000
0000
0000
,
1000
0000
0000
0000
,
0100
0000
0000
0000
,
1000
0000
0000
0000
,
0100
0000
0000
0000
,
0010
0000
0000
0000
,
0100
0000
0000
0000
,
0000
0000
0000
0000
,
1000
0000
0001
0000
,
0010
0000
0100
0000
,
1000
0000
0010
0000
,
0100
0000
0100
0000
,
0010
0000
1000
0000
,
0100
0000
0001
0000
,
0010
0000
0100
0000
,
1000
0000
0010
0000
,
0001
0000
0001
0000
,
0100
0000
0100
0000
,
0002
0000
0000
0000
,
0000
0000
0000
0000
,
0103
0000
1000
0000
,
0010
0000
0001
0000
,
1000
0000
0010
0000
,
0100
0000
0001
0000
,
1000
0000
0010
0000
,
0100
0000
1000
0000
,
0001
0000
0010
0000
,
0100
0000
0001
0100
,
0100
0000
0001
0000
,
1000
0000
0010
0000
,
0001
0000
0010
0000
,
0100
0000
1000
0000
,
0001
0000
0110
0000
,
0100
0000
1000
0000
,
0002
0000
0000
0000
,
0003
0000
0000
0000
,
1000
0000
0110
0000
,
0010
0000
0001
0000
,
0010
0000
1001
0000
,
0010
0000
1000
0000
,
0100
0000
0001
0000
,
1000
0000
0001
0000
,
0100
0000
0010
0000
,
1000
0000
0001
0000
,
0100
0000
0010
0000
,
1000
0000
0100
0000
,
0010
0000
1000
0000
,
0001
0000
0100
0000
,
0010
0000
0100
0000
,
0001
0000
0010
0000
,
0100
0000
1000
0000
,
0100
0000
0010
0000
,
0110
0000
0000
0000
;

//---------------dance-single - ----------------
#NOTES:
     dance-single:
     :
     Easy:
     6:
     0.294045,0.337746,0.005686,0.039802,0.000000,362.000000,361.000000,1.000000,7.000000,0.000000,0.000000,0.294045,0.337746,0.005686,0.039802,0.000000,362.000000,361.000000,1.000000,7.000000,0.000000,0.000000:
1000
0000
0000
0000
,
0000
0000
0000
0000
,
0000
0000
0000
0000
,
0000
0000
0000
0000
,
0010
0100
1000
0010
,
0001
0010
0100
1000
,
0100
0010
0001
0010
,
0001
0010
0100
1000
,
0020
0000
0000
0000
,
0000
0000
0000
0000
,
0000
0000
1030
0100
,
0001
0000
0100
0001
,
0010
0000
0100
1000
,
0001
0000
0100
0010
,
0100
0000
0001
0010
,
0100
0000
1000
0010
,
1000
0000
0001
0100
,
1000
0010
0100
0000
,
0000
0000
0001
1000
,
0001
0000
0100
0001
,
0100
0000
1000
0010
,
1000
0000
0100
0001
,
0100
0000
0010
0001
,
0010
0000
0100
1000
,
0100
0000
0010
1000
,
0001
0100
0020
0000
,
0130
0001
0100
0010
,
1000
1000
0010
0010
,
0100
0001
0100
0001
,
0100
0100
0010
0010
,
0001
0001
0100
0010
,
0100
0100
0010
0010
,
1000
0001
1000
1000
,
0010
0010
0100
0100
,
0001
0100
0001
0001
,
1000
1000
0010
0010
,
0100
0000
0000
0000
,
0100
0000
0000
0000
,
0010
0000
0000
0000
,
0010
0000
0000
0000
,
0001
0000
0000
0000
,
0001
0000
0000
0000
,
0100
0000
0000
0000
,
0100
0000
0000
0000
,
0010
0000
0000
0000
,
0010
0000
0000
0000
,
0100
0000
0010
0000
,
0100
0000
0010
0000
,
1000
0000
0001
0000
,
0100
0000
0010
0000
,
1000
0000
0010
0000
,
0100
0000
0001
0000
,
0100
0000
0010
0000
,
1000
0000
0010
0000
,
0100
0000
0100
0010
,
0100
0000
0001
0010
,
0001
0000
0100
0010
,
0100
0001
0100
0010
,
0100
0000
1000
0010
,
1000
0000
0001
0100
,
0001
0000
0100
1000
,
0010
0001
0010
0100
,
1000
0000
0010
0100
,
0001
0000
0010
0001
,
0010
0000
0100
0001
,
0100
0010
0100
0001
,
0100
0000
0001
0010
,
0100
0000
1000
0001
,
0000
0000
0100
0010
,
0100
0000
0001
1000
,
0010
0000
0100
0010
,
0100
0000
0001
0100
,
0001
0000
0010
1000
,
0010
0000
0001
0001
,
0010
0000
0100
0001
,
0100
0000
1000
0010
,
1000
0000
0100
0001
,
0100
0000
0010
0100
,
0001
0100
0010
0100
,
0001
0100
0010
0100
,
1000
0100
0010
0100
,
1000
0100
0010
0100
,
0001
1000
0010
1000
,
0001
1000
0010
0100
,
0002
0000
0000
0000
,
0000
0000
0000
0000
,
0103
0000
0000
0000
,
0000
0000
0000
0000
,
1010
0000
0001
0000
,
0100
0000
0010
0000
,
1000
0000
0100
0000
,
0010
0000
0001
0000
,
0010
0000
0100
0000
,
0001
0000
1000
0000
,
0010
0000
0100
0000
,
0001
0000
0100
0000
,
0010
0000
0100
0000
,
0001
0000
0010
0000
,
0200
0000
0000
0000
,
0000
0000
0300
0000
,
0010
1000
0010
0100
,
0001
0100
0001
0100
,
0020
0000
1030
0100
,
0001
0100
0010
1000
,
0002
0000
0103
0010
,
1000
0100
0010
0001
,
0010
0000
0100
0000
,
1000
0000
0010
0100
,
0001
0000
0100
0010
,
0100
0000
0001
0010
,
0100
1000
0100
0010
,
0001
0000
1000
0001
,
1000
0000
0100
0010
,
0100
0000
0001
0100
,
0020
0000
0000
0000
,
0030
0000
0000
0000
,
1000
0100
0010
0001
,
0010
0100
0010
0100
,
0001
0010
0100
1000
,
0100
1000
0100
1000
,
0010
0100
0001
0100
,
0010
0001
0100
0010
,
0100
0001
0000
0010
,
0100
0010
0000
0010
,
1000
0010
0100
0001
,
0100
0010
1000
0010
,
0100
0001
0010
0100
,
1000
0100
0010
0001
,
0010
0100
0001
0100
,
0010
0100
1000
0100
,
0010
0001
0010
0100
,
0001
0100
0010
0100
,
0001
0000
0000
0000
;

//---------------dance-single - ----------------
#NOTES:
     dance-single:
     :
     Medium:
     8:
     0.449190,0.675491,0.301356,0.295670,0.008529,553.000000,500.000000,53.000000,52.000000,0.000000,0.000000,0.449190,0.675491,0.301356,0.295670,0.008529,553.000000,500.000000,53.000000,52.000000,0.000000,0.000000:
// measure 0
0000
0000
0000
0000
,  // measure 1
0000
0000
0000
0000
,  // measure 2
0000
0000
0000
0000
,  // measure 3
0000
0000
0000
0000
,  // measure 4
0200
0000
0310
0000
,  // measure 5
0002
0000
1003
0000
,  // measure 6
0200
0000
1300
0000
,  // measure 7
0020
0000
1030
0000
,  // measure 8
0200
0000
0000
0000
,  // measure 9
0000
0000
0000
0000
,  // measure 10
0000
0000
0310
0100
,  // measure 11
0010
0100
0001
0100
,  // measure 12
0001
0100
0010
0100
,  // measure 13
1000
0100
0010
0001
,  // measure 14
0010
0100
0001
0100
,  // measure 15
0010
0100
0010
1000
,  // measure 16
0001
0100
1000
0100
,  // measure 17
0010
0001
0020
0000
,  // measure 18
0001
0000
0230
0000
,  // measure 19
1000
0000
0302
0000
,  // measure 20
1000
0000
0023
0000
,  // measure 21
0001
0000
0230
0000
,  // measure 22
0010
0000
2300
0000
,  // measure 23
0010
0000
3200
0000
,  // measure 24
1000
0000
0310
0020
,  // measure 25
0000
0000
0230
0000
,  // measure 26
0301
0100
0001
0100
,  // measure 27
0010
0000
0100
0000
1000
0000
0100
0010
,  // measure 28
0100
0001
0001
0100
,  // measure 29
0010
0000
0100
0000
0001
0010
0001
0010
,  // measure 30
0001
0100
0010
0100
,  // measure 31
0001
0000
0100
0000
0010
0000
0001
1000
,  // measure 32
0001
0100
0010
1000
,  // measure 33
0001
0000
0100
0000
0010
0000
0001
1000
,  // measure 34
0001
0010
0100
1000
,  // measure 35
0100
0000
0010
0000
1000
0001
1000
0001
,  // measure 36
0200
0000
0000
0000
,  // measure 37
0000
0000
0000
0000
,  // measure 38
0302
0000
0000
0000
,  // measure 39
0000
0000
0000
0000
,  // measure 40
0023
0000
0000
0000
,  // measure 41
0000
0000
0000
0000
,  // measure 42
0230
0000
0000
0000
,  // measure 43
0000
0000
0000
0000
,  // measure 44
2300
0000
0000
0000
,  // measure 45
0000
0000
0000
0000
,  // measure 46
3010
0100
0020
0000
,  // measure 47
0130
0001
0200
0000
,  // measure 48
0301
0010
0002
0000
,  // measure 49
0103
0010
0200
0000
,  // measure 50
1300
0001
2000
0000
,  // measure 51
3010
0100
0002
0000
,  // measure 52
0103
0010
2000
0000
,  // measure 53
3010
0000
0102
0000
,  // measure 54
0103
0000
0110
0000
1000
0001
1000
0000
,  // measure 55
0010
0100
0010
0000
1000
0001
0100
0000
,  // measure 56
0010
0000
1001
0000
0010
0100
0001
0000
,  // measure 57
0010
1000
0010
0000
1000
0001
0100
0000
,  // measure 58
0010
0000
1010
0000
0100
0001
0100
0000
,  // measure 59
0010
1000
0010
0000
0100
0001
0100
0000
,  // measure 60
1000
0000
1001
0000
0100
0010
0001
0000
,  // measure 61
1000
0010
0100
0000
1000
0001
1000
0000
,  // measure 62
0010
0000
0110
0000
0100
0001
1000
0000
,  // measure 63
0100
0010
0001
0000
0100
0010
0100
0000
,  // measure 64
1000
0000
1010
0000
0001
0100
0010
0000
,  // measure 65
0100
0010
1000
0000
0001
0100
0010
0000
,  // measure 66
0100
0000
1001
0000
0010
0100
0001
0000
,  // measure 67
0010
1000
0010
0000
1000
0001
0100
0000
,  // measure 68
0010
0000
0110
0000
0001
1000
0010
0000
,  // measure 69
1002
0000
0000
0000
,  // measure 70
1003
0010
0100
0001
,  // measure 71
1000
0000
0010
0000
0100
0000
0001
0010
,  // measure 72
0001
1000
0010
0100
,  // measure 73
0001
1000
0010
0001
,  // measure 74
0100
0110
0001
1001
,  // measure 75
1000
0000
1010
0000
0001
1000
0001
0000
,  // measure 76
0100
0110
0001
1001
,  // measure 77
0100
0000
0001
0100
0001
0000
0100
0000
,  // measure 78
1010
0001
0100
0010
,  // measure 79
1000
0001
0010
0100
,  // measure 80
0100
0010
0001
0100
,  // measure 81
1000
0010
0100
0001
,  // measure 82
0001
0100
0001
0100
0001
0100
0001
0100
,  // measure 83
0001
0000
0100
0100
0001
1000
0010
0100
,  // measure 84
0001
1000
0001
1000
0001
1000
0001
1000
,  // measure 85
0002
0000
0000
0000
,  // measure 86
2003
0000
0000
0000
,  // measure 87
0000
0000
0000
0000
,  // measure 88
3200
0310
0020
0130
,  // measure 89
2000
0000
3010
0000
0002
0203
0302
0103
,  // measure 90
0002
1003
0020
1030
,  // measure 91
0002
0000
0103
0000
0200
0320
0230
0320
,  // measure 92
0130
0110
0110
0110
,  // measure 93
1001
1001
1001
1001
,  // measure 94
0011
0011
0011
0011
,  // measure 95
1100
1100
1100
1100
,  // measure 96
1000
0001
1000
0001
1000
0001
1000
0001
,  // measure 97
1000
0001
1000
0001
1000
0001
1000
0001
,  // measure 98
2000
0000
0000
0000
,  // measure 99
3020
0230
0302
2003
,  // measure 100
3010
0000
0100
0000
0001
0000
1000
0010
,  // measure 101
1000
0001
0100
0010
,  // measure 102
0100
0000
0000
0000
0010
0000
0000
0000
1000
0000
0000
0001
0000
0000
0001
0000
,  // measure 103
0100
0010
0100
1000
,  // measure 104
0010
0000
0000
0000
0100
0000
0000
0000
0001
0000
0000
1000
0000
0000
1000
0000
,  // measure 105
0010
0100
0010
0100
,  // measure 106
1000
0001
0100
0000
0010
1000
0001
0000
,  // measure 107
0010
0100
0010
0000
1000
0001
0100
0001
,  // measure 108
0100
0000
0010
0000
0100
0000
0001
1000
,  // measure 109
0010
0100
0010
0001
,  // measure 110
1000
0000
0010
0000
0100
0010
1000
0010
,  // measure 111
0100
0000
0010
0000
0100
0000
0001
1000
,  // measure 112
1001
0000
0000
0000
0000
0000
0000
0000
0010
0000
0000
0100
0000
0000
0010
0000
,  // measure 113
1010
0000
0110
0000
,  // measure 114
0102
0000
0000
0000
,  // measure 115
2003
0000
0000
0000
,  // measure 116
3010
0100
0001
0100
,  // measure 117
0010
0000
0100
0000
0001
0000
0100
0010
,  // measure 118
1010
0000
1010
0000
1010
0000
0001
0100
,  // measure 119
0101
0000
0101
0000
0101
0000
1000
0001
,  // measure 120
1001
0000
1001
0000
1001
0000
0010
0100
,  // measure 121
0110
0000
0110
0000
0110
0000
0001
1000
,  // measure 122
1100
0000
1100
0000
1100
0000
1000
0001
,  // measure 123
0011
0000
0011
0000
0011
0000
0001
1000
,  // measure 124
0001
0000
0001
1000
0010
0000
0010
0100
,  // measure 125
0001
0000
0001
0010
0001
0000
1000
0010
,  // measure 126
0100
0000
1000
0001
0100
0010
1000
0010
,  // measure 127
0100
0000
0100
0000
0010
1000
0010
0100
,  // measure 128
0010
0000
1000
0001
0100
0010
0100
0000
,  // measure 129
0010
0000
0010
1000
0001
0100
0001
0000
,  // measure 130
0001
0010
0100
0010
0001
0000
1000
0010
,  // measure 131
1000
0020
0230
0000
,  // measure 132
0310
0000
0000
0000
;
