#TITLE:AI[UE]OON;
#SUBTITLE:;
#ARTIST:Myukke;
#TITLETRANSLIT:;
#SUBTITLETRANSLIT:;
#ARTISTTRANSLIT:;
#GENRE:;
#CREDIT:;
#BANNER:bn.png;
#BACKGROUND:BG.jpg;
#LYRICSPATH:;
#CDTITLE:;
#MUSIC:AI[UE]OON.ogg;
#OFFSET:-1.697000;
#SAMPLESTART:55.919003;
#SAMPLELENGTH:15.000000;
#SELECTABLE:YES;
#BPMS:0.000000=145.000000
;
#STOPS:
;
#BGCHANGES:;
#KEYSOUNDS:;
#ATTACKS:;

//---------------dance-single - ----------------
#NOTES:
     dance-single:
     :
     Challenge:
     16:
     1.135985,1.196143,1.236337,0.681390,1.141504,1132.000000,956.000000,176.000000,97.000000,0.000000,29.000000,1.135985,1.196143,1.236337,0.681390,1.141504,1132.000000,956.000000,176.000000,97.000000,0.000000,29.000000:
// measure 0
0000
0000
0000
0000
,  // measure 1
1001
0000
0000
0000
0100
0000
0000
0000
0010
1000
0100
0000
0010
0000
0000
0000
1100
0000
0000
0000
0010
0000
0000
0000
1000
0000
0000
0000
0012
0000
1000
0100
,  // measure 2
0010
1000
0100
0000
0013
0000
0010
0000
1100
0000
0000
0000
0100
0000
0000
0000
1001
0000
0000
0000
0100
1000
0010
0000
0101
0000
0000
0000
0010
0000
0000
0000
,  // measure 3
1001
0000
0000
0000
0010
1000
0100
0000
0010
0000
0000
0000
1000
0000
0000
0000
0101
0000
0000
0000
0010
1000
0100
0000
0010
0000
0000
0000
1200
0010
0001
0010
,  // measure 4
1000
0010
0001
0000
1300
0000
1000
0000
0110
0000
0000
0000
1000
0000
0000
0000
0110
0000
0000
0000
1000
0000
0000
0000
0011
0100
1000
0000
0001
0000
0000
0000
,  // measure 5
1100
0000
0000
0000
0010
0000
0000
0000
0100
1000
0010
0000
0100
0000
0000
0000
0011
0000
0000
0000
1000
0000
0000
0000
0100
0000
0000
0000
1020
0000
0100
1000
,  // measure 6
0001
1000
0001
0000
0130
0000
0100
0000
1010
0000
0000
0000
0100
0000
0000
0000
1001
0000
0000
0000
1000
0100
0010
0000
1100
0000
0000
0000
0010
0000
0000
0000
,  // measure 7
1100
0000
0000
0000
0001
0010
0001
0000
0100
0000
0000
0000
1000
0000
0000
0000
0110
0000
0000
0000
1000
0000
0000
0000
0001
0000
0000
0000
1200
0010
0001
0010
,  // measure 8
1000
0010
0001
0000
0310
0000
0100
0000
1001
0000
0100
0000
0010
0000
0100
0000
1001
0000
0000
0000
0010
0000
0000
0000
1100
0000
0000
0000
0001
0000
0000
0000
,  // measure 9
1001
0010
0100
0000
0011
0000
0100
0000
1010
0001
1000
0000
0101
0000
0010
0000
,  // measure 10
1100
0000
0001
0010
1100
0000
0001
1000
0110
0000
1000
0100
0011
0000
1000
0000
,  // measure 11
0101
0010
1000
0000
0110
0000
0001
0000
1010
0100
0001
0000
1100
0000
0010
0000
,  // measure 12
0101
0000
1000
0100
0011
0000
0001
0010
1100
0000
0100
0010
1001
0000
0010
0000
,  // measure 13
1100
0000
0001
0000
0110
0000
1000
0100
0011
0000
0100
0000
1001
0000
0010
0000
,  // measure 14
1001
0000
0100
0000
0011
0000
1000
0000
0101
0000
1000
0000
0011
0000
0100
0010
,  // measure 15
1001
0000
0100
0000
0010
0000
0001
0000
0010
0000
0100
0000
1000
0000
0100
0010
0001
0010
0100
1000
0100
0010
0001
0010
1100
0000
0000
0000
0001
0000
0000
0000
,  // measure 16
0020
0230
0320
0230
0320
0000
2031
3020
,  // measure 17
1130
0000
0001
0100
1010
0000
1000
0000
0101
1000
0010
1000
0201
0000
2300
0000
,  // measure 18
3210
0000
0310
0000
1100
0000
0001
0010
1100
0010
0001
0010
0101
0000
0010
0100
,  // measure 19
1010
0000
0200
0300
0011
0100
0010
0001
1100
0001
0010
0100
1010
0000
0100
0000
,  // measure 20
1001
0010
0100
1000
0110
0001
0100
0001
1010
0000
0001
0110
0000
0001
1000
0010
,  // measure 21
0101
0000
0010
0001
1100
0000
0100
0000
0011
0100
1000
0000
0102
0000
0023
0000
,  // measure 22
1031
0000
1000
0000
0101
0000
0010
1000
0101
1000
0010
1000
0011
0000
1000
0001
,  // measure 23
1100
0010
0001
0000
1100
0001
0100
0010
1001
0010
0100
0001
1010
0100
0001
0000
,  // measure 24
0110
1000
0001
0100
1001
0010
0001
0010
1100
0010
0001
0100
1010
0000
0001
0000
,  // measure 25
1000
0100
0010
0100
1000
0010
0010
0001
1000
0100
0010
0001
0001
0100
0010
0100
,  // measure 26
1000
0001
0010
0100
0010
1000
0010
0100
0001
0010
1000
0010
0010
1000
0100
0010
,  // measure 27
0001
0100
0010
0001
0100
0001
0001
1000
0100
0010
0001
0100
0100
1000
0100
0010
,  // measure 28
1100
0010
0001
0110
1000
0100
0010
0001
1100
0010
0100
0011
0100
1000
0010
0000
,  // measure 29
0110
1000
0001
0110
0000
1000
0011
0000
1100
0010
0001
1100
0000
0100
0011
0000
,  // measure 30
0101
0010
1000
0110
0000
1000
0110
0000
1001
0100
0010
1001
0000
0010
1100
0000
,  // measure 31
0100
0011
0000
0100
0011
0000
0100
0000
0011
1100
0000
0011
1200
0000
0000
0000
,  // measure 32
1300
0000
0100
0000
0010
0000
0001
0000
0010
0000
0100
0000
1000
0000
0100
0000
0010
0000
1000
0000
0010
0000
0001
0000
1000
0010
0100
0001
0010
0100
1000
0100
,  // measure 33
0020
0000
0001
1000
0001
0000
0001
1000
0130
1000
0010
0100
0011
1000
0020
0000
,  // measure 34
0001
0000
0100
1000
0001
0000
0001
1000
0100
0000
0001
0000
1130
0010
0001
0100
,  // measure 35
0002
0000
1000
0010
1000
0000
0010
1000
0203
0000
0320
0000
2031
0000
3020
0000
,  // measure 36
0100
0000
0001
0100
0001
0000
0100
0001
0100
0000
1000
0000
1130
0010
0001
0010
,  // measure 37
2000
0000
0001
0100
0001
0000
0010
0001
3100
0010
0100
0001
1200
0000
0320
0000
,  // measure 38
0001
0000
0100
0001
0100
0000
1000
0001
1000
0000
0001
0000
1031
0100
0010
0100
,  // measure 39
2000
0000
0001
0010
0001
0000
0100
0001
3020
0000
0230
0000
0302
0000
0023
0000
,  // measure 40
1000
0000
0001
0100
0001
0000
0100
0001
0100
0000
1000
0000
0231
0000
0320
0000
,  // measure 41
2030
0100
0010
0001
0010
0001
0100
0000
0110
0000
0001
0000
3100
0000
0001
0000
,  // measure 42
0100
1000
0010
1000
0001
1000
0010
1000
0001
0000
0100
0000
0020
0000
0230
0000
,  // measure 43
0302
1000
0010
0100
1010
0100
1000
0023
,  // measure 44
1000
0100
0001
0100
1000
0000
0001
0000
1000
0000
0100
0000
0130
0001
0100
1000
,  // measure 45
0021
0230
2300
3002
0213
0320
2030
3102
,  // measure 46
0103
0020
1032
0203
2310
3100
0020
2030
,  // measure 47
3120
0032
0203
0320
2130
0010
3001
0120
,  // measure 48
1000
0000
0032
0000
1203
0000
0320
0000
0132
0000
2003
0000
3001
0010
0100
1000
,  // measure 49
0001
0100
0010
0100
0001
0000
0100
0000
1000
0000
0100
0001
0010
0000
0001
0000
,  // measure 50
0100
0000
0000
0000
0010
0000
0000
0000
0100
0000
0000
0000
0001
0000
0000
0000
1000
0000
0000
0000
0010
0001
1000
0010
0100
0000
0000
0000
0001
0000
0000
0000
,  // measure 51
0100
0000
0010
0000
1000
0000
0100
0000
0010
0001
0100
1000
0010
0000
0001
0000
,  // measure 52
0010
0000
0000
0000
0100
0000
0000
0000
0010
0000
0001
0000
0100
0000
0000
0000
1000
0000
0000
0000
0100
0001
1000
0100
0010
0000
0000
0000
0100
0000
0000
0000
,  // measure 53
1001
0010
0010
0000
0101
0000
1000
0000
0110
0000
0001
0000
1010
0000
1001
0110
,  // measure 54
1001
0100
0100
0000
0011
0000
1000
0000
0101
0000
1000
0000
0101
0000
1100
0011
,  // measure 55
1100
0000
0010
0000
1000
0000
0100
0000
0010
0000
0001
0000
0010
0000
0100
0000
1000
0100
0010
0001
0010
0100
1000
0100
0012
0000
0000
0000
2003
0000
0000
0000
,  // measure 56
0000
3020
0230
0302
2003
0000
3120
0000
,  // measure 57
1031
0000
0000
0000
0100
0000
0001
0000
1010
0000
0001
0000
0100
0000
0000
0000
0011
0000
0000
0000
0010
0001
0100
0010
1000
0000
0100
0000
0001
0000
0000
0000
,  // measure 58
1100
0000
0000
0000
0010
0000
0100
0000
1001
0000
0100
0000
0010
0000
0000
0000
1001
0000
0000
0000
0100
1000
0010
0100
0001
0000
0010
0000
1000
0000
0000
0000
,  // measure 59
0011
0000
0000
0000
0100
0000
0010
0000
1001
0000
0010
0000
0100
0000
0000
0000
1010
0000
0000
0000
1000
0100
0010
0100
0001
0000
1000
0000
0020
0000
0000
0000
,  // measure 60
1130
0000
0000
0000
0001
0000
1000
0000
0110
0000
1000
0000
0002
0000
0000
0000
0113
0000
0000
0000
1000
0100
0001
1000
0110
0000
0000
0000
1000
0000
0100
0000
,  // measure 61
0011
0000
0000
0000
1000
0000
0010
0000
0101
0000
0010
0000
1000
0000
0000
0000
0011
0000
0000
0000
0100
1000
0010
0001
0100
0000
1000
0000
0100
0000
0000
0000
,  // measure 62
0011
0000
0000
0000
1000
0000
0010
0000
0101
0000
0010
0000
1000
0000
0000
0000
1001
0000
0000
0000
0100
0010
1000
0001
0100
0000
0010
0000
1000
0000
0000
0000
,  // measure 63
0101
0000
0000
0000
0010
0000
0001
0000
1100
0000
0001
0000
0010
0000
0000
0000
1100
0000
0000
0000
0100
0010
1000
0010
0001
0000
0000
0000
0020
0000
0000
0000
,  // measure 64
1130
0000
0000
0000
0001
0000
0001
0000
1100
0000
0000
0000
0010
0000
0010
0000
0101
0000
0000
0000
0010
0000
0010
0000
1100
0000
0000
0000
0001
0100
0010
1000
,  // measure 65
0201
0000
0010
0001
0010
0000
1000
0010
1000
0000
0010
0000
0312
0000
2003
0000
,  // measure 66
0010
0000
0010
0100
0001
0000
0100
0010
0100
0000
0001
0100
3010
0001
0100
1000
,  // measure 67
0002
0000
0100
0010
0100
0000
0010
0100
2003
0000
0001
0000
0110
0001
3020
0100
,  // measure 68
0001
0000
0100
1000
0100
0000
0001
1000
0001
0000
1000
0000
0031
1000
0010
0001
,  // measure 69
2000
0000
0010
0100
0010
0000
0100
0001
0010
0000
0100
0000
3021
0000
0230
0000
,  // measure 70
0001
0000
0010
1000
0001
0000
1000
0010
1000
0000
0001
1000
0301
0010
1000
0100
,  // measure 71
0020
0000
1000
0100
0001
0000
0100
0000
2030
0000
0100
0000
0010
0100
3002
0000
,  // measure 72
0010
0000
0100
0010
0100
0000
0010
1000
0010
0000
1003
0000
0022
0000
0203
0030
,  // measure 73
2301
0000
0000
0000
0010
0000
0000
0000
0100
0001
0010
0000
0100
0000
0000
0000
0001
0000
0000
0000
0100
0000
0000
0000
3001
0000
0000
0000
0120
0000
0000
0000
,  // measure 74
1000
0000
0000
0000
0031
0000
0001
0000
0100
0000
0000
0000
0010
0000
0100
0000
1000
0000
0000
0000
0010
0001
0100
0000
1000
0000
0000
0000
0100
0000
0000
0000
,  // measure 75
1000
0000
0000
0000
0100
0001
0010
0000
0100
0000
0000
0000
0001
0000
0000
0000
1000
0000
0000
0000
0100
0001
0010
0000
0100
0000
0000
0000
0021
0000
0000
0000
,  // measure 76
1000
0000
0000
0000
0031
0000
0001
0000
0100
0000
0000
0000
0001
0000
0010
0000
0100
0000
0000
0000
0001
0000
0000
0000
1000
0010
0001
0000
1000
0000
0000
0000
,  // measure 77
0010
0000
0000
0000
0100
0000
0000
0000
0010
0001
0100
0000
0010
0000
0000
0000
1000
0000
0000
0000
0001
0000
0000
0000
0010
0000
0000
0000
0201
0000
0000
0000
,  // measure 78
1000
0000
0300
0000
0010
0000
0010
0000
0100
0000
0000
0000
0010
0000
0100
0000
1000
0000
0000
0000
0001
0010
0100
0000
0010
0000
0000
0000
0100
0000
0000
0000
,  // measure 79
0010
0000
0000
0000
1000
0100
1000
0000
0010
0000
0000
0000
0001
0000
0000
0000
0100
0000
0000
0000
0001
0000
0000
0000
1000
0000
0000
0000
0021
0000
0000
0000
,  // measure 80
0100
0000
0031
0001
0010
0010
0100
0100
1000
1000
0010
0000
0100
0000
0010
0000
,  // measure 81
0100
0010
0100
0010
2002
0000
0000
0000
0000
0000
0000
0000
0000
0000
0000
0000
,  // measure 82
0000
0000
0000
0000
,  // measure 83
0000
3003
0000
0000
0000
0000
0000
0000
0000
0000
0000
0000
0000
0000
0000
0000
;

//---------------dance-single - ----------------
#NOTES:
     dance-single:
     :
     Hard:
     13:
     0.715510,0.932872,0.161567,0.470651,0.516311,713.000000,690.000000,23.000000,67.000000,0.000000,0.000000,0.715510,0.932872,0.161567,0.470651,0.516311,713.000000,690.000000,23.000000,67.000000,0.000000,0.000000:
0000
0000
0000
1001
,
1000
0000
0100
0000
0010
0000
0001
1000
0001
0000
0100
0000
0010
0000
1000
0000
,
0000
0000
0010
0010
0100
0000
0010
0000
0100
0000
1000
0001
0100
0000
0010
0000
,
0100
0000
0001
1000
0001
0000
0100
0000
0001
0000
0100
0010
1000
0000
0001
0000
,
0000
0000
0010
0010
0100
0000
1000
0000
0001
0000
0100
0000
0010
0000
1000
0000
,
0001
0000
1000
0000
0010
0100
0010
0000
0001
0000
1000
0000
0100
0000
1000
0000
,
0000
0000
0001
0001
0100
0000
0010
0000
0100
0000
1000
0001
1000
0000
0001
0000
,
1000
0000
0100
0001
0100
0000
0010
0000
0001
0000
1000
0000
0100
0000
1000
0000
,
0000
0000
0001
0001
0010
0010
0100
0000
1000
0000
0010
0000
0100
0000
0001
0000
,
0100
0001
1000
0000
0010
0000
0010
0000
0100
0001
1000
0000
0001
0000
0001
0000
,
1000
0000
0001
0100
0001
0000
0010
1000
0010
0000
0100
1000
0100
0000
1000
0000
,
0010
1000
0100
0000
0001
0000
0001
0000
0100
0010
1000
0000
0100
0000
0100
0000
,
0010
0000
1000
0001
1000
0000
0100
0001
0100
0000
0010
0001
0010
0000
0001
0000
,
0101
0011
1100
1001
,
0110
0011
1100
1001
,
0010
0000
0100
0000
0010
0000
0100
0000
0001
1000
0001
1000
0001
0000
0000
0000
,
2000
3200
0320
0032
2003
3000
1001
0000
,
0100
0000
0010
0000
0100
0000
0001
0000
0100
0010
0000
0010
0100
0000
0010
0000
,
1000
0000
0001
0000
1000
0000
0010
1000
0010
0100
0000
0100
0010
0000
0001
1000
,
0001
0000
0100
0000
0010
1000
0000
0100
0000
0001
0000
0010
1000
0000
0100
0000
,
1000
0001
0010
0001
0100
0010
1000
0100
1000
0000
0010
0100
0010
0000
0001
0000
,
1000
0000
0010
0000
1000
0000
0001
0000
1000
0010
0000
0010
1000
0000
0010
0000
,
0100
0000
0001
0000
0010
0000
0001
0000
0100
0001
0100
0000
0010
0000
1000
0000
,
0002
0000
0203
0000
0310
1000
0000
1000
0001
0000
0100
0000
1000
0000
1000
0000
,
0010
0100
0001
0000
1000
0000
0010
0100
0000
0100
0010
0000
1001
0000
0000
0000
,
0001
0010
0001
0100
0010
1000
1000
0010
0100
0010
1000
0010
0010
0100
0001
0010
,
0001
1000
0010
0100
0001
0100
0010
0100
0001
1000
0010
0100
0001
0010
0002
0000
,
0103
0010
0010
1000
0001
0100
0100
0001
0100
0010
1000
0010
0010
0100
0001
0100
,
0010
1000
0100
0010
0001
0100
0010
1000
0100
1000
0010
1000
0100
0010
0002
0000
,
0103
0010
1000
0001
0000
0010
0001
0000
1000
0010
0100
0001
0000
0100
0001
0000
,
0010
1000
0001
0100
0000
0001
0100
0000
1000
0100
0010
0001
0000
0010
0001
0000
,
0010
0100
0000
0010
0100
0000
0001
0000
0100
0010
0000
0100
0020
0000
0000
0000
,
1030
0100
1000
0010
0100
0001
0010
0001
0100
0010
0100
0010
0100
0010
0100
0001
,
0200
0000
0000
0000
0310
0000
0000
0000
0001
1000
0001
1000
0001
1000
0002
0000
,
0100
0000
0000
0000
1000
0000
0000
0000
0010
0000
0000
0000
1003
0100
1000
0100
,
2000
0000
0010
0000
3002
0203
0320
0230
,
0010
0000
0000
0000
0001
0000
0000
0000
0010
0000
0300
0000
1000
0100
1000
0100
,
2000
0000
0010
0000
3200
0320
0032
2003
,
0100
0000
0000
0000
0010
0000
0000
0000
0001
0000
3000
0000
0010
0100
0010
0100
,
0020
0000
1000
0000
2030
3200
0320
0032
,
0023
0000
0100
0000
0001
0000
0230
2300
,
3010
0000
0100
0001
0100
0000
0010
0000
0100
0000
1000
0000
0010
0000
0200
0000
,
0000
0000
0310
0010
1000
0000
0001
0000
0100
0000
0010
0000
0100
0000
0001
0000
,
1000
0010
0100
0001
0010
0100
1000
0020
,
0000
0000
1030
0001
1000
0000
0010
0000
0100
0000
0001
0000
0100
0010
0100
0010
,
0200
0310
0102
0103
,
0210
0000
0310
0000
2001
0000
3001
0100
,
0020
1030
2001
3100
,
0210
0310
2001
3001
,
1000
0100
0010
0001
1000
0010
0100
0001
,
1000
0100
1000
0001
0010
0001
0010
0001
,
1000
0100
1000
0010
1000
0001
0010
0100
,
1000
0001
0100
0010
0100
0010
1000
0001
,
0110
0001
1000
0100
0110
0001
1000
0010
,
0110
0001
1000
0100
0110
0001
1000
0010
,
0110
0000
0001
0000
1000
0000
0010
0000
0100
1000
0100
1000
0100
0000
2000
0000
,
0000
3200
0320
0032
2003
0000
3002
0000
,
0103
0000
0010
0000
1000
0000
0001
0000
0010
0000
0100
0010
0100
0000
1000
0000
,
0001
0000
0100
0000
0010
0000
1000
0000
0001
0000
1000
0001
1000
0000
0010
0000
,
1000
0000
0001
0000
0010
0000
0100
0000
0010
0000
0001
0010
0001
0000
1000
0000
,
0100
0000
1000
0000
0010
0000
0100
0000
0001
0000
1000
0100
1000
0000
0100
0000
,
0010
0000
0001
0000
1000
0000
0010
0000
0100
0000
0010
0100
0010
0000
1000
0000
,
0001
0000
0010
0000
0100
0000
1000
0000
0001
0000
1000
0100
1000
0000
0010
0000
,
0100
0000
0001
0000
1000
0000
0100
0000
1000
0000
0100
0010
0100
0000
1000
0000
,
0001
0000
0001
0100
0001
0000
0010
0100
0010
0000
0100
1000
0100
1000
0100
1000
,
0200
0000
1000
0000
0010
0000
2300
3002
,
2003
0000
0000
0000
0010
0000
0000
0000
0001
0000
0000
0000
3100
0010
0100
0010
,
0200
0000
0001
0000
0320
0000
0001
2030
,
0010
0000
0000
0000
0100
0000
0000
0000
0001
0000
0000
0000
3010
0001
0010
0001
,
0020
0000
1000
0000
0100
0000
2030
3002
,
1000
0000
0000
0000
0100
0000
0000
0000
0010
0000
0000
0000
0103
0010
0100
0010
,
0200
0000
0010
0000
2300
0000
0100
3020
,
0001
0000
1000
0000
0001
0000
0230
0302
,
0103
0010
1000
0010
0100
0001
0010
2000
,
0000
0000
3010
0100
0010
0000
0001
0000
1000
0000
0100
0010
0100
0000
0010
0000
,
0100
0000
1000
0001
1000
0000
0001
0000
1000
0000
0100
0010
0100
0000
0002
0000
,
0000
0000
1003
0010
1000
0000
0100
0000
0010
0000
0001
0000
1000
0000
0010
0000
,
0100
0000
0001
0000
0100
0010
0100
0000
0010
0000
1000
0000
0001
0000
0020
0000
,
0000
0000
0130
1000
0100
0000
0010
0000
0001
0000
0010
0100
0010
0000
0001
0000
,
1000
0000
0100
0010
0100
0000
0001
0000
1000
0000
0100
0000
0010
0000
0002
0000
,
0000
0000
1003
0010
1000
0010
1000
0010
1000
0000
0100
0000
0010
0000
0100
0000
,
0000
2002
0000
0000
,
0000
0000
0000
0000
,
3003
0000
0000
0000
;

//---------------dance-single - ----------------
#NOTES:
     dance-single:
     :
     Medium:
     7:
     0.449577,0.524741,0.217764,0.407429,0.000000,448.000000,417.000000,31.000000,58.000000,0.000000,0.000000,0.449577,0.524741,0.217764,0.407429,0.000000,448.000000,417.000000,31.000000,58.000000,0.000000,0.000000:
0000
0000
0000
1000
,
0100
1000
0100
1000
0200
0000
0310
0000
,
1000
0001
1000
0001
2000
0000
3010
0000
,
0100
0010
0100
0010
0200
0000
0310
0000
,
0001
1000
0001
1000
0002
0000
1003
0000
,
0010
0100
0010
0100
0020
0000
0130
0000
,
1000
0100
0010
0100
2000
0000
3100
0000
,
0010
0001
1000
0100
2000
0000
3100
0000
,
0010
0100
0010
1000
0200
0000
1300
0000
,
1000
0100
1000
0000
1000
0001
0010
0000
,
1000
0100
1000
0100
2000
0000
3100
0000
,
0010
0100
0010
0000
0001
1000
0001
0000
,
1000
0100
1000
0100
2000
0000
3100
0000
,
0010
0010
0001
0001
,
1000
1000
0100
0100
,
1000
0100
1000
0000
1000
0100
1000
0000
,
0010
0100
0001
1000
0010
0000
0110
0000
,
2000
0100
0010
0001
,
3002
0100
1000
0010
,
0023
0100
1000
2030
,
0010
0001
0100
0010
,
3020
0100
1000
0100
,
2030
0010
0001
0001
,
3002
0100
1000
0010
,
1003
0100
0010
1001
,
2000
3100
0020
0130
,
0002
0013
2000
3100
,
0020
0130
2000
3001
,
0020
0130
2000
3001
,
0002
0013
2000
3100
,
0020
0130
2000
3001
,
0001
1000
0001
1000
,
2002
0000
0000
0000
0000
3003
0110
0000
,
1000
0100
1000
0100
1000
0100
1000
0100
,
0020
0100
0001
0130
,
0001
1000
0001
1000
0001
1000
0001
1000
,
0002
0000
0000
0000
0000
0000
0000
0000
0000
0000
0000
0000
0000
0000
0000
0000
0000
0000
0000
0000
0000
0000
0000
0000
0000
0000
0000
0000
0000
0000
0000
0000
0000
0000
0000
0000
0000
0000
0000
0000
0000
0000
0000
0000
0000
0000
0000
0000
0010
0000
0000
0000
0000
0000
0000
0000
0000
0000
0000
0000
0000
0000
0000
0000
0000
0000
0000
0000
0000
0000
0000
0000
0000
0000
0000
0000
0000
0000
0000
0000
0000
0000
0000
0000
0000
0000
0000
0000
0000
0000
0000
0000
0000
0000
0000
0000
1000
0000
0000
0000
0000
0000
0000
0000
0000
0000
0000
0000
0000
0000
0000
0000
0000
0000
0000
0000
0000
0000
0000
0000
0000
0000
0000
0000
0000
0000
0000
0000
0000
0000
0000
0000
0000
0000
0000
0000
0000
0000
0000
0000
0000
0000
0000
0000
0100
0003
0000
0000
0000
0000
0000
0000
0000
0000
0000
0000
0000
0000
0000
0000
0000
0000
0000
0000
0000
0000
0000
0000
0000
0000
0000
0000
0000
0000
0000
0000
0000
0000
0000
0000
0000
0000
0000
0000
0000
0000
0000
0000
0000
0000
0000
0000
,
0001
1000
0001
1000
0001
1000
0001
1000
,
0002
0100
0010
1003
,
0010
0100
0010
0100
0010
0100
0010
0100
,
0020
1000
0100
1030
,
1100
0000
0010
1000
0020
0000
0100
0000
,
1000
0100
0031
0100
,
0010
0001
0010
0100
2000
0000
0010
0000
,
0001
0100
0010
3001
,
0100
0010
0100
0001
2000
0000
0100
0000
,
0010
0001
3100
0010
,
0010
0001
1000
0100
0020
0000
0001
0000
,
0100
0001
1030
0001
,
0101
0101
1010
1010
,
0110
0110
0011
0011
,
1100
1100
0110
0110
,
0011
0011
1100
1100
,
1001
1001
0110
0110
,
0011
0011
1100
1100
,
0001
1000
0001
1000
0002
0000
0000
0003
,
2000
0000
0000
3010
,
0200
0310
0002
1003
,
2000
3100
0020
0130
,
0002
0013
2000
3100
,
0020
0130
2000
3001
,
0002
0013
2000
3100
,
0020
0130
2000
3001
,
0002
0013
0020
0130
,
0001
1000
0100
0010
0001
0000
1001
0000
,
0010
1000
0010
1000
0010
1000
0010
1000
,
0001
1000
0001
1000
0001
1000
0001
1000
,
0100
1000
0100
1000
0100
1000
0100
1000
,
0010
1000
0010
1000
0010
1000
0010
1000
,
0100
1000
0100
1000
0100
1000
0100
1000
,
0010
1000
0010
1000
0010
1000
0010
1000
,
0001
1000
0001
1000
0001
1000
0001
1000
,
0100
1000
0100
1000
0010
1000
0010
1000
,
0001
0010
0002
0013
,
1000
0100
1000
0000
0010
0100
0010
0000
,
1000
0001
1000
0000
0001
0010
0001
0000
,
1000
0100
1000
0000
0010
0000
0010
0000
,
1000
0001
1000
0000
0001
1000
0001
0000
,
0010
0100
0010
0000
0001
1000
0001
0000
,
0100
0010
0100
0000
0001
1000
0100
0000
,
0001
0010
0100
1000
0001
0000
0010
0000
,
0000
2002
0000
0000
,
0000
0000
0000
0000
,
3003
0000
0000
0000
;

//---------------dance-single - ----------------
#NOTES:
     dance-single:
     :
     Easy:
     4:
     0.256901,0.291523,0.021074,0.203715,0.000000,256.000000,253.000000,3.000000,29.000000,0.000000,0.000000,0.256901,0.291523,0.021074,0.203715,0.000000,256.000000,253.000000,3.000000,29.000000,0.000000,0.000000:
0000
0000
0000
1000
,
0100
0100
0010
0000
,
1000
1000
0001
0000
,
0010
0100
0010
0000
,
0001
1000
0001
0000
,
0010
0010
0010
0000
,
1000
1000
1000
0000
,
0100
0010
0100
0000
,
0001
0001
0001
0000
,
1000
1000
1000
1000
,
0200
0000
0310
0000
,
0001
0001
0001
0001
,
0020
0000
0130
0000
,
1000
1000
0100
0100
,
0010
0010
0001
0001
,
2000
0100
0100
3100
,
0000
0000
0000
0110
,
2000
0100
0010
3001
,
0020
0000
0130
0000
,
0002
0010
1000
0103
,
2000
0000
3010
0000
,
0020
1000
0100
1030
,
0002
0000
0013
0000
,
2000
0100
0010
3001
,
0020
0000
0130
0000
,
2000
0100
3010
0000
,
0002
0010
1003
0000
,
0020
0100
1030
0000
,
0200
1000
0310
0000
,
1000
1000
1000
0000
,
0100
0100
0100
0000
,
0010
1000
0010
0000
,
1001
0000
0000
0010
,
0100
0100
0100
0100
,
0020
0000
1030
0000
,
0001
0001
0001
0001
,
0002
0000
1003
0000
,
0100
0100
0100
0100
,
0200
0000
1300
0000
,
0010
0010
0010
0010
,
0020
0000
1030
0000
,
0001
0000
0001
0000
,
0100
0100
0010
0000
,
1000
0000
1000
0000
,
0010
0010
0010
0000
,
0100
0001
0100
0000
,
0010
1000
0010
0000
,
1000
0001
1000
0000
,
0010
0100
0010
0000
,
1000
1000
0010
0010
,
0100
0100
0001
0001
,
1000
1000
0010
0010
,
0100
0100
1000
1000
,
0001
0001
0010
0010
,
0100
0100
1000
1000
,
0010
0010
0020
0030
,
0000
0000
0000
0110
,
0001
1000
0001
0010
,
0100
1000
0001
0100
,
0010
1000
0001
0010
,
0100
1000
0010
1000
,
0001
0100
0010
1000
,
0001
0010
0100
1000
,
0010
0100
0001
1000
,
0100
0100
0100
0100
,
0020
1000
0130
0000
,
0002
1000
0013
0000
,
2000
0100
3010
0000
,
0200
0010
0301
0000
,
0002
0010
1003
0000
,
0200
1000
0310
0000
,
2000
0100
3010
0000
,
0002
0010
1003
0000
,
0100
0100
0010
0000
,
1000
1000
0010
0000
,
0001
0001
0010
0000
,
1000
0100
1000
0000
,
0010
0100
0010
0000
,
0001
0100
0001
0000
,
0010
0010
0010
0000
,
0100
0100
0100
0100
,
0000
0020
0000
0000
,
0000
0000
0000
0000
,
0030
0000
0000
0000
;

//---------------dance-single - Copied from----------------
#NOTES:
     dance-single:
     Copied from:
     Beginner:
     2:
     0.174613,0.204066,0.000000,0.042148,0.000000,174.000000,174.000000,0.000000,6.000000,0.000000,0.000000,0.174613,0.204066,0.000000,0.042148,0.000000,174.000000,174.000000,0.000000,6.000000,0.000000,0.000000:
0000
0000
0000
0000
,
1000
0000
1000
0000
,
0010
0000
0010
0000
,
0100
0000
0100
0000
,
1000
0000
1000
0000
,
0001
0000
0001
0000
,
1000
0000
1000
0000
,
0010
0000
0010
0000
,
0100
0100
0100
0000
,
0010
0000
0010
0000
,
1000
0000
1000
0000
,
0001
0000
0001
0000
,
0100
0000
0100
0000
,
1000
0010
1000
0000
,
0100
0001
0100
0000
,
1000
0001
1000
0000
,
0010
0000
0000
0000
,
0010
0000
0010
0000
,
0100
0000
0100
0000
,
1000
0000
1000
0000
,
0010
0000
0010
0000
,
1000
0000
1000
0000
,
0001
0000
0001
0000
,
0100
0000
0100
0000
,
0010
0000
0010
0000
,
1000
1000
0100
0000
,
0010
0001
0010
0000
,
0100
0100
0010
0000
,
1000
0001
1000
0000
,
0010
0000
0010
0000
,
0100
0000
0100
0000
,
1000
0000
1000
0000
,
0000
0000
0000
0000
,
0010
0010
0010
0000
,
0020
0000
0000
0030
,
1000
1000
1000
0000
,
2000
0000
0000
3000
,
0010
0010
0010
0000
,
0020
0000
0000
0030
,
0100
0100
0100
0000
,
0200
0000
0000
0300
,
0002
0000
0000
0000
,
0003
0000
1000
0000
,
0010
0000
0010
0000
,
0100
0000
0100
0000
,
0001
0000
0001
0000
,
1000
0000
1000
0000
,
0010
0000
0010
0000
,
0100
0000
0100
0000
,
1000
0000
1000
0000
,
0010
0000
0100
0000
,
0010
0000
1000
0000
,
0001
0000
1000
0000
,
0010
0000
0010
0000
,
0100
0000
0100
0000
,
1000
0000
1000
0000
,
0000
0000
0000
0000
,
0010
0010
0100
0000
,
0001
1000
0001
0000
,
0100
0100
0010
0000
,
0001
0010
0001
0000
,
0100
1000
0100
0000
,
0010
0100
0010
0000
,
1000
0001
1000
0000
,
0010
0000
0010
0000
,
1000
0000
1000
0000
,
0010
0000
0010
0000
,
0001
0000
0001
0000
,
1000
0000
1000
0000
,
0100
0000
0100
0000
,
0010
0000
0010
0000
,
1000
0000
1000
0000
,
0001
0000
0001
0000
,
0010
0010
0010
0000
,
0100
0100
0100
0000
,
1000
1000
1000
0000
,
0001
0000
0001
0000
,
0100
0100
0100
0000
,
0010
0000
0010
0000
,
1000
1000
1000
0000
,
0010
0000
0010
0000
,
0000
0002
0000
0000
,
0000
0000
0000
0000
,
0003
0000
0000
0000
;
