#TITLE:A-ing;
#SUBTITLE:(Listen to My Word);
#ARTIST:OH MY GIRL;
#TITLETRANSLIT:;
#SUBTITLETRANSLIT:;
#ARTISTTRANSLIT:;
#GENRE:;
#CREDIT:;
#BANNER:AV.avi;
#BACKGROUND:bg.png;
#LYRICSPATH:;
#CDTITLE:;
#MUSIC:audio.mp3;
#OFFSET:-0.820000;
#SAMPLESTART:47.959999;
#SAMPLELENGTH:16.000000;
#SELECTABLE:YES;
#BPMS:0.000000=99.989998
,78.000000=49.994999
,79.000000=99.989998
,111.000000=49.994999
,123.000000=24.997000
,124.000000=99.995003
,152.000000=49.994999
,160.000000=99.989998
;
#STOPS:
;
#BGCHANGES:2.500=MV.avi=1.000=0=0=1=====,
99999=-nosongbg-=1.000=0=0=0 // don't automatically add -songbackground-
;
#KEYSOUNDS:;
#ATTACKS:;

//---------------dance-single - ----------------
#NOTES:
     dance-single:
     :
     Challenge:
     15:
     0.876039,1.022294,2.175727,1.065510,0.774917,823.000000,531.000000,292.000000,143.000000,0.000000,91.000000,0.876039,1.022294,2.175727,1.065510,0.774917,823.000000,531.000000,292.000000,143.000000,0.000000,91.000000:
0000
0000
0000
0000
,
0000
0000
0000
0000
,
1001
0000
0000
0000
0000
0000
1001
0000
0000
0000
0000
0000
1001
0000
0000
0000
0110
0000
1000
0001
0010
0000
1100
0000
0001
0000
0000
0000
0110
0000
0000
0000
,
1002
0000
0000
0000
0000
0000
0110
0000
0000
0000
0000
0000
1010
0000
0000
0000
0113
0000
1000
0001
0100
0000
1001
0000
0000
0000
0000
0000
0110
0000
0000
0000
,
1001
0000
0100
0011
1100
0001
1100
0010
1001
0000
0100
0011
1100
0000
0110
0000
,
1001
0000
0010
1100
0011
1000
0110
0001
1010
0000
0100
0011
1100
0000
0110
0000
,
1002
0000
0003
1100
0000
0000
0110
0000
1001
0000
0000
1001
0000
0000
0110
0000
,
1020
0000
0030
0000
0200
0000
1301
0000
0020
0000
0030
0000
0201
0000
0300
0000
0020
0000
1030
0001
0200
0000
1300
0000
0020
0000
0031
0000
0100
0000
0010
0000
,
1100
0001
1000
0101
1010
0100
1001
0100
0011
0000
0010
1100
0011
0000
2001
3100
,
1010
0001
1000
0011
1100
0000
0101
0010
1001
0000
0010
1100
0011
0000
1001
0100
,
1010
0001
0010
1100
0011
0000
1010
0100
1001
0000
0010
1100
0011
0000
1001
0000
,
1010
0000
0100
0000
0010
0000
1100
0000
0011
0000
0000
0000
1010
0000
0100
0000
0011
0000
1000
0001
0100
0000
0010
0000
1100
0000
0000
0000
0110
0000
0000
0000
,
1001
0000
0000
0011
1100
0000
0110
0001
1100
0000
0010
1000
0110
0000
0001
1000
,
0110
0000
1000
0011
1100
0000
0110
0001
1010
0000
0001
1100
0011
0000
0100
0000
,
0110
0000
0000
0110
0000
0000
0011
0000
0110
0000
0000
0110
0000
0000
0011
0000
,
0110
0000
0000
0000
0000
0000
0110
0000
0000
0000
0000
0000
0011
0000
0000
0000
1001
0000
0100
0010
1000
0000
0100
0000
0001
0000
0000
0000
0100
0000
0000
0000
,
0210
0000
0300
0011
1100
0000
0110
1000
0101
0000
1000
0011
1100
0000
0110
0000
,
1001
0000
0010
1100
0011
0000
0110
0001
1100
0000
1002
0110
1013
0000
0102
0000
,
1103
0000
0010
1100
0011
0000
1010
0001
1100
0000
0001
1010
0101
0000
0110
0002
,
0020
0030
2000
3000
0020
0030
2000
3000
0023
2030
3200
0320
1032
0000
0003
1100
,
0011
0000
1010
0100
1001
0000
0001
1100
0011
0000
0110
0000
1001
0000
0100
0011
,
1100
0000
0110
1000
0101
0000
0010
1100
0011
0000
0120
0000
1031
0000
0100
0011
,
1100
0000
0110
0001
1010
0000
0001
1100
0011
0000
0110
0000
1002
0000
0003
0110
,
1001
0000
0000
0000
0110
0000
1000
0000
0000
0000
1000
0001
0100
0000
0010
0000
0100
0000
0000
0000
0001
0000
0000
0000
2010
0000
0000
0000
3000
0000
0011
0000
,
1100
0000
0110
1000
0101
0000
0010
1100
0011
0000
0110
0000
2001
0000
3000
0011
,
1100
0000
0110
0001
1010
0000
0001
0110
1001
0000
0110
0000
1001
0000
0200
1001
,
0300
0000
0120
0000
1130
0000
0000
1100
0000
0000
0110
0000
1001
0000
1001
0000
,
1001
0000
0000
0000
0100
0000
0020
0000
0002
0030
0100
0010
2000
0000
0010
0000
3200
0000
0000
0000
0323
0000
0000
0000
1230
0000
0300
0002
0110
0000
2003
0000
,
3210
0000
0000
0320
1001
0000
0000
0000
1130
0000
0002
0000
2103
3020
0000
0230
1001
0000
0302
0000
1203
0000
0320
0000
0231
0000
0000
2300
0011
0000
3200
0000
,
0321
0000
0000
0032
1100
0000
0000
0000
0113
0000
2000
0000
3021
0230
0000
0302
1010
0000
0203
0000
0321
0000
2030
0000
0110
0000
0011
0000
0110
0000
0011
0000
,
0110
0000
0000
0000
3012
0000
0000
0000
0123
0000
0000
0000
2030
0000
0000
0000
0010
0000
0100
0000
0001
0000
0100
0000
0010
0000
0100
0000
0001
0000
3100
0000
0020
0000
0000
0000
2000
0000
0000
0000
3200
0000
0000
0000
2330
0000
0000
0000
3102
0000
0000
0010
0100
0000
1000
0000
0010
0000
0000
0100
0010
0000
0100
0000
,
1103
0000
0010
1001
0110
0000
0011
0100
1010
0000
2000
0101
3020
0030
0102
0023
,
1100
0000
0000
0101
1100
0000
0131
1000
0101
0000
1000
0110
1001
0000
0021
0000
,
2130
0000
0000
0000
3000
0000
0011
0000
2100
0000
0000
0000
3021
0000
0230
0000
0000
0000
0001
1000
0320
0000
0001
0000
1000
0000
0000
0000
1000
0000
0030
0000
,
0201
0000
0300
1001
0110
0000
0011
0100
1010
0000
2000
3110
1020
0230
1310
0002
,
1100
0000
0000
1010
0110
0000
1103
0010
0101
0000
0002
1010
1203
0320
1100
0032
,
1100
0000
0010
1100
0003
0000
0011
0000
0110
0000
0000
0110
0000
0000
0011
0000
,
1100
0000
0000
0000
1100
0000
0000
0000
1100
0000
0000
0000
0010
0000
0002
0000
1000
0000
0010
1003
0100
0000
0001
0000
0020
0000
0000
0000
0032
0000
0000
0000
,
2013
0000
0000
0010
3200
0000
0302
0023
1000
0000
0032
0010
0103
0000
0021
0000
2130
0000
0000
3010
0200
0000
0302
0023
1000
0000
2030
3010
0100
0000
0002
0000
,
1010
0000
0000
0000
2003
0000
0100
0000
3020
0000
0000
0000
0230
0000
2300
0000
0001
0000
0000
0000
3002
0000
1000
0000
0023
0000
0000
0000
2130
0000
0000
0000
3012
0000
0000
0000
0003
0000
0010
0000
0200
0000
0000
0000
0302
0000
0023
0000
0000
0000
1000
0100
0032
0000
0010
0000
0103
0000
0000
0000
0002
0000
0000
0000
,
1023
0000
0000
0101
1031
0000
0002
0023
1100
0030
0002
0110
1013
0000
0012
0000
,
2103
0000
0000
0110
3102
0000
2013
3200
0011
0300
0002
0110
1103
0000
0012
0000
,
0213
0300
0002
0110
0000
0003
1010
0000
1100
0000
0000
1100
0000
0000
0110
0000
,
1001
0000
0000
0000
1001
0000
0000
0000
1001
0000
0000
0000
1100
0000
0012
0000
0000
0000
1000
0100
0010
0000
1003
0000
0100
0000
0000
0000
0010
0000
0000
0000
,
1001
0000
0200
1001
0300
0000
0012
0000
1103
0000
0001
1100
0010
0000
0110
1000
,
0201
0000
0300
0000
0020
0000
1001
0000
0230
0000
0300
0000
1020
0000
0030
0000
0201
0000
1300
0001
0020
0000
1031
0000
0200
0000
0300
0000
1020
0000
0000
0000
,
1032
0000
0023
1100
0030
0000
2100
0000
3110
0000
0001
0110
1000
0100
1001
0020
,
1100
0101
1100
0101
0232
0000
0000
0000
,
0000
0000
0000
0000
,
0303
0000
0000
0000
;

//---------------dance-single - Copied from----------------
#NOTES:
     dance-single:
     Copied from:
     Hard:
     10:
     0.402361,0.418800,0.067060,0.424714,0.286868,378.000000,369.000000,9.000000,57.000000,0.000000,0.000000,0.402361,0.418800,0.067060,0.424714,0.286868,378.000000,369.000000,9.000000,57.000000,0.000000,0.000000:
// measure 0
0000
0000
0000
0000
,  // measure 1
0000
0000
0000
0000
,  // measure 2
1000
0000
0000
1000
0000
0000
1000
0000
0010
0000
0000
0010
0000
0000
0010
0000
,  // measure 3
0100
0000
0001
0000
0100
0000
0010
0000
0100
0010
0100
0000
1000
0000
0100
0000
,  // measure 4
1000
0000
1000
0100
0010
0001
0010
0100
0010
0000
0200
0000
0320
0000
0000
0030
,  // measure 5
0000
0000
1000
0100
0010
0001
0010
0100
0010
0000
0200
0000
0320
0000
0000
0030
,  // measure 6
1000
0000
0000
1000
0000
0000
1010
0000
0001
0000
0000
0001
0000
0000
0101
0000
,  // measure 7
2000
3000
0002
0003
2000
3000
0002
0003
2000
3000
0002
0003
0200
0300
1000
0100
,  // measure 8
0010
0001
0010
0100
1000
0100
0010
0200
0000
0300
0020
0000
0030
0000
1000
0100
,  // measure 9
0010
0001
0010
0100
1000
0000
0010
0200
0000
0300
0020
0000
0030
0000
0001
0010
,  // measure 10
0100
1000
0100
0010
0100
0000
0010
0200
0000
0300
0020
0000
0030
0000
1000
0000
,  // measure 11
1000
0100
0010
0001
0010
0000
0100
0020
0000
0030
0000
0000
1000
0000
0100
0000
,  // measure 12
0010
0000
0000
0010
0100
0000
0010
0000
0100
0000
1000
0000
0010
0000
1000
0000
,  // measure 13
0010
0000
1000
0100
0010
0000
0010
0100
1000
0000
0001
0000
0010
0000
0100
0000
,  // measure 14
1000
0000
0000
1000
0000
0000
1000
0000
0010
0000
0000
0010
0000
0000
0010
0000
,  // measure 15
0100
0000
0000
0100
0000
0000
0100
0000
0100
0010
0100
0010
0100
0000
0010
0000
,  // measure 16
0001
0000
0000
0001
0010
0000
0001
0000
0010
0000
0000
0100
1000
0000
0100
0000
,  // measure 17
1000
0000
0000
0001
0010
0000
0001
0000
0010
0000
0000
1000
0100
0000
1000
0000
,  // measure 18
0100
0000
0000
0100
0010
0000
0010
0000
0100
0000
0000
0010
0100
0000
0010
0000
,  // measure 19
0100
0010
0100
0010
0100
0000
0010
1000
,  // measure 20
0010
0100
0002
0000
0013
0000
0010
1000
,  // measure 21
0001
1000
0010
0100
0010
0000
0001
1000
,  // measure 22
0100
0010
0001
1000
0100
1000
0020
0000
,  // measure 23
0130
0001
1000
0000
1001
0000
0010
1000
,  // measure 24
0001
1000
0020
0000
0130
0000
0001
1000
,  // measure 25
0100
0000
1000
0000
0002
0000
0000
0000
0013
0000
0000
0000
1000
0000
0000
1000
,  // measure 26
0000
0000
0010
0000
0100
0000
0000
0100
0000
0000
0001
0000
1000
0000
1000
0000
,  // measure 27
1000
0000
0010
0100
0000
0000
0001
0000
1000
0000
0100
0000
0020
0000
0130
0000
,  // measure 28
0002
1003
2000
3010
0020
0130
0002
0013
,  // measure 29
2000
0000
3001
0000
0020
0000
0130
0000
2000
0000
3001
0000
0001
1000
0001
1000
,  // measure 30
0001
1000
0001
1000
0010
0100
0001
1000
0200
0000
0000
0000
0320
0000
0000
0000
,  // measure 31
0031
0000
1000
0000
0010
0000
0100
0001
0100
0000
1000
0010
1000
0000
0010
0000
,  // measure 32
0100
0000
0001
0100
0001
0000
1000
0010
1000
0000
0100
0010
0100
0000
0001
0000
,  // measure 33
1000
0000
0000
0010
1000
0000
0010
0100
0000
0100
0001
0100
0001
0000
1000
0000
,  // measure 34
0010
0000
0100
0010
0100
0000
1000
0001
1000
0000
0010
0000
0100
0000
0001
0000
,  // measure 35
1000
0000
0001
0100
0001
0000
1000
0010
1000
0000
0010
0000
0100
0000
0010
0000
,  // measure 36
1000
0000
0000
1000
0000
0000
0100
0000
0010
0000
0000
0010
0000
0000
0010
0000
,  // measure 37
1000
0000
0001
0000
1000
0000
0010
0200
0000
0000
0000
0000
0302
0000
0203
0000
,  // measure 38
0320
1030
0002
0013
2000
3010
0020
0130
,  // measure 39
0002
1003
0020
1030
0200
1300
0020
1030
,  // measure 40
1002
0000
0000
0000
0013
0000
1000
0100
1000
0000
0001
0010
0001
0000
0010
0000
,  // measure 41
0002
0000
0000
0000
0013
0000
0100
0001
0100
0000
1000
0010
1000
0000
0001
0000
,  // measure 42
0100
0000
0000
0100
0000
0000
1001
0000
1000
0000
0000
1000
0000
0000
0110
0000
,  // measure 43
1000
0000
0001
0000
1000
0000
0020
0230
0000
0000
0300
0000
0000
0000
1000
0000
,  // measure 44
0001
0000
0100
0010
0100
0000
0001
0000
0010
0000
0000
0010
0000
0000
0010
0000
,  // measure 45
2000
3000
0002
0003
2000
3000
0002
0003
2000
3000
0002
0003
2000
3000
0002
0003
,  // measure 46
1000
0000
0000
1000
0000
0000
0110
0000
1000
0000
0000
1000
0000
0000
1001
0000
,  // measure 47
1000
0001
1000
0001
2002
0000
0000
0000
,  // measure 48
0000
0000
0000
0000
0000
0000
0000
3003
;

//---------------dance-single - Copied from Copied f----------------
#NOTES:
     dance-single:
     Copied from Copied f:
     Medium:
     6:
     0.267176,0.283143,0.000000,0.201180,0.067060,251.000000,251.000000,0.000000,27.000000,0.000000,0.000000,0.267176,0.283143,0.000000,0.201180,0.067060,251.000000,251.000000,0.000000,27.000000,0.000000,0.000000:
0000
0000
0000
0000
,
0000
0000
0000
0000
,
1000
0000
0000
1000
0000
0000
1000
0000
0100
0000
0000
0100
0000
0000
0100
0000
,
0001
0000
0000
0001
0000
0000
0001
0000
0100
0000
0000
0100
0000
0000
0001
0000
,
0010
0100
0001
1000
0020
0000
0130
0000
,
1000
0001
0100
0010
2000
0000
3001
0000
,
0100
0000
0000
0100
0000
0000
0010
0000
0001
0000
0000
0001
0000
0000
0010
0000
,
0200
0300
0020
0030
0200
0300
0020
0030
0200
0300
0020
0030
0200
0300
0020
0030
,
1000
0001
1000
0001
0200
0000
0301
0000
,
0010
0100
0001
0100
0020
0000
0130
0000
,
1000
0001
0100
0010
2000
0000
3001
0000
,
0100
0010
0100
0001
0200
0000
0310
1000
,
0002
0103
2000
3010
,
0100
0001
1000
0010
0200
0000
0310
0000
,
0001
0000
0000
0001
0000
0000
1000
0000
0010
0000
0000
0010
0000
0000
0100
0000
,
0001
0000
0000
0001
0000
0000
0100
0000
0010
0000
1000
0000
0001
0000
0100
0000
,
0020
0000
1030
0001
0200
0000
0310
1000
,
0001
0100
0010
1000
0002
0000
0103
0000
,
1000
0010
0100
0000
1000
0001
0100
0000
,
0001
0010
0100
1000
0020
0000
0130
0000
,
1000
0000
0000
0100
0000
0000
0010
0000
0000
0000
0001
0000
0010
0000
0100
0000
,
0001
0000
1000
0010
0000
0000
0100
0000
0000
0000
1000
0000
0000
0000
0001
0000
,
0100
0000
0100
0010
0000
0000
0001
0000
0010
0000
0100
0000
0001
0000
0000
0000
,
1000
0000
0010
0100
0000
0000
0001
0000
0000
0000
1000
0000
0010
0000
0000
0000
,
0010
0000
0100
0001
0000
0000
0100
0000
0000
0000
1000
0000
0100
0000
0000
0000
,
0010
0000
0100
0010
0000
0000
0100
0000
0000
0000
0001
0000
1000
0000
0000
1000
,
0000
0000
0010
0000
0100
0000
0000
0100
0000
0000
0010
0000
0001
0000
0001
0000
,
0001
0000
0100
0010
0000
0000
1000
0000
0100
0000
0010
0000
0001
0000
0000
0000
,
0010
1000
0100
0100
,
1000
0100
1000
0100
,
0100
0000
1000
1000
1000
0000
2000
0000
,
3100
0010
0010
0000
,
1000
0001
1000
0010
,
1000
1000
0100
0100
,
0010
0010
1000
1000
,
0001
0001
0010
0010
,
1000
0010
1000
0000
0001
1000
0001
0000
,
0010
0001
0010
0001
0010
0000
0000
0000
,
1000
2000
3000
0000
0010
0020
0030
0000
,
0001
0002
0003
0000
1000
2000
3000
0000
,
1000
0000
0001
0000
1000
0001
1000
0000
,
0010
0000
0001
0000
0010
0001
0010
0000
,
0100
0100
1000
1000
,
0001
1000
0001
1000
0002
0000
0000
0000
,
1003
0010
1000
0001
,
1000
0001
1000
0001
1000
0001
1000
0000
,
0010
0010
1000
1000
,
1000
0001
1000
0001
1000
0000
0000
0000
;

//---------------dance-single - Copied from Copied f----------------
#NOTES:
     dance-single:
     Copied from Copied f:
     Easy:
     5:
     0.222469,0.265475,0.029804,0.223534,0.014902,209.000000,205.000000,4.000000,30.000000,0.000000,0.000000,0.222469,0.265475,0.029804,0.223534,0.014902,209.000000,205.000000,4.000000,30.000000,0.000000,0.000000:
0000
0000
0000
0000
,
0000
0000
0000
0000
,
1000
0000
0000
1000
0010
0000
0000
0001
,
0100
0100
0100
0010
,
1000
1000
0100
0100
,
0010
0100
0010
0000
0001
1000
0001
0000
,
0100
0100
1000
1000
,
0100
0010
0100
0000
0001
1000
0001
0000
,
0100
0010
1000
0000
0002
0000
0103
0000
,
1000
0001
1000
0000
0200
0000
0310
0000
,
1000
0010
0100
0000
0002
0000
0103
0000
,
1000
0001
1000
0000
0020
0000
0130
0000
,
2000
3001
0020
0130
,
2000
3001
0002
0103
,
0100
0010
0100
0000
1000
0001
1000
0000
,
0010
0100
0002
0103
,
2000
3001
0020
0130
,
1000
0001
1000
0000
0002
0000
0103
0000
,
0200
0310
0020
0130
,
1000
0001
1000
0001
2000
0000
3001
0000
,
0010
0000
0100
0000
0001
1000
0020
0000
,
0130
0000
1000
0000
0001
0100
0002
0000
,
1003
0200
0310
1001
,
0000
0110
0110
2000
,
3001
0000
0100
0010
0100
0000
0002
0000
,
0103
0000
0010
0100
0010
0000
1000
0000
,
1000
0000
0001
0000
0001
0000
0100
0010
,
0100
0010
0200
0000
0000
0000
0310
0000
,
1000
0100
0010
0001
,
0100
0000
0000
0000
0010
0000
0000
0000
1000
0000
0000
0000
0001
1000
0001
1000
,
0001
1000
0001
1000
0002
0000
0000
0000
0003
0000
0000
0000
0220
0000
0000
0000
,
0330
1000
0010
0100
,
0001
0100
0001
0000
1000
0010
1000
0000
,
0010
0100
0002
1003
,
0100
0000
0010
1000
0002
0000
0103
0000
,
1000
0000
0010
0100
0020
0000
0130
0000
,
1000
1000
0100
0100
,
0010
0010
0020
0000
,
0130
0000
1000
0000
,
0100
0000
0010
0010
,
1000
0100
0010
1000
,
0001
0100
0010
1000
,
0100
0100
0010
0010
,
0001
0000
0000
0000
0001
0000
0000
0000
0002
0000
0000
0000
0000
0003
0000
0000
,
0100
0100
0010
0010
,
1000
1000
0100
0100
,
0010
0100
0001
1000
,
0100
0000
0000
0000
0000
0000
0000
0000
0000
0000
0000
0000
0000
0000
0000
0000
0000
0000
0000
0000
0000
0000
0000
0000
0100
0000
0000
0000
0000
0000
0000
0000
0000
0000
0000
0000
0000
0000
0000
0000
0000
0000
0000
0000
0000
0000
0000
0000
0100
0000
0000
0000
0000
0000
0000
0000
0000
0000
0000
0000
0000
0000
0000
0000
0000
0000
0000
0000
0000
0000
0000
0000
0100
0000
0000
0000
0000
0000
0000
0000
0000
0000
0000
0000
0000
0000
0000
0000
0000
0000
0000
0000
0000
0000
0000
0000
0020
0030
0000
0000
0000
0000
0000
0000
0000
0000
0000
0000
0000
0000
0000
0000
0000
0000
0000
0000
0000
0000
0000
0000
0000
0000
0000
0000
0000
0000
0000
0000
0000
0000
0000
0000
0000
0000
0000
0000
0000
0000
0000
0000
0000
0000
0000
0000
0000
0000
0000
0000
0000
0000
0000
0000
0000
0000
0000
0000
0000
0000
0000
0000
0000
0000
0000
0000
0000
0000
0000
0000
0000
0000
0000
0000
0000
0000
0000
0000
0000
0000
0000
0000
0000
0000
0000
0000
0000
0000
0000
0000
0000
0000
0000
0000
;

//---------------dance-single - Copied from Copied f----------------
#NOTES:
     dance-single:
     Copied from Copied f:
     Beginner:
     2:
     0.146894,0.159268,0.000000,0.089413,0.000000,138.000000,138.000000,0.000000,12.000000,0.000000,0.000000,0.146894,0.159268,0.000000,0.089413,0.000000,138.000000,138.000000,0.000000,12.000000,0.000000,0.000000:
0000
0000
0000
0000
,
0000
0000
0000
0000
,
1000
0000
0001
0000
,
1000
1000
0100
0100
,
0010
0010
0100
0000
,
0001
0001
1000
0000
,
0100
0100
0010
0010
,
1000
1000
0001
0000
,
0100
0100
0020
0030
,
0001
0001
2000
3000
,
0100
0100
0020
0030
,
0001
0001
2000
3000
,
0100
0100
0010
0010
,
0001
0001
1000
1000
,
0100
0100
0020
0030
,
1000
1000
0002
0003
,
0100
0010
0200
0300
,
0001
1000
0002
0003
,
0100
0010
1000
0001
,
0200
0000
0300
1000
,
0100
0010
0000
0001
,
0010
0100
0000
1000
,
0001
1000
0000
0010
,
0100
0010
0000
1000
,
0001
1000
0000
0010
,
0100
0010
0000
0001
,
0001
1000
1000
0100
,
0100
0100
0000
1000
,
0100
0010
0001
0100
,
1000
0100
0010
2000
,
0000
0000
3000
0002
,
0003
0100
0010
1000
,
0001
0100
0010
1000
,
1000
0000
1000
1000
,
0100
0100
0010
0000
,
0001
0001
0100
0000
,
1000
1000
0001
0001
,
0100
0010
0100
0000
,
1000
0000
1000
0000
,
0010
0000
0010
0000
,
0001
0000
0100
0000
,
0010
0000
1000
0000
,
0100
0100
0010
0010
,
0100
0100
0100
0000
,
0001
0000
1000
0000
,
0010
0100
0010
0000
,
0001
1000
0001
0000
,
0200
0000
0300
0000
;
