#TITLE:two;
#SUBTITLE:;
#ARTIST:bbno$;
#TITLETRANSLIT:;
#SUBTITLETRANSLIT:;
#ARTISTTRANSLIT:;
#GENRE:;
#CREDIT:;
#BANNER:AV.avi;
#BACKGROUND:bg.png;
#LYRICSPATH:;
#CDTITLE:;
#MUSIC:two.mp3;
#OFFSET:-0.038000;
#SAMPLESTART:46.912994;
#SAMPLELENGTH:12.000000;
#SELECTABLE:YES;
#BPMS:0.000000=128.000000
;
#STOPS:85.000000=-5.625000,
97.500000=-5.625000,
110.000000=-5.625000,
122.500000=-5.625000,
135.000000=-5.625000,
147.500000=-5.625000
;
#BGCHANGES:;
#KEYSOUNDS:;
#ATTACKS:;

//---------------dance-single - ----------------
#NOTES:
     dance-single:
     :
     Challenge:
     1:
     0.180567,0.350641,0.073916,0.000000,0.266099,171.000000,161.000000,10.000000,0.000000,0.000000,0.000000,0.180567,0.350641,0.073916,0.000000,0.266099,171.000000,161.000000,10.000000,0.000000,0.000000,0.000000:
0000
0000
0000
0000
,
0000
0000
0000
0000
,
0000
0000
0000
0000
,
0000
0000
0000
0000
,
0000
1001
1100
0011
,
1001
0000
1000
0100
1000
0010
0100
0001
,
1000
0100
0010
0000
0001
0000
1000
0000
0001
0000
1000
0010
0100
0000
0001
0000
,
1000
0100
0001
0000
0100
0000
0010
0000
0100
0000
1000
0001
1000
0000
0100
0000
,
0010
0001
0100
0000
0001
0000
1000
0000
0001
0100
1000
0100
0010
1000
0010
0100
,
0000
0000
0001
0000
0010
0000
0100
0000
1000
0000
0001
0010
1000
0010
0100
1000
,
0000
0000
1000
0001
0100
0000
0100
0000
0001
0000
0100
0000
0001
0100
0010
1000
,
0000
0000
0001
0000
1000
0000
1000
0000
0001
0000
0100
0000
0010
1000
0010
1000
,
0100
0010
0100
0010
0001
0000
1000
0000
0010
1000
0000
1000
0000
0100
0000
0010
,
0001
0000
1000
0000
0010
0000
1000
0000
0001
0010
0000
0010
0000
0100
0000
1000
,
0001
0000
1000
0000
0001
0000
0010
0000
0100
1000
0100
0010
0000
0100
0010
0001
,
1000
0000
0100
0000
0001
0000
0100
0000
1000
0001
0010
0100
0000
0010
0001
1000
,
0100
1000
0010
0000
1001
0000
0000
0000
,
0100
1000
0010
0000
0110
0000
0000
0000
,
1000
0000
0001
0000
0001
0000
1000
0000
0010
0100
1000
0100
0010
0000
0100
0000
,
0001
1000
0100
0000
0000
0000
0000
0000
,
0000
1100
1100
0011
,
0011
0000
1000
1000
1000
1000
1000
1000
,
1000
0000
0010
0100
0001
0100
0010
1000
0001
0000
1000
0000
0100
0010
0100
0010
,
0001
1000
0010
0000
0000
0000
0000
0000
,
0000
0000
1000
0001
0001
0001
0001
0001
,
0001
0000
0100
0010
1000
0010
0100
0001
1000
0000
0001
0000
0010
0100
0010
0100
,
1000
0001
0100
0000
0000
0000
0000
0000
,
0000
0000
0000
0001
1000
1000
1000
1000
,
1000
0000
0010
0100
0001
0100
0010
1000
0001
0000
1000
0000
0100
0010
0100
0010
,
0001
1000
0010
0000
0000
0000
0000
0000
,
0000
0000
0000
0000
1000
0001
0001
0001
,
0001
0000
0100
0010
1000
0010
0100
0001
1000
0000
0001
0000
0010
0100
0010
0100
,
1000
0001
0100
0000
0000
0000
0000
0000
,
0000
0000
0000
0000
0000
0001
1000
1000
,
1000
0000
0010
0100
0001
0100
0010
1000
0001
0000
1000
0000
0100
0010
0100
0010
,
0001
1000
0010
0000
0000
0000
0000
0000
,
0000
0000
0000
0000
0000
0000
1000
0001
,
0001
0000
0100
0010
1000
0010
0100
0001
1000
0000
0001
0000
0010
0100
0010
0100
,
1000
0001
0100
0000
0000
0000
0000
0000
,
0000
0000
0000
0000
0000
0000
0000
0001
,
1000
0000
0010
0100
0001
0100
0010
1000
0001
0000
1000
0000
0100
0010
0100
0010
,
0001
0001
1000
0000
0000
0000
0000
0000
;

//---------------dance-single - ----------------
#NOTES:
     dance-single:
     :
     Hard:
     1:
     0.001056,0.000000,0.000000,0.000000,0.000000,1.000000,1.000000,0.000000,0.000000,0.000000,0.000000,0.001056,0.000000,0.000000,0.000000,0.000000,1.000000,1.000000,0.000000,0.000000,0.000000,0.000000:
// measure 0
1000
0000
0000
0000
;
