#VERSION:0.83;
#TITLE:Eight;
#SUBTITLE:;
#ARTIST:IU Prod.&Feat. SUGA of BTS;
#TITLETRANSLIT:;
#SUBTITLETRANSLIT:;
#ARTISTTRANSLIT:;
#GENRE:;
#ORIGIN:;
#CREDIT:;
#BANNER:AV.avi;
#BACKGROUND:bg.png;
#PREVIEWVID:;
#JACKET:jacket.png;
#CDIMAGE:;
#DISCIMAGE:;
#LYRICSPATH:;
#CDTITLE:;
#MUSIC:audio.ogg;
#OFFSET:-0.045000;
#SAMPLESTART:49.485012;
#SAMPLELENGTH:15.000002;
#SELECTABLE:YES;
#BPMS:0.000=120.000;
#STOPS:;
#DELAYS:;
#WARPS:;
#TIMESIGNATURES:0.000=4=4;
#TICKCOUNTS:0.000=4;
#COMBOS:0.000=1;
#SPEEDS:0.000=1.000=0.000=0;
#SCROLLS:0.000=1.000;
#FAKES:;
#LABELS:0.000=Song Start;
#BGCHANGES:0.000=MV.avi=1.000=1=0=1===CrossFade==,
99999=-nosongbg-=1.000=0=0=0 // don't automatically add -songbackground-
;
#KEYSOUNDS:;
#ATTACKS:
;

//---------------dance-single - ----------------
#NOTEDATA:;
#CHARTNAME:;
#STEPSTYPE:dance-single;
#DESCRIPTION:;
#CHARTSTYLE:Rajeious's Chart;
#DIFFICULTY:Hard;
#METER:7;
#RADARVALUES:0.387502,0.426786,0.164102,0.144796,0.062745,281.000000,264.000000,17.000000,15.000000,0.000000,0.000000,0.000000,0.000000,0.000000,0.387502,0.426786,0.164102,0.144796,0.062745,281.000000,264.000000,17.000000,15.000000,0.000000,0.000000,0.000000,0.000000,0.000000;
#CREDIT:Rajeious's Chart;
#NOTES:
// measure 0
0000
0000
0000
0000
,  // measure 1
0000
0000
0000
0000
,  // measure 2
0000
0000
0000
0000
,  // measure 3
0000
0000
0000
0000
,  // measure 4
0000
0000
0000
0000
,  // measure 5
0000
0000
0000
0000
,  // measure 6
0000
0000
0000
0000
,  // measure 7
0000
0000
0000
0000
,  // measure 8
0000
0000
0000
0000
0000
0000
0000
1000
,  // measure 9
0100
0010
0001
0000
0101
0000
1000
0100
,  // measure 10
0000
1000
0001
0010
0001
0000
0100
0001
,  // measure 11
0010
0001
1000
0000
0011
0000
0001
0010
,  // measure 12
0000
1000
0010
0010
0000
1000
0001
0001
,  // measure 13
0010
0100
0010
0000
0011
0000
1000
0100
,  // measure 14
0000
0100
1000
0010
0000
1000
0100
0010
,  // measure 15
0001
1000
0001
0000
1100
0000
0010
0100
,  // measure 16
0010
1001
0000
0000
0000
0001
0000
0001
,  // measure 17
0100
0000
1000
0000
0100
0000
0001
0000
1000
0000
0001
0010
0001
0000
0010
0000
,  // measure 18
0001
0100
0010
1000
0100
0010
0000
0001
,  // measure 19
1000
0000
0100
0000
1000
0000
0001
0000
0010
0000
0100
1000
0100
0000
1000
0000
,  // measure 20
0001
0100
0010
1000
0001
0010
0000
0010
,  // measure 21
0001
0000
0010
0000
0001
0000
0000
0000
1000
0000
0000
1000
0100
0000
0100
0000
,  // measure 22
0000
0010
0000
0010
0000
0001
0100
0010
,  // measure 23
0100
0000
0001
0000
1000
0000
0000
0000
0001
0000
0000
0001
0010
0000
0010
0000
,  // measure 24
0000
0100
0000
1000
0000
1000
0001
0010
,  // measure 25
0100
0000
1000
0000
0001
0000
0000
0000
0011
0000
0000
0100
0001
0000
1000
0000
,  // measure 26
0010
0200
0000
0301
0000
1000
0001
0010
,  // measure 27
0100
0000
0010
0000
0100
0000
0000
0000
1001
0000
0000
1000
0100
0000
0010
0000
,  // measure 28
0001
0200
0000
0301
0000
0010
0100
1000
,  // measure 29
0100
0000
0010
0000
1000
0000
0000
0000
0011
0000
0000
0100
0010
0000
1000
0000
,  // measure 30
0100
0020
0000
0031
0000
1000
0001
0100
,  // measure 31
0100
0000
0001
0000
1000
0000
0000
0000
1010
0000
0000
0100
0010
0000
0100
0000
,  // measure 32
1000
0100
0001
0000
1000
0010
1000
0001
,  // measure 33
0010
0100
1000
0000
1000
0000
0100
0000
,  // measure 34
1000
0020
0000
0130
0000
0001
0010
0100
,  // measure 35
1000
0010
0100
0000
0001
0000
1000
0000
,  // measure 36
0100
0020
0000
0031
1000
0000
1000
0100
,  // measure 37
0010
0000
0001
0000
1000
0000
0000
0000
1010
0000
0000
0100
0010
0000
1000
0000
,  // measure 38
0001
0020
0000
0031
0000
0001
0100
0010
,  // measure 39
0001
0010
0100
0000
0110
0000
0001
0100
,  // measure 40
1000
0100
0010
1000
0001
1000
0100
0010
,  // measure 41
0100
0000
1000
0000
0001
0000
0000
0000
1001
0000
0000
1000
0100
0000
0010
0000
,  // measure 42
0001
0100
0010
2000
3100
0002
0103
2000
,  // measure 43
3001
0000
0000
0000
1100
0000
0000
0000
0110
0000
0000
0001
1000
0000
0100
0000
,  // measure 44
1000
0001
0010
0200
1300
0020
0130
0002
,  // measure 45
0013
0000
0100
0000
0010
0000
0000
0000
1001
0000
0000
0100
0010
0000
1000
0000
,  // measure 46
0001
0010
0001
2000
3100
2000
3010
2000
,  // measure 47
3100
0000
0000
0000
1001
0000
0000
0000
0101
0000
0000
0100
0010
0000
0010
0000
,  // measure 48
0000
1000
0010
1000
0100
0010
0100
0010
,  // measure 49
0001
1000
0000
0000
0000
0000
0000
0000
;

//---------------dance-single - ----------------
#NOTEDATA:;
#CHARTNAME:;
#STEPSTYPE:dance-single;
#DESCRIPTION:;
#CHARTSTYLE:Rajeious's Chart;
#DIFFICULTY:Medium;
#METER:5;
#RADARVALUES:0.295108,0.381296,0.154449,0.135143,0.000000,214.000000,198.000000,16.000000,14.000000,0.000000,0.000000,0.000000,0.000000,0.000000,0.295108,0.381296,0.154449,0.135143,0.000000,214.000000,198.000000,16.000000,14.000000,0.000000,0.000000,0.000000,0.000000,0.000000;
#CREDIT:Rajeious's Chart;
#NOTES:
// measure 0
0000
0000
0000
0000
,  // measure 1
0000
0000
0000
0000
,  // measure 2
0000
0000
0000
0000
,  // measure 3
0000
0000
0000
0000
,  // measure 4
0000
0000
0000
0000
,  // measure 5
0000
0000
0000
0000
,  // measure 6
0000
0000
0000
0000
,  // measure 7
0000
0000
0000
0000
,  // measure 8
0000
0000
0000
0000
,  // measure 9
0000
0000
1000
0000
0100
0000
1000
0010
,  // measure 10
1000
0000
0001
0100
0001
0000
1000
0000
,  // measure 11
0010
0000
0010
0000
0100
0000
0001
1000
,  // measure 12
0100
0000
1000
0100
0010
0000
0001
0000
,  // measure 13
1000
0000
0100
0000
0010
0000
0001
1000
,  // measure 14
0100
0000
1000
0001
0100
0000
0010
0000
,  // measure 15
1000
0000
0010
0000
0100
0000
0001
0010
,  // measure 16
0100
1000
0000
0000
0000
0001
0000
0001
,  // measure 17
0010
0100
2000
0000
3100
0000
1000
0010
,  // measure 18
0100
0000
0001
0010
0001
0010
0000
0100
,  // measure 19
1000
0000
0020
0000
0130
0000
0001
0010
,  // measure 20
0001
0000
1000
0100
1000
0100
0000
1000
,  // measure 21
0001
0020
0000
0031
1000
0002
0000
0103
,  // measure 22
0010
0200
0000
0302
0000
0003
0000
0000
,  // measure 23
0000
2000
0000
3001
0010
0002
0000
2003
,  // measure 24
0000
3200
0000
0000
0000
0000
1300
0100
,  // measure 25
1000
0100
0010
0000
1001
0000
0020
0000
,  // measure 26
1030
0001
0000
0001
0010
0000
0001
0000
,  // measure 27
1000
0100
0010
0000
1001
0000
2000
0000
,  // measure 28
3010
1000
0000
0010
1000
0000
1000
0100
,  // measure 29
1000
0100
0010
0000
1001
0000
0200
0000
,  // measure 30
0310
1000
0000
1000
0010
0000
0010
0000
,  // measure 31
1000
0100
0010
0000
1001
0000
0010
0000
,  // measure 32
0100
1000
0010
0000
1000
0000
0001
0000
,  // measure 33
1000
0100
0010
0000
0001
0000
0000
0000
,  // measure 34
0001
1000
0000
1000
0010
0000
0000
0000
,  // measure 35
0010
1000
0001
0000
,  // measure 36
0001
1000
0000
1000
0100
0000
0000
0000
,  // measure 37
1000
0100
0010
0001
,  // measure 38
1000
0100
0000
0100
1000
0000
0010
0000
,  // measure 39
0100
0001
1000
0000
1000
0000
0010
0000
,  // measure 40
1000
0001
0000
1000
0001
1000
0000
1000
,  // measure 41
0100
0010
0001
0000
0110
0000
1010
0000
,  // measure 42
0011
0000
1000
0100
0000
0100
1000
0010
,  // measure 43
0100
1001
1100
0110
,  // measure 44
0011
0000
1000
0100
0000
0100
1000
0001
,  // measure 45
0010
0100
1000
0000
0110
0000
1001
0000
,  // measure 46
1100
0000
0001
1000
0000
1000
0100
0010
,  // measure 47
0001
0000
1100
0000
1100
0000
0001
1000
,  // measure 48
0000
1000
0100
0000
0100
0000
1000
0100
,  // measure 49
0010
0002
0000
0003
0000
0000
0000
0000
;

//---------------dance-single - ----------------
#NOTEDATA:;
#CHARTNAME:;
#STEPSTYPE:dance-single;
#DESCRIPTION:;
#CHARTSTYLE:Rajeious's Chart;
#DIFFICULTY:Easy;
#METER:3;
#RADARVALUES:0.219263,0.307450,0.222021,0.009653,0.000000,159.000000,136.000000,23.000000,1.000000,0.000000,0.000000,0.000000,0.000000,0.000000,0.219263,0.307450,0.222021,0.009653,0.000000,159.000000,136.000000,23.000000,1.000000,0.000000,0.000000,0.000000,0.000000,0.000000;
#CREDIT:Rajeious's Chart;
#NOTES:
0000
0000
0000
0000
,
0000
0000
0000
0000
,
0000
0000
0000
0000
,
0000
0000
0000
0000
,
0000
0000
0000
0000
,
0000
0000
0000
0000
,
0000
0000
0000
0000
,
0000
0000
0000
0000
,
0000
0000
0000
0000
,
0000
1000
0100
1000
,
0001
0010
0001
0100
,
0100
1000
1000
0010
,
1000
0001
0010
0100
,
0100
1000
0001
1000
,
0100
1000
0010
0100
,
0100
0001
0001
1000
,
0100
0000
0000
0000
,
0000
0001
0010
0001
,
1000
1000
0100
0000
,
1000
0001
0010
0100
,
1000
0010
0100
0000
,
1000
0001
0000
0001
,
0100
0100
0000
0100
,
0000
0010
0000
0010
,
1000
0002
0000
1003
,
0100
0010
1001
0000
,
1100
0000
0101
1000
,
0100
0010
1100
0000
,
0101
0000
1010
1000
,
0100
0010
1001
0000
,
0011
0000
1100
0001
,
0010
0100
0100
1000
,
0100
0110
1001
0000
,
1000
0100
1000
0000
,
0001
0000
1000
0000
,
0001
0100
0010
0000
,
1000
0000
0100
0000
,
1000
0100
0010
0001
,
1000
0001
0010
0100
,
1000
1000
1100
0001
,
0010
0100
0010
0010
,
0100
1000
0101
0101
,
1100
0010
1000
0100
,
1000
0100
0110
0110
,
1001
1000
0100
0010
,
0001
1000
1100
1100
,
0011
0001
0010
0100
,
1000
1000
1001
0010
,
0101
1000
0001
0100
,
0010
0000
0000
0000
;

//---------------dance-single - ----------------
#NOTEDATA:;
#CHARTNAME:;
#STEPSTYPE:dance-single;
#DESCRIPTION:;
#CHARTSTYLE:Rajeious's Chart;
#DIFFICULTY:Beginner;
#METER:2;
#RADARVALUES:0.137901,0.165550,0.000000,0.000000,0.000000,100.000000,100.000000,0.000000,0.000000,0.000000,0.000000,0.000000,0.000000,0.000000,0.137901,0.165550,0.000000,0.000000,0.000000,100.000000,100.000000,0.000000,0.000000,0.000000,0.000000,0.000000,0.000000,0.000000;
#CREDIT:Rajeious's Chart;
#NOTES:
0000
0000
0000
0000
,
0000
0000
0000
0000
,
0000
0000
0000
0000
,
0000
0000
0000
0000
,
0000
0000
0000
0000
,
0000
0000
0000
0000
,
0000
0000
0000
0000
,
0000
0000
0000
0000
,
0000
0000
0000
0000
,
0000
1000
0000
0001
,
0000
0100
0000
0010
,
0000
1000
0000
0001
,
0000
0010
0000
0001
,
0000
1000
0000
0100
,
0000
1000
0000
0010
,
0000
0100
0000
0001
,
0000
1000
0000
0000
,
0000
1000
0010
0000
,
1000
0001
0010
0000
,
1000
0100
1000
0000
,
0010
0100
0010
0000
,
1000
0001
0000
0001
,
0000
0010
0000
0010
,
0000
0100
0000
0100
,
0000
1000
0010
0000
,
1000
0000
1000
0001
,
1000
0000
0001
0100
,
0001
0000
1000
0001
,
1000
0000
0100
0001
,
1000
0000
0010
0010
,
1000
0000
0010
1000
,
0001
0000
0001
1000
,
1000
0000
0001
1000
,
1000
0000
0001
0000
,
1000
0000
0010
0000
,
0010
0000
0100
0000
,
0100
0000
0001
0000
,
0001
0000
1000
0000
,
0010
0000
1000
0000
,
0001
0000
0001
0000
,
1000
0000
0001
0000
,
1000
0000
0010
0100
,
0010
0000
1000
0001
,
1000
0000
0001
0010
,
0100
0000
1000
0100
,
0010
0000
0001
0100
,
0001
0000
1000
0100
,
1000
0000
0010
0100
,
0010
0000
1000
0001
,
1000
0000
0000
0000
;
