#TITLE:Yura Yura;
#SUBTITLE:;
#ARTIST:ZEROBASEONE;
#TITLETRANSLIT:;
#SUBTITLETRANSLIT:;
#ARTISTTRANSLIT:;
#GENRE:;
#CREDIT:;
#BANNER:AV.avi;
#BACKGROUND:bg.png;
#LYRICSPATH:;
#CDTITLE:;
#MUSIC:audio.ogg;
#OFFSET:-0.135000;
#SAMPLESTART:47.225147;
#SAMPLELENGTH:14.999995;
#SELECTABLE:YES;
#BPMS:0.000000=160.000000
;
#STOPS:
;
#BGCHANGES:0.000=MV.avi=1.000=1=0=1===CrossFade==,
99999=-nosongbg-=1.000=0=0=0 // don't automatically add -songbackground-
;
#KEYSOUNDS:;
#ATTACKS:;

//---------------dance-single - ----------------
#NOTES:
     dance-single:
     :
     Beginner:
     2:
     0.136218,0.160256,0.000000,0.096154,0.000000,119.000000,119.000000,0.000000,12.000000,0.000000,0.000000,0.136218,0.160256,0.000000,0.096154,0.000000,119.000000,119.000000,0.000000,12.000000,0.000000,0.000000:
0000
0000
0000
0000
,
0000
0000
0000
0000
,
0000
0000
0000
0000
,
0000
0000
0000
0000
,
0000
0000
0000
0000
,
0000
0000
0000
0000
,
0000
0000
0000
0000
,
1000
0000
0001
0000
,
0100
0000
0000
0000
,
0001
0000
1000
0000
,
0010
0000
0000
0000
,
0100
0000
0001
0000
,
0100
0000
0100
0000
,
0010
0000
0000
0000
,
1000
0000
1000
0000
,
0001
0000
0001
0000
,
0100
0000
0100
0000
,
0010
0000
0010
0000
,
1000
0000
0001
0000
,
1000
0000
1000
0000
,
0010
0000
0010
0000
,
0100
0000
0100
0000
,
0001
0000
0001
0000
,
0010
0000
0001
0000
,
0200
0000
0000
0000
,
0310
0000
0000
0000
,
2000
0000
0000
0000
,
3001
0000
0000
0000
,
0020
0000
0000
0000
,
0031
0000
0000
0000
,
0100
0000
0100
0000
,
0010
0000
0000
0000
,
1000
0000
0001
0000
,
0001
0000
1000
0000
,
0001
0000
0001
0000
,
0100
0000
0010
0000
,
1000
0000
1000
0000
,
0001
0000
0001
0000
,
0010
0000
0010
0000
,
0020
0000
0000
0000
,
0130
0000
0100
0000
,
0100
0000
0000
0000
,
1000
0000
1000
0000
,
1000
0000
0000
0000
,
0010
0000
0100
0000
,
0010
0000
0100
0000
,
0001
0000
0001
0000
,
2000
0000
0000
0000
,
3001
0000
0000
0000
,
0001
0000
0000
0000
,
0100
0000
0000
0000
,
0100
0000
0000
0000
,
0010
0000
0000
0000
,
0010
0000
0000
0000
,
2000
0000
0000
0000
,
3001
0000
0000
0000
,
0100
0000
0001
0000
,
0100
0000
0100
0000
,
0001
0000
0010
0000
,
0002
0000
1003
0000
,
0010
0000
0010
0000
,
0100
0000
0100
0000
,
0010
0000
0010
0000
,
0020
0000
0000
0000
,
1030
0000
1000
0000
,
0002
0000
0000
0000
,
0103
0000
0100
0000
,
0200
0000
0000
0000
,
0310
0000
0010
0000
,
1000
0000
1000
0000
,
0010
0000
0010
0000
,
0020
0000
0000
0000
,
0130
0000
0100
0000
,
0001
0000
0001
0000
,
1000
0000
1000
0000
,
0010
0000
1000
0000
,
0001
0000
0001
0000
,
0100
0000
0100
0000
,
0010
0000
0010
0000
,
2000
0000
0000
0000
,
3000
0000
0000
0000
;

//---------------dance-single - ----------------
#NOTES:
     dance-single:
     :
     Easy:
     4:
     0.217491,0.288462,0.096154,0.224359,0.000000,190.000000,178.000000,12.000000,28.000000,0.000000,0.000000,0.217491,0.288462,0.096154,0.224359,0.000000,190.000000,178.000000,12.000000,28.000000,0.000000,0.000000:
0000
0000
0000
0000
,
0000
0000
0000
0000
,
0000
0000
0000
0000
,
0000
0000
0000
0000
,
0000
0000
0000
0000
,
0000
0000
0000
0000
,
0000
0000
0000
0000
,
1000
0010
0100
0001
,
1000
0000
1000
0000
,
0001
0100
0001
0010
,
0001
0000
0001
0000
,
0100
0010
1000
1000
,
0001
0001
0100
0100
,
0001
0000
1000
0000
,
0010
1000
0001
1000
,
0010
0000
0010
0000
,
0100
0100
0010
0000
,
1000
1000
0001
0000
,
0100
0001
1000
0000
,
0001
1000
0010
1000
,
0001
0001
0100
0000
,
0001
0100
0001
0000
,
1000
1000
0010
0000
,
1000
0001
1000
1000
,
0020
0000
0000
0000
,
0130
0000
0000
0000
,
2000
0000
0000
0000
,
3001
0000
0001
0000
,
0002
0000
0000
0000
,
0203
0000
0000
0000
,
0310
0000
0010
0000
,
0010
0000
0000
0000
,
1001
0000
0001
0100
,
0002
0000
0013
0000
,
1001
0000
0010
0100
,
0020
0000
1030
0000
,
1000
0001
1000
0000
,
0001
1000
0001
0000
,
1010
0000
1010
0000
,
1020
0000
0130
0000
,
0001
1000
0001
0100
,
0002
0000
0013
0000
,
0001
0100
0010
1000
,
0002
0000
0103
0000
,
0010
1000
0020
0000
,
1030
0010
1000
0000
,
0110
0000
0110
0000
,
0120
0000
1030
0000
,
0002
0000
0000
0000
,
0013
0000
0000
0000
,
0200
0000
0000
0000
,
0310
0000
0000
0000
,
2000
0000
0000
0000
,
3001
0000
0000
0000
,
0020
0000
0000
0000
,
0130
0000
0100
0000
,
0001
1000
0001
0000
,
0100
0010
0100
0000
,
0001
0010
0001
0100
,
0010
0000
0010
0000
,
1000
0001
1000
1000
,
0001
1000
0001
0001
,
0100
0000
0100
0000
,
0110
0000
0110
0000
,
0001
0010
0001
1000
,
0002
0000
0103
0000
,
0010
1000
0001
0010
,
0200
0000
0310
0000
,
0010
1000
0020
0000
,
1030
0010
2000
0000
,
3010
0000
0110
0000
,
0120
0000
0130
0000
,
0002
0000
1003
0000
,
0020
0000
1030
0000
,
2000
0000
3001
0000
,
0200
0000
0301
0000
,
0020
0000
0031
0000
,
2000
0000
3001
0000
,
0200
0000
0301
0000
,
0001
1000
0002
0000
,
0003
0000
0000
0000
;

//---------------dance-single - ----------------
#NOTES:
     dance-single:
     :
     Medium:
     9:
     0.338828,0.480769,0.088141,0.392628,0.000000,296.000000,285.000000,11.000000,49.000000,0.000000,0.000000,0.338828,0.480769,0.088141,0.392628,0.000000,296.000000,285.000000,11.000000,49.000000,0.000000,0.000000:
0000
0000
0000
0000
,
0000
0000
0000
0000
,
0000
0000
0000
0000
,
0000
0000
0000
0000
,
0000
0000
0000
0000
,
0000
0000
0000
0000
,
0000
0000
0000
0000
,
1000
0010
0100
0001
,
0200
0000
0301
0000
,
0001
0100
0001
0010
,
0200
0000
0310
0000
,
0001
1000
0010
0100
,
0001
0000
0001
0000
0100
0000
0001
0100
,
0002
0000
0013
0000
,
0001
0000
1000
0000
0010
0000
0100
0010
,
0200
0000
0310
0010
,
1000
0001
1000
0001
0200
0000
0301
0000
,
0001
0010
0100
0010
0001
0000
1000
0000
,
0010
1000
0001
0100
0020
0000
1030
0000
,
0001
0100
0010
0100
0002
0000
0013
0000
,
0001
0010
0001
0010
0002
0000
0013
0000
,
0100
1000
0100
1000
0200
0000
1300
0000
,
0001
1000
0001
1000
0002
0000
0103
0000
,
0010
0100
0020
0000
,
2030
0000
0000
0000
,
3002
0000
0000
0000
,
0203
0000
0302
0000
,
0023
0000
0000
0000
,
0032
0000
2003
0000
,
3002
0000
0103
0000
,
0010
0100
0010
0010
,
2000
0000
3010
0100
,
0001
0100
0010
0000
1000
0001
1000
0001
,
0020
0031
0100
0010
,
1000
0000
0001
0000
0100
0001
1000
0010
,
0200
0000
0301
0000
1000
0001
1000
0000
,
0010
1000
0010
0000
0100
0000
0110
0000
,
0010
1000
0010
0000
0100
0000
0110
0000
,
0010
0000
0000
0010
0000
0000
0010
0000
,
0000
0020
0000
0000
0130
0000
0001
0000
,
0100
0000
0001
0000
0010
0001
1000
0001
,
0200
0310
1000
1000
,
0001
0000
0100
0000
0010
1000
0001
0100
,
0020
1030
0001
0001
,
0100
0001
0100
0000
0001
0000
0101
0000
,
0001
0100
0001
0000
0100
0000
0101
0000
,
0010
0000
0000
0010
0000
0000
0020
0000
,
0000
0000
0130
0001
,
2000
0000
3002
0000
,
0013
0000
0001
0100
,
0020
0000
2030
0000
,
3001
0000
0100
0000
,
0010
0010
2000
0000
,
3001
0001
0200
0000
,
0320
0000
2030
0000
,
3002
0000
0100
0103
,
0010
1000
0001
1000
0020
0000
0130
0000
,
0001
0100
0010
0100
0002
0000
0013
0000
,
0001
0000
1000
0000
0001
1000
0010
1000
,
0002
0103
0010
0010
,
1000
0010
1000
0000
0010
0000
1010
0000
,
0001
0100
0001
0000
0100
0000
0101
0000
,
0010
0000
0000
0010
0000
0000
0010
0000
,
0000
0020
0000
0000
0130
0000
0001
0000
,
0101
0000
0001
1000
0010
1000
0001
0100
,
0020
0130
0001
0010
,
0001
0000
1000
0000
0010
0100
0001
0100
,
0020
1030
0001
0100
,
0001
1000
0001
0000
0101
0000
0101
0000
,
0001
1000
0001
0000
0101
0000
0101
0000
,
0010
0000
0000
0010
0000
0000
0020
0000
,
0000
0030
0100
0100
,
0020
0000
2030
0000
,
3001
0100
0001
0010
,
0001
0100
0200
0000
,
0301
1000
0020
0000
,
1030
0001
0001
0100
,
0002
0000
2003
0000
,
3010
0100
0001
0100
,
0010
1000
0010
0000
0200
0000
0000
0000
,
0300
0000
0000
0000
;

//---------------dance-single - ----------------
#NOTES:
     dance-single:
     :
     Hard:
     12:
     0.493361,0.576923,0.216346,0.584936,0.040064,431.000000,404.000000,27.000000,73.000000,0.000000,0.000000,0.493361,0.576923,0.216346,0.584936,0.040064,431.000000,404.000000,27.000000,73.000000,0.000000,0.000000:
0000
0000
0000
0000
,
0000
0000
0000
0000
,
0000
0000
0000
0000
,
0000
0000
0000
0000
,
0000
0000
0000
0000
,
0000
0000
0000
0000
,
0000
0000
0000
0000
,
1000
0001
0100
0001
0010
0001
0100
0010
,
2000
0000
0000
0000
3001
0000
0000
0100
,
0001
0100
0001
0000
0010
0001
0010
0000
,
0002
0000
0000
0000
1003
0000
0000
1000
,
0100
1000
0010
0001
0010
0000
0110
0000
,
0001
0000
1001
0000
1000
0000
0010
1000
,
0020
0130
0010
0110
,
1000
0000
1001
0000
0001
0010
0001
0100
,
0010
0100
0001
0010
1000
0010
0001
0100
,
0001
0000
1000
0000
0100
0000
1000
0001
1000
0000
0001
0000
0010
0000
0000
0000
,
0001
0100
0001
1000
0010
1000
0001
0100
,
0010
0000
1000
0000
0001
0000
0010
0001
0010
0000
0001
0000
1000
0000
0000
0000
,
0010
1000
0001
0100
0001
0000
1001
0000
,
0001
1000
0001
1000
0010
0000
0101
0000
,
0100
0010
1000
0001
0100
0000
0101
0000
,
0010
1000
0010
1000
0010
0000
0110
0000
,
0001
1000
0100
0010
0001
1000
0002
0000
,
0203
0000
0010
0000
,
0302
0000
0100
0000
,
2003
0000
3002
0000
,
0203
0000
0310
0100
,
0020
0000
2030
0000
,
3002
0000
0103
0010
,
0110
0010
1000
0010
,
0110
0000
1001
0000
1100
0000
0001
0200
,
0000
0000
0301
0000
0010
0000
0001
0000
1000
0000
0010
0000
0100
0000
0001
0100
,
0020
0000
0130
0000
1000
0100
0001
0200
,
0000
0000
0310
0000
0001
0000
1000
0000
0010
0000
1000
0000
0001
0000
0100
0010
,
0200
0000
0301
1000
0001
0100
0010
0100
,
0001
0010
0001
0010
0100
1000
0100
1000
,
0001
0010
0001
0010
0100
1000
0100
1000
,
0220
0330
0000
0220
0330
0000
0220
0330
,
0000
0000
0220
0000
0000
0000
0330
0000
0001
0000
1000
0000
0001
0000
0100
0001
,
0100
0000
0010
0000
0100
0000
0001
0000
0010
0000
1000
0000
0010
0000
0001
0010
,
0200
0000
0310
0000
1000
0100
0001
0200
,
0000
0000
1300
0000
0001
0000
1000
0000
0010
0000
0100
0000
0010
0000
1000
0010
,
0200
0000
0310
0100
0010
1000
0001
0100
,
0010
0100
0010
0100
0001
0010
0001
0010
,
0100
0010
0100
0010
0001
0010
0001
0010
,
0220
0000
0330
0220
0000
0330
0120
0000
,
0000
0000
0031
0000
0001
1000
0010
1000
,
0200
0000
2300
0000
,
3020
0000
0030
0000
0100
0001
1000
0010
,
0200
0000
0302
0000
,
2003
0000
3010
0000
,
1000
0010
2000
0000
,
3010
0100
0002
0000
,
2003
0000
0000
3020
0000
0130
0010
0100
,
0002
0000
1003
1001
,
1000
0010
1000
0100
0010
0100
0000
0001
,
0010
0001
0010
0100
0010
0001
0000
1000
,
0000
0010
0100
0010
1000
0100
0010
0001
,
1000
0000
0010
0100
0010
1000
0001
0010
,
0100
0010
0100
0010
0001
1000
0001
1000
,
0100
0010
0100
0010
0001
1000
0001
1000
,
0220
0330
0000
0220
0330
0000
0220
0330
,
0000
0000
0210
0000
0000
0000
0301
0000
1000
0000
0010
0000
1000
0000
0001
1000
,
0001
0000
1000
0000
0100
0000
0001
0000
0100
0000
1000
0000
0001
0000
0100
0010
,
0100
0000
0010
0100
0001
1000
0001
0100
,
0000
0000
0010
0000
1000
0000
0001
0000
0010
0000
0100
0000
1000
0000
0001
1000
,
0001
0000
0100
0001
0010
0001
1000
0010
,
0100
0010
0100
0010
1000
0001
1000
0001
,
0100
0010
0100
0010
1000
0001
1000
0001
,
0220
0330
0000
0220
0330
0000
0220
0000
,
0000
0000
0330
0000
0001
1000
0010
1000
,
0200
0000
0000
0000
0310
0000
0001
0100
,
0020
2030
3200
2300
,
3020
0130
0200
0301
,
2000
0000
3001
0100
0002
0000
2003
0000
,
3020
0130
0100
0100
,
0002
0000
1003
0001
2000
0000
3010
0100
,
0002
0000
2003
0000
3020
0000
1030
0001
,
0010
0001
1000
0020
0000
0000
0000
0000
,
0030
0000
0000
0000
;

//---------------dance-single - ----------------
#NOTES:
     dance-single:
     :
     Challenge:
     16:
     0.616987,0.833333,0.160256,0.985577,0.268429,539.000000,519.000000,20.000000,123.000000,0.000000,0.000000,0.616987,0.833333,0.160256,0.985577,0.268429,539.000000,519.000000,20.000000,123.000000,0.000000,0.000000:
// measure 0
0000
0000
0000
0000
,  // measure 1
0000
0000
0000
0000
,  // measure 2
0000
0000
0000
0000
,  // measure 3
0000
0000
0000
0000
,  // measure 4
0000
0000
0000
0000
,  // measure 5
0000
0000
0000
0000
,  // measure 6
0000
0000
0000
0000
,  // measure 7
1000
0000
0010
0000
0100
0000
0010
0100
0001
0000
1000
0000
0001
0000
0010
0000
,  // measure 8
0100
0100
0000
0000
1001
0000
0001
1000
,  // measure 9
0010
0010
0000
0100
0010
0010
0000
1000
,  // measure 10
0010
0010
0000
0000
1001
0000
0100
0001
,  // measure 11
0100
0100
0000
0010
0100
0100
0001
0010
,  // measure 12
0100
0000
0100
0000
0010
0001
0000
0000
1001
0000
0000
0000
0100
0000
0010
0000
,  // measure 13
1000
1000
0001
0100
1000
1000
0001
0010
,  // measure 14
1000
0100
1000
0000
0001
0010
0001
0000
0100
0000
0001
0000
0100
0000
0010
0000
,  // measure 15
1000
0000
0100
0000
0001
0000
0100
0000
0010
0000
0001
0000
0100
0001
0100
0001
,  // measure 16
1000
0000
0010
0000
0100
0000
0001
0100
0010
0100
0001
0000
0010
0000
1000
0000
,  // measure 17
0010
0000
0100
0000
0010
0000
0001
1000
0001
1000
0010
0000
0010
0000
0100
0001
,  // measure 18
0010
0000
0010
0000
0001
0000
0010
0100
0010
0100
1000
0000
0010
0000
0001
0000
,  // measure 19
0010
0000
1000
0000
0001
0000
0100
0010
0100
0001
1000
0000
0001
0100
0001
0010
,  // measure 20
0100
0010
0100
0010
0200
0000
1300
0001
,  // measure 21
0100
0000
0010
0000
0100
0000
0001
0100
0010
0100
0010
1000
0002
0000
0000
0000
,  // measure 22
1003
0001
1000
0001
2000
0000
3010
0100
,  // measure 23
0010
0000
0001
0000
0010
0000
1000
0100
0010
0100
1000
0100
0020
0000
0000
0000
,  // measure 24
0130
2000
0000
0000
0010
0000
0000
0000
,  // measure 25
3001
0000
0000
0100
0010
0100
0001
1000
,  // measure 26
0200
0000
0320
0000
0032
0000
0103
0020
,  // measure 27
0000
0000
0000
0000
1030
0100
0001
0100
,  // measure 28
0010
0002
0000
0000
0103
0020
0000
0000
,  // measure 29
0130
0002
0000
0000
0013
0000
0001
0010
,  // measure 30
0100
0000
1000
0000
0010
0100
0001
0000
,  // measure 31
1000
0000
0001
0000
0000
0000
0100
0000
0001
0100
0001
0000
1000
0000
0001
0000
,  // measure 32
1001
0000
0001
0000
0010
0000
0100
1000
0001
0100
0001
0000
1000
0000
0010
0000
,  // measure 33
0100
0000
1000
0000
0001
0000
0010
0100
0010
0001
0010
0000
1000
0000
0001
0000
,  // measure 34
0010
0000
1000
0000
0010
0000
0100
1000
0010
1000
0001
0000
0100
0000
0001
0000
,  // measure 35
0010
0000
0001
0000
0100
0000
0010
1000
0010
0100
0010
0000
0100
0000
0010
0000
,  // measure 36
2000
3002
2003
3002
0023
0230
0320
0230
,  // measure 37
2300
3200
2300
3200
0320
0032
0023
0031
,  // measure 38
2020
3030
0000
2020
3030
0000
2020
3030
,  // measure 39
0000
0000
2020
0000
3030
0000
0001
0000
0100
0000
0001
0000
1000
0001
1000
0001
,  // measure 40
0100
0000
0010
0000
0001
0000
0010
1000
0010
0001
0010
0000
0100
0000
0001
0000
,  // measure 41
0010
0000
0100
0000
1000
0000
0001
0100
1000
0100
0010
0000
1000
0000
0001
0000
,  // measure 42
0100
0000
0010
0000
0100
0000
0001
0100
0001
1000
0001
0000
0010
0000
0100
0000
,  // measure 43
0010
0000
0001
0000
1000
0000
0100
1000
0100
0010
0100
0000
1000
0000
0100
0000
,  // measure 44
0020
0032
0023
0032
0203
0320
0230
0320
,  // measure 45
2030
3200
2300
3200
2300
3002
2003
3001
,  // measure 46
2020
3030
0000
2020
3030
0000
2020
0000
,  // measure 47
3030
0000
0001
0000
0100
0000
0010
0000
0100
0000
0001
0000
1000
0001
1000
0000
,  // measure 48
0002
0000
0023
0000
,  // measure 49
0032
0000
0003
0000
0100
0010
0200
0000
,  // measure 50
0302
0000
0023
0000
,  // measure 51
0230
0000
0300
1001
,  // measure 52
0100
1000
0100
0000
2000
0000
0000
3000
,  // measure 53
0010
0100
0010
0000
0200
0000
0000
0000
,  // measure 54
0302
0000
0000
2003
0000
0000
0000
0000
,  // measure 55
3020
0000
0130
0000
0000
0000
0010
0000
1000
0001
1000
0000
0010
0000
0100
0000
,  // measure 56
1001
0010
0100
0001
0100
0020
0000
1030
,  // measure 57
0100
0001
0100
1000
0010
0200
0000
0302
,  // measure 58
0000
0103
0010
1000
0001
0010
1000
0010
,  // measure 59
0002
0000
0103
0010
1000
0001
0010
0001
,  // measure 60
2000
3200
2300
3200
0320
0032
0023
0032
,  // measure 61
2003
3200
2300
3200
0320
0032
0023
0031
,  // measure 62
2020
3030
0000
2020
3030
0000
2020
3030
,  // measure 63
0000
0000
2020
0000
3030
0000
0001
0000
0100
0000
0001
0000
1000
0010
1000
0010
,  // measure 64
0100
0000
0001
0000
1000
0000
0010
0001
0010
1000
0010
0000
0100
0000
0001
0010
,  // measure 65
0001
0000
0100
0000
0010
0000
1000
0100
0001
0100
1000
0000
0001
0000
1000
0100
,  // measure 66
1000
0000
0001
0000
0100
0000
0010
1000
0001
1000
0100
0000
0010
0000
0001
0010
,  // measure 67
0001
0000
1000
0000
0010
0000
0100
0001
0100
1000
0100
0000
0001
0000
1000
0000
,  // measure 68
0001
1000
0001
1000
0100
0000
0010
0000
0100
1000
0100
1000
0010
0000
0100
0000
,  // measure 69
0001
0010
0001
0010
0100
0000
1000
0000
0100
1000
0100
1000
0010
0000
1000
0000
,  // measure 70
2020
3030
0000
2020
3030
0000
2020
0000
,  // measure 71
3030
0000
0001
0000
0100
0000
0001
0000
1000
0000
0010
0000
0100
0001
0100
0010
,  // measure 72
2000
0000
3001
0100
0020
0000
0130
0001
,  // measure 73
2000
3020
0230
0302
,  // measure 74
0203
0000
0320
0030
0020
0000
0130
0000
,  // measure 75
0002
0000
1003
0001
2000
0000
3020
0000
,  // measure 76
0230
0000
0320
0030
0020
0030
0020
1030
,  // measure 77
0200
0000
1300
0010
0200
0000
0320
0000
,  // measure 78
0032
0000
0013
0100
0002
0000
0013
0100
,  // measure 79
0001
0100
1000
0020
0000
0000
0000
0000
,  // measure 80
0030
0000
0000
0000
;
