#VERSION:0.83;
#TITLE:Your Idol;
#SUBTITLE:;
#ARTIST:Saja Boys;
#TITLETRANSLIT:;
#SUBTITLETRANSLIT:;
#ARTISTTRANSLIT:;
#GENRE:;
#ORIGIN:;
#CREDIT:;
#BANNER:AV.avi;
#BACKGROUND:bg.png;
#PREVIEWVID:;
#JACKET:jacket.png;
#CDIMAGE:;
#DISCIMAGE:;
#LYRICSPATH:;
#CDTITLE:;
#MUSIC:yd4.ogg;
#OFFSET:-0.089000;
#SAMPLESTART:42.691059;
#SAMPLELENGTH:15.000002;
#SELECTABLE:YES;
#BPMS:0.000=180.000;
#STOPS:;
#DELAYS:;
#WARPS:;
#TIMESIGNATURES:0.000=4=4;
#TICKCOUNTS:0.000=4;
#COMBOS:0.000=1;
#SPEEDS:0.000=1.000=0.000=0;
#SCROLLS:0.000=1.000,
222.000=0.500,
226.000=1.000,
256.000=0.500,
268.000=0.600,
269.000=0.700,
270.000=0.800,
271.000=0.900,
272.000=1.000;
#FAKES:;
#LABELS:0.000=Song Start;
#BGCHANGES:0.000=MV.avi=1.000=1=0=0=StretchNoLoop==CrossFade==,
99999=-nosongbg-=1.000=0=0=0 // don't automatically add -songbackground-
;
#KEYSOUNDS:;
#ATTACKS:
;

//---------------dance-single - ----------------
#NOTEDATA:;
#CHARTNAME:;
#STEPSTYPE:dance-single;
#DESCRIPTION:;
#CHARTSTYLE:;
#DIFFICULTY:Challenge;
#METER:13;
#RADARVALUES:0.619995,0.928083,0.803374,0.462813,0.017465,497.000000,405.000000,92.000000,53.000000,0.000000,0.000000,0.000000,0.000000,171.000000,0.619995,0.928083,0.803374,0.462813,0.017465,497.000000,405.000000,92.000000,53.000000,0.000000,0.000000,0.000000,0.000000,171.000000;
#CREDIT:Musey;
#OFFSET:-0.089000;
#BPMS:0.000000=180.000000
;
#STOPS:;
#DELAYS:;
#WARPS:197.000000=16.000000
,213.500000=16.000000
,234.000000=16.000000
,250.500000=16.000000
,274.000000=16.000000
,290.500000=16.000000
,310.000000=16.000000
,326.500000=16.000000
;
#TIMESIGNATURES:0.000000=4=4
;
#TICKCOUNTS:0.000000=4
;
#COMBOS:0.000000=1
;
#SPEEDS:0.000000=1.000000=0.000000=0
;
#SCROLLS:0.000000=1.000000
,350.000000=0.500000
,354.000000=1.750000
,354.500000=0.250000
,355.000000=0.500000
,355.500000=0.750000
,356.000000=1.750000
,356.500000=0.250000
,357.000000=0.500000
,357.500000=0.750000
,358.000000=1.750000
,358.500000=0.250000
,359.000000=0.500000
,359.500000=0.750000
,360.000000=1.750000
,360.500000=0.250000
,361.000000=0.500000
,361.500000=0.750000
,362.000000=1.750000
,362.500000=0.250000
,363.000000=0.500000
,363.500000=0.750000
,364.000000=1.750000
,364.500000=0.250000
,365.000000=0.500000
,365.500000=0.750000
,366.000000=1.750000
,366.500000=0.250000
,367.000000=0.500000
,367.500000=0.750000
,368.000000=1.750000
,368.500000=0.250000
,369.000000=0.500000
,369.500000=0.750000
,370.000000=1.750000
,370.500000=0.250000
,371.000000=0.500000
,371.500000=0.750000
,372.000000=1.750000
,372.500000=0.250000
,373.000000=0.500000
,373.500000=0.750000
,374.000000=1.750000
,374.500000=0.250000
,375.000000=0.500000
,375.500000=0.750000
,376.000000=1.750000
,376.500000=0.250000
,377.000000=0.500000
,377.500000=0.750000
,378.000000=1.750000
,378.500000=0.250000
,379.000000=1.750000
,379.500000=0.250000
,380.000000=1.750000
,380.500000=0.250000
,381.000000=1.750000
,381.500000=0.250000
,382.000000=1.750000
,382.500000=0.250000
,383.000000=1.750000
,383.500000=0.250000
,384.000000=0.500000
,390.000000=2.000000
,391.500000=0.500000
,396.000000=0.600000
,397.000000=0.700000
,398.000000=0.800000
,399.000000=0.900000
,400.000000=1.000000
;
#FAKES:;
#LABELS:0.000000=Song Start
;
#NOTES:
// measure 0
0000
0000
0000
0000
,  // measure 1
0000
0000
0000
0000
,  // measure 2
0000
0000
0000
0000
,  // measure 3
0000
0000
0000
0000
,  // measure 4
0000
0000
0000
0000
,  // measure 5
0000
0000
0000
0000
,  // measure 6
0000
0000
0000
0000
,  // measure 7
0000
0000
0000
0000
,  // measure 8
0000
0000
1000
0010
,  // measure 9
0100
0001
0010
0001
1000
0000
1010
0000
,  // measure 10
0010
1000
0100
1000
0001
0000
0110
0000
,  // measure 11
0001
0100
1000
0100
0001
0000
0010
0100
,  // measure 12
0010
0001
1000
0010
0100
0000
0001
0000
,  // measure 13
1000
0100
0001
0100
1000
0000
1010
0000
,  // measure 14
0100
0001
0010
0001
0100
0000
1100
0000
,  // measure 15
1000
0001
1000
0010
1100
0000
1100
0000
,  // measure 16
0101
0100
0001
0100
0010
0000
2001
0000
,  // measure 17
3010
0100
1000
0100
0002
0000
0013
0001
,  // measure 18
0200
0000
0310
0000
1000
0001
0010
0100
,  // measure 19
1000
0001
1000
0100
0020
0000
0031
1000
,  // measure 20
0002
0000
0013
0001
1100
0000
0012
0000
,  // measure 21
1003
0000
0001
1000
0020
0000
0130
0000
,  // measure 22
1001
0000
0001
0100
2000
0000
3100
0001
,  // measure 23
0020
0000
0031
0010
2000
0000
3010
0001
,  // measure 24
0200
0000
0301
0010
0001
1000
0100
0020
,  // measure 25
0000
0000
0031
1000
0010
0200
0000
0301
,  // measure 26
0010
0000
0110
0000
1001
0000
0010
1000
,  // measure 27
0100
0000
1010
0000
0010
0100
0001
0000
,  // measure 28
1000
0100
0001
0100
1000
0000
0001
1000
,  // measure 29
0010
0000
0110
0000
0100
0001
0010
0000
,  // measure 30
1001
0101
1001
0110
,  // measure 31
1010
0000
0011
0000
2200
0000
0000
3300
,  // measure 32
1000
0001
1000
0010
1100
0000
0011
0000
,  // measure 33
1000
0010
0001
0010
1000
0000
0001
0000
,  // measure 34
0021
0000
0130
0000
1000
0100
1000
0100
,  // measure 35
0001
0100
1000
0001
0010
0000
0001
0000
,  // measure 36
0210
1300
0011
1001
,  // measure 37
0001
0010
0001
1000
0100
1000
0010
0000
,  // measure 38
1020
0000
0031
0000
0010
1000
0010
0100
,  // measure 39
0002
0000
0013
0100
1000
0010
0100
1000
,  // measure 40
0001
0010
0100
0001
0020
0000
0031
0100
,  // measure 41
2000
0000
3100
0001
2000
0000
3001
0010
,  // measure 42
0200
0000
0310
0000
0102
0000
1003
0010
,  // measure 43
0002
0000
0013
1000
0200
0000
0310
0001
,  // measure 44
0020
0001
1030
1100
,  // measure 45
0001
0100
0001
1000
0010
0000
1000
0000
,  // measure 46
0120
0000
0000
0031
0000
0000
1010
0000
0110
0000
0110
0000
,  // measure 47
1001
0000
0001
0010
0100
0001
0100
0010
,  // measure 48
0002
0000
1003
0000
1100
0000
0001
1000
,  // measure 49
0010
1000
1001
0100
,  // measure 50
0110
0000
0001
0000
1010
0000
0010
1000
,  // measure 51
0001
0100
1010
1000
,  // measure 52
0110
1000
0001
1000
0011
0000
0100
1000
,  // measure 53
0010
1000
M00M
0M00
,  // measure 54
0MM0
0000
000M
0000
M0M0
0000
00M0
M000
,  // measure 55
000M
0M00
M0M0
M000
,  // measure 56
0110
1000
0001
1000
0011
0000
0100
1000
,  // measure 57
0010
0000
1001
0100
,  // measure 58
0110
0000
0001
0000
1010
0000
0010
1000
,  // measure 59
0001
0000
0100
0000
1010
0000
0110
1000
,  // measure 60
0001
1000
0011
0000
0100
1000
0010
0000
,  // measure 61
0000
0000
0000
0000
,  // measure 62
0000
0000
0000
0000
1010
0000
00M0
M000
,  // measure 63
000M
0000
0M00
0000
M0M0
0000
0MM0
M000
,  // measure 64
000M
M000
000M
0000
0M00
M000
0000
0000
,  // measure 65
0000
0000
0000
0000
,  // measure 66
0000
0000
0000
0000
0000
0000
0010
1000
,  // measure 67
0001
0000
0100
0000
1010
0000
0110
1000
,  // measure 68
0001
1000
0001
0100
1010
0000
0010
0100
,  // measure 69
0001
0000
0010
0000
1100
0000
1000
0010
,  // measure 70
0100
0000
0110
0000
1001
0100
0010
1000
,  // measure 71
0001
0010
0100
1000
0001
0000
0000
0000
,  // measure 72
0000
0000
0000
0000
1010
0000
00M0
0M00
,  // measure 73
000M
0000
00M0
0000
MM00
0000
M000
00M0
,  // measure 74
0M00
0000
0MM0
0000
M00M
0M00
00M0
M000
,  // measure 75
000M
00M0
0M00
M000
0000
0000
0000
0000
,  // measure 76
0000
0000
0000
0000
0000
0000
0010
0100
,  // measure 77
0001
0000
0010
0000
1100
0000
1000
0010
,  // measure 78
0100
0000
0110
0000
0011
0100
1000
0100
,  // measure 79
1001
0010
0100
0000
0020
0000
0230
0000
,  // measure 80
2300
0000
0000
3000
0000
0000
0000
0000
,  // measure 81
0000
0000
0000
0000
1100
0000
M000
00M0
,  // measure 82
0M00
0000
0MM0
0000
00MM
0M00
M000
0M00
,  // measure 83
M00M
00M0
0M00
000M
00M0
00M0
0MM0
0M00
,  // measure 84
MM00
M000
M000
M00M
0000
0000
0000
0000
,  // measure 85
0000
0000
0000
0000
0000
0000
1000
0010
,  // measure 86
0100
0000
0110
0000
0011
0100
1000
0100
,  // measure 87
1001
0010
0100
0001
0020
0000
0230
0000
,  // measure 88
2300
0000
0000
0000
0000
0000
0000
0000
0000
0000
0000
0000
0000
0000
0000
0000
0000
0000
0000
0000
0000
0000
0000
0000
0000
0000
0000
0000
0000
0000
0000
0000
0000
0000
0000
0000
0000
0000
0000
0000
0000
0000
0000
0000
0000
0000
0000
0000
0000
0000
0000
0000
0000
0000
0000
0000
0000
0000
0000
0000
0000
0000
0000
0000
0000
0000
0000
0000
0000
0000
0000
0000
3001
0000
0000
0000
0000
0000
0000
0000
0000
0000
0000
0000
0000
0000
0000
0000
0000
0000
0000
0000
0000
0000
0000
0000
1100
0000
0000
0000
0000
0000
0000
0000
0000
0000
0000
0000
0000
0000
0000
0000
0000
0000
0000
0000
0000
0000
0000
0000
0000
0000
0000
0000
0000
0000
0000
0000
0000
0000
0000
0000
0000
0000
0000
0000
0000
0000
0000
0000
0000
0000
0000
0000
0002
0000
0000
0000
0000
0000
0000
0000
0000
0000
0000
0000
0000
0000
0000
0000
0000
0000
0000
0000
0000
0000
0000
0000
1000
0000
0000
0000
0000
0000
0000
0000
0000
0000
0000
0000
0000
0000
0000
0000
0000
0000
0000
0000
0000
0000
0000
0003
,  // measure 89
1001
0000
0000
0000
0000
0000
0000
0000
0000
0000
0000
0000
0000
0000
0000
0000
0000
0000
0000
0000
0000
0000
0000
0000
0000
0000
0000
0000
0000
0000
0000
0000
0000
0000
0000
0000
0000
0000
0000
0000
0000
0000
0000
0000
0000
0000
0000
0000
0200
0000
0000
0000
0000
0000
0000
0000
0000
0000
0000
0000
0000
0000
0000
0000
0000
0000
0000
0000
0000
0000
0000
0000
0010
0000
0000
0000
0000
0000
0000
0000
0000
0000
0000
0000
0000
0000
0000
0000
0000
0000
0000
0000
0000
0000
0000
0300
0110
0000
0000
0000
0000
0000
0000
0000
0000
0000
0000
0000
0000
0000
0000
0000
0000
0000
0000
0000
0000
0000
0000
0000
0000
0000
0000
0000
0000
0000
0000
0000
0000
0000
0000
0000
0000
0000
0000
0000
0000
0000
0000
0000
0000
0000
0000
0000
0002
0000
0000
0000
0000
0000
0000
0000
0000
0000
0000
0000
0000
0000
0000
0000
0000
0000
0000
0000
0000
0000
0000
0000
0010
0000
0000
0000
0000
0000
0000
0000
0000
0000
0000
0000
0000
0000
0000
0000
0000
0000
0000
0000
0000
0000
0000
0003
,  // measure 90
1001
0000
0000
0000
0000
0000
0000
0000
0000
0000
0000
0000
0000
0000
0000
0000
0000
0000
0000
0000
0000
0000
0000
0000
0000
0000
0000
0000
0000
0000
0000
0000
0000
0000
0000
0000
0000
0000
0000
0000
0000
0000
0000
0000
0000
0000
0000
0000
0110
0000
0000
0000
0000
0000
0000
0000
0000
0000
0000
0000
0000
0000
0000
0000
0000
0000
0000
0000
0000
0000
0000
0000
0000
0000
0000
0000
0000
0000
0000
0000
0000
0000
0000
0000
0000
0000
0000
0000
0000
0000
0000
0000
0000
0000
0000
0000
0101
0000
0000
0000
0000
0000
0000
0000
0000
0000
0000
0000
0000
0000
0000
0000
0000
0000
0000
0000
0000
0000
0000
0000
0000
0000
0000
0000
0000
0000
0000
0000
0000
0000
0000
0000
0000
0000
0000
0000
0000
0000
0000
0000
0000
0000
0000
0000
2000
0000
0000
0000
0000
0000
0000
0000
0000
0000
0000
0000
0000
0000
0000
0000
0000
0000
0000
0000
0000
0000
0000
0000
0010
0000
0000
0000
0000
0000
0000
0000
0000
0000
0000
0000
0000
0000
0000
0000
0000
0000
0000
0000
0000
0000
0000
3000
,  // measure 91
1010
0000
0000
0000
0000
0000
0000
0000
0000
0000
0000
0000
0000
0000
0000
0000
0000
0000
0000
0000
0000
0000
0000
0000
0000
0000
0000
0000
0000
0000
0000
0000
0000
0000
0000
0000
0000
0000
0000
0000
0000
0000
0000
0000
0000
0000
0000
0000
0002
0000
0000
0000
0000
0000
0000
0000
0000
0000
0000
0000
0000
0000
0000
0000
0000
0000
0000
0000
0000
0000
0000
0000
0010
0000
0000
0000
0000
0000
0000
0000
0000
0000
0000
0000
0000
0000
0000
0000
0000
0000
0000
0000
0000
0000
0000
0003
0011
0000
0000
0000
0000
0000
0000
0000
0000
0000
0000
0000
0000
0000
0000
0000
0000
0000
0000
0000
0000
0000
0000
0000
0000
0000
0000
0000
0000
0000
0000
0000
0000
0000
0000
0000
0000
0000
0000
0000
0000
0000
0000
0000
0000
0000
0000
0000
2000
0000
0000
0000
0000
0000
0000
0000
0000
0000
0000
0000
0000
0000
0000
0000
0000
0000
0000
0000
0000
0000
0000
0000
0010
0000
0000
0000
0000
0000
0000
0000
0000
0000
0000
0000
0000
0000
0000
0000
0000
0000
0000
0000
0000
0000
0000
3000
,  // measure 92
1001
0000
0101
0000
1010
0000
0010
0100
,  // measure 93
0011
0000
1001
0000
0100
0010
1100
0000
,  // measure 94
0110
0101
1001
1001
,  // measure 95
0110
0110
1100
0011
,  // measure 96
0100
0010
0100
0010
1000
0001
0010
0001
,  // measure 97
2000
0000
3010
0000
0220
0000
0000
0330
,  // measure 98
0001
0010
0001
0010
1000
0010
0001
1000
,  // measure 99
0020
1030
0011
0011
,  // measure 100
1001
0000
0110
0000
1000
0001
0100
1000
,  // measure 101
0100
0010
1000
0000
0021
0000
0130
0000
,  // measure 102
1000
0010
0100
1000
0001
0010
2000
0000
,  // measure 103
3010
0100
0010
1000
0012
0000
1003
0010
,  // measure 104
2001
0000
3100
0010
0201
0000
0301
0100
,  // measure 105
1020
0000
1030
0010
1100
0000
1001
0000
,  // measure 106
0120
0000
1030
0001
1200
0000
0310
0001
,  // measure 107
2100
0000
3010
1000
0001
0010
1000
0010
,  // measure 108
0200
0300
1001
0000
1000
0100
1000
0010
,  // measure 109
0100
0011
1100
1001
,  // measure 110
0110
0000
0000
0000
0011
0000
0000
0000
1100
0000
0000
0000
1001
0000
0000
0000
0000
0000
1000
0000
0000
0100
0000
0000
,  // measure 111
0001
1000
0010
0001
2000
0000
0000
3100
;

//---------------dance-single - ----------------
#NOTEDATA:;
#CHARTNAME:;
#STEPSTYPE:dance-single;
#DESCRIPTION:;
#CHARTSTYLE:;
#DIFFICULTY:Hard;
#METER:10;
#RADARVALUES:0.503980,0.557996,0.227041,0.576334,0.017465,404.000000,378.000000,26.000000,66.000000,0.000000,0.000000,0.000000,0.000000,0.000000,0.503980,0.557996,0.227041,0.576334,0.017465,404.000000,378.000000,26.000000,66.000000,0.000000,0.000000,0.000000,0.000000,0.000000;
#CREDIT:Musey;
#NOTES:
0000
0000
0000
0000
,
0000
0000
0000
0000
,
0000
0000
0000
0000
,
0000
0000
0000
0000
,
0000
0000
0000
0000
,
0000
0000
0000
0000
,
0000
0000
0000
0000
,
0000
0000
0000
0000
,
0000
0000
1000
0010
,
0100
0010
0100
0001
1000
0000
0010
0000
,
0010
0100
0010
1000
0001
0000
0010
0000
,
0001
0010
0001
1000
0100
0000
1000
0100
,
0010
0000
0001
0010
0100
0000
0010
0000
,
0001
1000
0010
0100
0001
0000
1000
0000
,
0010
0100
1000
0100
0001
0000
1000
0000
,
0010
0100
0001
0000
1001
0000
0101
0000
,
1100
0011
1001
0200
,
0301
0010
0001
0010
0200
0000
1300
0010
,
0200
0000
0320
0000
1030
0001
1000
0001
,
0200
0000
0310
0100
0002
0000
0023
0000
,
0130
0010
0100
1000
0020
0000
2030
0000
,
3100
0000
1000
0001
0200
0000
0310
0000
,
0011
0000
0010
0100
2000
0000
3001
0100
,
0020
0000
0130
0001
0200
0000
0301
1000
,
0020
0000
1030
0001
2000
0000
3001
0100
,
0020
0000
0230
0000
0301
1000
0200
0000
,
2300
0000
3010
0000
1010
0000
0000
0002
,
0000
0000
0100
0000
0000
0013
0100
0000
,
1000
0100
0010
0001
0200
0000
0301
0010
,
0002
0000
2003
0000
3010
0100
0020
0000
,
2030
0000
0000
3002
0000
0000
0000
0203
,
0000
0000
0000
0000
0000
0000
0000
0300
,
0010
0100
0010
0100
0001
0000
1001
0000
,
1000
0100
0010
0100
1000
0000
0010
0000
,
0102
0000
0013
0000
0001
0010
0100
1000
,
0010
0100
0001
1000
0020
0000
1030
0000
,
0001
0100
0011
1100
,
1000
0010
1000
0010
0100
0000
0001
0000
,
2001
0000
3001
0000
1000
0010
1000
0100
,
0020
0000
0031
0100
0002
0000
0013
0001
,
1000
0010
0100
0001
2000
0000
3100
0010
,
0002
0000
0103
0001
2000
0000
3010
0100
,
0020
0000
1030
0000
0002
0000
0103
0010
,
2000
0000
3100
0010
0002
0000
0013
0000
,
0200
1000
0010
0310
,
0001
0010
0001
0100
0010
0000
1000
0000
,
1200
0000
0000
1300
0000
0000
0001
0000
0010
0000
0100
0000
,
1000
0000
0001
0100
0010
0100
0001
1000
,
0200
0000
0000
0000
1300
0000
0001
1000
,
0001
0100
0020
0100
,
0031
0000
0010
0000
1000
0000
0001
0100
,
0001
1000
0200
1000
,
0301
0000
0100
0000
1001
0000
1000
0100
,
0010
0001
0200
0010
,
0301
0000
1000
0000
0010
0100
0010
0100
,
0001
1000
0001
1000
0100
0000
0000
0000
,
0000
0000
0000
0000
1001
0000
0100
1000
,
0100
0000
1000
0001
1000
0000
0010
0000
,
1100
0000
0101
0000
1001
0000
0001
0010
,
0100
0000
1000
0010
1000
0000
0001
0100
,
0010
0000
0110
0000
1001
0000
0100
0010
,
1000
0000
1001
0000
0001
0010
0001
0000
,
0100
0010
0100
0010
1000
0100
1000
0100
,
0010
0001
0010
0001
0200
0000
0320
0000
,
1030
0000
0000
0000
1000
0001
1000
0001
,
0100
0010
0200
0000
,
0301
0010
0100
1000
0100
0010
0001
1000
,
0010
0100
0011
0011
,
1100
0000
1001
0000
1000
0010
1000
0010
,
0200
0302
0023
0100
,
0031
1000
0100
1000
0020
0000
2030
0000
,
3001
0100
0001
0100
0020
0000
1030
0100
,
2000
0000
3001
0100
0020
0000
0130
0001
,
0020
0000
0130
1000
0020
0000
1030
0000
,
1002
0000
0103
0010
2000
0000
3100
0010
,
0001
0100
1000
0100
0002
0000
1000
0000
,
0100
0000
0013
0000
0001
1000
0001
0100
,
0020
2030
3001
0100
,
0010
0000
0000
0000
1000
0000
0000
0000
0100
0000
0000
0000
0010
0000
0000
0000
0000
0000
0001
0000
0000
1000
0000
0000
,
0020
0000
0230
0000
0302
0000
0000
1003
;

//---------------dance-single - ----------------
#NOTEDATA:;
#CHARTNAME:;
#STEPSTYPE:dance-single;
#DESCRIPTION:;
#CHARTSTYLE:;
#DIFFICULTY:Medium;
#METER:7;
#RADARVALUES:0.372995,0.454081,0.008732,0.323096,0.000000,299.000000,298.000000,1.000000,37.000000,0.000000,0.000000,0.000000,0.000000,0.000000,0.372995,0.454081,0.008732,0.323096,0.000000,299.000000,298.000000,1.000000,37.000000,0.000000,0.000000,0.000000,0.000000,0.000000;
#CREDIT:Musey;
#NOTES:
0000
0000
0000
0000
,
0000
0000
0000
0000
,
0000
0000
0000
0000
,
0000
0000
0000
0000
,
0000
0000
0000
0000
,
0000
0000
0000
0000
,
0000
0000
0000
0000
,
0000
0000
0000
0000
,
0000
0000
1000
0010
,
1000
0010
1000
0000
0001
0000
0100
0000
,
0001
0010
0100
0000
1000
0000
0010
0000
,
1000
0001
1000
0000
0010
0000
0100
0001
,
0010
0000
0100
1000
0001
0000
1000
0000
,
0010
1000
0100
0000
0010
0000
0001
0000
,
0100
0010
1000
0000
0001
0000
0010
0000
,
0001
0100
0010
0000
1000
0000
1000
0000
,
0001
0101
0001
1000
,
0001
0100
0010
0000
1000
0000
0100
0000
,
0020
0030
0001
0100
,
0010
1000
0100
0000
0010
0000
0001
0000
,
1000
0000
0010
1000
0001
0000
0100
0000
,
0010
0000
1000
0100
0010
0000
0001
0000
,
0100
0000
0010
1000
0100
0000
1000
0001
,
0100
0000
0010
1000
0001
0000
0010
0100
,
1000
0000
0010
1000
0002
0000
0000
0203
,
0000
0000
0320
0000
0000
2000
0030
0000
,
3002
0000
0000
0023
0000
0000
0230
0000
,
0000
0000
0000
0300
,
1000
0100
0010
0001
2000
0000
0000
3002
,
0000
0000
0203
0000
0000
0320
0000
0000
,
2030
0000
0000
3002
0000
0000
0000
0023
,
0000
0000
0000
0000
0000
0000
0000
0030
,
0001
0010
0001
0000
1000
0000
0100
0000
,
1000
0010
1000
0010
0100
0000
0001
0000
,
0020
0000
0000
0000
0031
0100
0001
0000
,
1000
0100
1000
0010
0100
0000
0001
0000
,
0020
0000
0031
1000
,
0100
1000
0010
0000
0100
0000
0001
0000
,
0020
0000
0000
0030
0001
1000
0010
0000
,
0100
0000
0001
0000
0010
0001
1000
0100
,
1000
0000
0010
0000
0100
0000
0001
0100
,
0001
0000
1000
0100
1000
0000
0010
0000
,
0200
0000
0000
0000
0301
0000
0010
0100
,
0010
0000
0001
1000
0010
0000
1000
0000
,
0002
0000
0103
0010
,
0100
0010
1000
0000
0100
0000
0010
0000
,
0002
0000
0000
0000
1003
0000
0010
1000
,
0010
0100
0001
0010
,
0200
0000
1300
0001
,
1000
0010
0200
0000
,
0310
0100
0001
0010
,
0100
1000
0010
0000
2000
0000
0000
0000
,
3001
0100
0010
1000
,
0001
0010
0001
0000
0200
0000
0000
0000
,
0310
0000
1000
0000
0001
0000
0010
0100
,
1000
0010
0200
0000
,
0000
0000
0000
0000
0310
0000
1000
0010
,
1000
0001
0200
0010
,
0301
0000
0000
0000
1000
0000
0100
0010
,
0001
1000
0020
1000
,
0130
0000
0000
0000
0001
0000
1000
0100
,
1000
0010
0100
0001
,
0010
0001
0010
0000
0100
1000
0100
0000
,
1000
0010
1000
0000
0002
0000
0000
0000
,
1003
0000
0010
0010
,
1000
0000
0002
0000
,
0103
0001
0100
0010
,
2000
0000
0000
0000
,
3010
0000
0010
0000
1000
0001
1000
0000
,
0100
0010
0002
0000
,
0103
0010
0100
0001
1000
0000
0100
0000
,
1000
0010
0200
0000
,
0301
0000
0010
0001
0010
0000
0100
1000
,
0100
1000
0002
0000
,
0103
0000
0010
0100
0010
0000
1000
0100
,
1000
0001
0020
0000
,
0001
0000
0031
0000
0100
0001
0100
0000
,
0010
1000
0002
0000
,
0013
0100
1000
0010
,
1000
0010
1000
0010
0200
0000
0000
0000
,
0301
0000
0000
0000
;

//---------------dance-single - ----------------
#NOTEDATA:;
#CHARTNAME:;
#STEPSTYPE:dance-single;
#DESCRIPTION:;
#CHARTSTYLE:;
#DIFFICULTY:Easy;
#METER:4;
#RADARVALUES:0.251990,0.314364,0.000000,0.349293,0.000000,202.000000,202.000000,0.000000,40.000000,0.000000,0.000000,0.000000,0.000000,0.000000,0.251990,0.314364,0.000000,0.349293,0.000000,202.000000,202.000000,0.000000,40.000000,0.000000,0.000000,0.000000,0.000000,0.000000;
#CREDIT:Musey;
#NOTES:
0000
0000
0000
0000
,
0000
0000
0000
0000
,
0000
0000
0000
0000
,
0000
0000
0000
0000
,
0000
0000
0000
0000
,
0000
0000
0000
0000
,
0000
0000
0000
0000
,
0000
0000
0000
0000
,
0000
0000
1000
0010
,
0100
0100
0001
0010
,
0001
0001
1000
0100
,
1000
1000
0010
0100
,
0001
0010
0100
0100
,
0010
0001
1000
1000
,
0010
0100
0001
0001
,
0010
0100
2000
0000
,
3010
0000
0100
0001
,
0010
0001
2000
0000
,
3010
0000
1000
0100
,
0010
0001
0200
0000
,
0301
1000
0020
0000
,
1030
0001
0200
0000
,
0301
0010
0001
0010
,
0100
0010
0100
1000
,
0020
0000
2030
0000
,
3002
0000
0203
0000
,
0320
0000
2030
0000
,
0000
0000
3001
0000
,
0001
0000
0200
0000
,
0320
0000
2030
0000
,
3002
0000
0023
0000
,
0000
0000
0000
0000
,
0030
0000
0001
0010
,
0001
1000
0010
1000
,
0200
0000
1300
0001
,
0100
0010
0100
0001
,
0010
0010
0001
0001
,
1000
0100
1000
0010
,
0200
0000
0301
0100
,
0010
1000
0001
0001
,
1000
1000
0020
0000
,
2030
0000
3001
0010
,
0100
0000
2000
0000
,
3002
0000
0103
0010
,
0100
0100
0010
0010
,
1000
0001
1000
0010
,
0200
0000
0301
0010
,
0100
1000
0100
0010
,
0002
0000
0103
0000
,
0100
0000
0010
0000
,
0010
0000
1000
0000
,
1000
0000
0001
0010
,
0100
1000
0010
0000
,
0010
0000
0100
0000
,
0100
0000
0001
0000
,
0001
0000
1000
0000
,
0000
0000
0002
0000
,
0103
0000
0200
0000
,
0301
0000
0020
0000
,
1030
0000
2000
0000
,
3100
0000
0001
1000
,
0001
1000
0020
0000
,
0130
0000
0010
0100
,
0010
0100
0002
0000
,
0013
0000
0000
0000
,
0000
0000
2000
0000
,
3001
0000
0000
0000
,
0002
0000
0000
0000
,
1003
0000
1000
0001
,
0100
0010
2000
0000
,
3001
0010
0100
1000
,
0010
0100
0002
0000
,
1003
0010
1000
0001
,
0100
0010
0200
0000
,
0301
0010
0001
1000
,
0200
0000
2300
0000
,
3020
0000
0130
0001
,
0100
0010
2000
0000
,
3100
0010
0100
0010
,
0001
1000
0002
0000
,
0003
0000
0000
0000
;

//---------------dance-single - ----------------
#NOTEDATA:;
#CHARTNAME:;
#STEPSTYPE:dance-single;
#DESCRIPTION:;
#CHARTSTYLE:;
#DIFFICULTY:Beginner;
#METER:2;
#RADARVALUES:0.149697,0.174647,0.000000,0.253238,0.000000,120.000000,120.000000,0.000000,29.000000,0.000000,0.000000,0.000000,0.000000,0.000000,0.149697,0.174647,0.000000,0.253238,0.000000,120.000000,120.000000,0.000000,29.000000,0.000000,0.000000,0.000000,0.000000,0.000000;
#CREDIT:Musey;
#NOTES:
0000
0000
0000
0000
,
0000
0000
0000
0000
,
0000
0000
0000
0000
,
0000
0000
0000
0000
,
0000
0000
0000
0000
,
0000
0000
0000
0000
,
0000
0000
0000
0000
,
0000
0000
0000
0000
,
0000
0000
1000
0000
,
1000
0000
0001
0000
,
0001
0000
0100
0000
,
0100
0000
0010
0000
,
0100
0000
0001
0000
,
0001
0000
1000
0000
,
1000
0000
0100
0000
,
0100
0000
0100
0000
,
0000
0000
1000
0000
,
0001
0000
0200
0000
,
0310
0000
0100
0000
,
0001
0000
2000
0000
,
3001
0000
0002
0000
,
0013
0000
0020
0000
,
0130
0000
1000
0000
,
0010
0000
1000
0000
,
0001
0000
0200
0000
,
0000
0000
0302
0000
,
0000
0000
2003
0000
,
0000
0000
3002
0000
,
0000
0000
0023
0000
,
0000
0000
0032
0000
,
0000
0000
2003
0000
,
0000
0000
3000
0000
,
0000
0000
1000
0000
,
1000
0000
0001
0000
,
0001
0000
0100
0000
,
0010
0000
0100
0000
,
0100
0000
0010
0000
,
0010
0000
1000
0000
,
1000
0000
0001
0000
,
0001
0000
0200
0000
,
0000
0000
0301
0000
,
0001
0000
0001
0000
,
0001
0000
1000
0000
,
1000
0000
1000
0000
,
1000
0000
0010
0000
,
0100
0000
0001
0000
,
0001
0000
0010
0000
,
0100
0000
2000
0000
,
0000
0000
3010
0000
,
0010
0000
0010
0000
,
0000
0000
0100
0000
,
0100
0000
0100
0000
,
0000
0000
0001
0000
,
0001
0000
0001
0000
,
0000
0000
1000
0000
,
1000
0000
1000
0000
,
0000
0000
1000
0000
,
1000
0000
1000
0000
,
1000
0000
0001
0000
,
0001
0000
0001
0000
,
0001
0000
0100
0000
,
0100
0000
0010
0000
,
0010
0000
0100
0000
,
0100
0000
0020
0000
,
0030
0000
0000
0000
,
0000
0000
0000
0000
,
2000
0000
0000
0000
,
3002
0000
0000
0000
,
0103
0000
0010
0000
,
1000
0000
1000
0000
,
0001
0000
0010
0000
,
0100
0000
0100
0000
,
2000
0000
3002
0000
,
0203
0000
0320
0000
,
2030
0000
3002
0000
,
0023
0000
0230
0000
,
0320
0000
0032
0000
,
2003
0000
3020
0000
,
1030
0000
1000
0000
,
0002
0000
0000
0000
,
0003
0000
0000
0000
;
