#VERSION:0.83;
#TITLE:Young, Dumb, Stupid;
#SUBTITLE:;
#ARTIST:NMIXX;
#TITLETRANSLIT:;
#SUBTITLETRANSLIT:;
#ARTISTTRANSLIT:;
#GENRE:;
#ORIGIN:;
#CREDIT:;
#BANNER:AV.avi;
#BACKGROUND:bg.png;
#PREVIEWVID:;
#JACKET:jacket.png;
#CDIMAGE:;
#DISCIMAGE:;
#LYRICSPATH:;
#CDTITLE:;
#MUSIC:audio.ogg;
#OFFSET:-0.084000;
#SAMPLESTART:56.736233;
#SAMPLELENGTH:14.999998;
#SELECTABLE:YES;
#BPMS:0.000=188.000;
#STOPS:;
#DELAYS:;
#WARPS:;
#TIMESIGNATURES:0.000=4=4;
#TICKCOUNTS:0.000=4;
#COMBOS:0.000=1;
#SPEEDS:0.000=1.000=0.000=0;
#SCROLLS:0.000=1.000,
114.000=0.700,
146.000=0.800,
154.000=0.900,
162.000=1.000,
374.000=0.900,
376.000=0.800,
379.000=0.700,
380.000=0.600,
383.000=0.500,
385.000=0.400;
#FAKES:;
#LABELS:0.000=Song Start;
#BGCHANGES:0.000=MV.avi=0.700=1=0=1===CrossFade==,
3.000=MV.avi=1.000=0=0=1=====,
99999=-nosongbg-=1.000=0=0=0 // don't automatically add -songbackground-
;
#KEYSOUNDS:;
#ATTACKS:
;

//---------------dance-single - ----------------
#NOTEDATA:;
#CHARTNAME:;
#STEPSTYPE:dance-single;
#DESCRIPTION:;
#CHARTSTYLE:;
#DIFFICULTY:Challenge;
#METER:13;
#RADARVALUES:0.589440,0.653411,0.448830,0.645685,0.039371,524.000000,467.000000,57.000000,82.000000,0.000000,0.000000,0.000000,0.000000,0.000000,0.589440,0.653411,0.448830,0.645685,0.039371,524.000000,467.000000,57.000000,82.000000,0.000000,0.000000,0.000000,0.000000,0.000000;
#CREDIT:Musey;
#NOTES:
// measure 0
0000
0000
0000
0000
,  // measure 1
0000
0000
0000
0000
,  // measure 2
0000
0000
0000
0000
,  // measure 3
0000
0000
0000
0000
0000
0000
1000
0010
,  // measure 4
1000
0010
0100
0000
1001
0000
0001
1000
,  // measure 5
0001
0010
0100
0000
2000
0000
3001
0000
,  // measure 6
1000
0001
0010
0000
0110
0000
0001
1000
,  // measure 7
0100
0010
0001
0000
0200
0000
0310
0000
,  // measure 8
0110
0001
1010
0010
,  // measure 9
0100
0001
1000
0010
0100
0000
0010
0000
,  // measure 10
1000
0100
0001
0100
1000
0000
0010
0000
,  // measure 11
1000
0001
0010
0001
0100
0010
0100
1000
,  // measure 12
0001
0010
0100
0001
0010
0001
0100
0010
,  // measure 13
1000
0000
0100
0010
0001
0000
0001
0000
,  // measure 14
0100
0001
1000
0000
0010
0000
1000
0001
,  // measure 15
0010
0000
0010
0100
1000
0000
0010
0000
,  // measure 16
0100
0001
1000
0000
0100
1000
0001
1000
,  // measure 17
0010
0000
0100
0001
0010
0000
0001
0100
,  // measure 18
0010
0100
0001
0000
1000
0000
0100
0010
,  // measure 19
0100
0000
1000
0010
0001
0010
1000
0001
,  // measure 20
0010
0010
0100
0100
1000
0001
1000
0000
,  // measure 21
0110
0000
0001
1000
0100
0000
0010
0000
,  // measure 22
1001
0000
0010
1000
0001
0100
0010
0000
,  // measure 23
0110
0000
0010
1000
0001
0000
0100
0000
,  // measure 24
1001
0000
0001
0000
1100
0000
0010
0100
,  // measure 25
0001
0000
1000
0100
1000
0002
0000
0013
,  // measure 26
0100
2000
0000
3001
0200
0000
0301
1000
,  // measure 27
0010
0000
0100
0000
0001
1000
0010
1000
,  // measure 28
0002
0000
0000
0003
1001
0000
0000
0000
,  // measure 29
1000
0000
0100
0000
1000
0000
0001
0000
0100
0000
0001
0000
,  // measure 30
1000
0000
0010
0000
1000
0000
0001
0000
0010
0000
0001
0000
,  // measure 31
2000
0000
3010
0100
,  // measure 32
0001
0100
0020
0000
,  // measure 33
1000
0000
1000
0000
,  // measure 34
0130
0000
0000
0000
0001
0000
0100
0001
,  // measure 35
0010
0000
0001
0000
1000
0010
1000
0001
,  // measure 36
0100
0000
0010
0000
1010
0000
0001
0100
,  // measure 37
0010
0000
0100
0000
0001
0000
1000
0100
,  // measure 38
1000
0000
0001
0000
0010
0000
0001
0100
,  // measure 39
0010
0000
1000
0000
0001
1000
0010
1000
,  // measure 40
0001
0100
0010
1000
,  // measure 41
0002
2003
3020
2030
,  // measure 42
3200
0000
0320
0000
0032
0000
0003
1000
,  // measure 43
0001
0000
1000
0000
0000
0010
1000
0000
,  // measure 44
0002
0000
0003
0000
1010
0000
0001
0100
,  // measure 45
0020
0000
0000
0030
0110
0000
0000
0000
0001
0000
0100
0000
0010
0000
0100
0000
,  // measure 46
0002
0000
0000
0003
0101
0000
0000
0000
0010
0000
1000
0000
0001
0000
0010
0000
,  // measure 47
0200
0000
0000
0300
0110
0000
0000
0000
0010
0000
1000
0000
0001
0000
0010
0000
,  // measure 48
0200
0000
0000
0300
0110
0000
0000
0000
1000
0000
0100
0000
0010
0000
0001
0000
,  // measure 49
0010
0000
1001
0000
0001
0010
0100
1000
,  // measure 50
0100
0000
1001
0000
0001
0100
0010
0100
,  // measure 51
0000
0100
0001
0000
1000
0010
0001
0010
,  // measure 52
1000
0001
0010
0001
0100
0000
0010
0100
,  // measure 53
0001
0100
1000
0100
0002
0000
0023
0000
,  // measure 54
0230
0000
0320
0000
0031
0000
1000
0010
,  // measure 55
1000
0002
0100
0000
,  // measure 56
0013
0000
1001
0110
,  // measure 57
1001
0000
0001
1000
0020
0000
2030
0000
,  // measure 58
3002
0000
0003
0000
2200
3300
0202
0303
,  // measure 59
2200
3300
0000
0000
0022
0033
2020
3030
,  // measure 60
0022
0033
0000
0000
1000
0100
0010
0000
,  // measure 61
0001
0000
2000
3000
2000
3000
0001
0100
,  // measure 62
0010
0100
0001
0000
0010
0100
1000
0000
,  // measure 63
0001
0010
0100
0010
,  // measure 64
0001
1000
1001
0010
,  // measure 65
1000
0000
0020
0030
0020
0030
0100
0001
,  // measure 66
1000
0010
1000
0000
0001
0000
0010
0100
,  // measure 67
0010
0001
1000
0010
1000
0002
0000
1003
,  // measure 68
0001
2000
0000
3000
1010
0000
0001
0100
,  // measure 69
0010
0000
0100
0000
0001
0000
0010
0001
,  // measure 70
0100
0000
0001
0000
1010
0000
1000
0010
,  // measure 71
0100
1000
0001
0010
0200
0000
0301
0000
,  // measure 72
0220
0000
0330
0000
1010
0000
0001
0100
,  // measure 73
0010
0000
0100
0000
0001
0000
1000
0010
,  // measure 74
1000
0000
0001
0000
1000
0010
0100
0001
,  // measure 75
1000
0000
0100
0010
0100
0000
1000
0000
,  // measure 76
0020
1000
1000
0000
,  // measure 77
0030
0000
0001
0000
0110
0000
0001
0100
,  // measure 78
0020
0000
0000
0000
0030
0000
1001
0000
0000
0000
0000
0000
0110
0000
0000
0000
0000
0000
0001
0000
0000
0100
0000
0000
,  // measure 79
0020
0000
0000
0000
0030
0000
1001
0000
0000
0000
0000
0000
1100
0000
0000
0000
0000
0000
0001
0000
0000
0010
0000
0000
,  // measure 80
0200
0000
0000
0000
0300
0000
1001
0000
0000
0000
0000
0000
1100
0000
0000
0000
0000
0000
0001
0000
0000
0010
0000
0000
,  // measure 81
0200
0000
0000
0000
0300
0000
1001
0000
0000
0000
0000
0000
1000
0000
0000
0010
0000
0000
0001
0000
0000
0010
0000
0000
,  // measure 82
1000
0000
0110
0000
0001
0100
1000
0100
,  // measure 83
0001
0000
0110
0000
2200
3300
0202
0303
,  // measure 84
2200
3300
1001
0000
2200
3300
0202
0303
,  // measure 85
1000
0100
0001
0100
0010
0000
0010
0001
,  // measure 86
0010
1000
0010
0100
1000
0000
0010
1000
,  // measure 87
0001
0000
1000
0000
0100
0000
0010
0001
,  // measure 88
1000
0001
0002
0000
,  // measure 89
0100
0003
0000
0000
1100
0000
1010
0000
,  // measure 90
0101
0000
0100
0010
0001
0000
0010
0000
,  // measure 91
0200
0000
0300
0000
2200
3300
0202
0303
,  // measure 92
2200
3300
0000
0000
0022
0033
2020
3030
,  // measure 93
0022
0033
0000
0000
0001
0000
1000
0000
,  // measure 94
0020
0030
1000
0001
,  // measure 95
0200
0300
0010
1000
,  // measure 96
0001
0000
0000
0000
0000
0000
0000
0000
0000
0000
0000
0000
0000
0000
0000
0000
0100
0000
0000
0000
0000
0000
0000
0000
0000
0000
0000
0000
0000
0000
0000
0000
0000
0020
0000
0000
0000
0000
0000
0000
0000
0000
0000
0000
0000
0000
0000
0000
0000
0000
0000
0000
0000
0000
0000
0000
0000
0000
0000
0000
0000
0000
0000
0000
,  // measure 97
0000
0230
0000
0000
0000
0000
0000
0000
0000
0000
0300
0000
0000
0000
0000
0000
;

//---------------dance-single - ----------------
#NOTEDATA:;
#CHARTNAME:;
#STEPSTYPE:dance-single;
#DESCRIPTION:;
#CHARTSTYLE:;
#DIFFICULTY:Hard;
#METER:11;
#RADARVALUES:0.494950,0.577277,0.275597,0.653559,0.003937,440.000000,405.000000,35.000000,83.000000,0.000000,0.000000,0.000000,0.000000,0.000000,0.494950,0.577277,0.275597,0.653559,0.003937,440.000000,405.000000,35.000000,83.000000,0.000000,0.000000,0.000000,0.000000,0.000000;
#CREDIT:Musey;
#NOTES:
0000
0000
0000
0000
,
0000
0000
0000
0000
,
0000
0000
0000
0000
,
0000
0000
0000
0000
0000
0000
1000
0001
,
1000
0001
0100
0000
0010
0000
0100
0001
,
0100
0001
2000
0000
,
3001
0000
0100
0000
0010
0000
0100
0001
,
0010
0100
2000
0000
,
3001
0000
0100
0000
0010
0000
0100
0001
,
1000
0000
0010
1000
0001
0000
0200
0000
,
0301
0000
0010
0000
0001
0000
0001
0010
,
0100
0000
0010
0000
0001
1000
0010
1000
,
0001
0010
0100
0000
0100
1000
0100
0010
,
0100
0000
1000
0001
0100
0000
0001
0000
,
1000
0010
0200
0000
0010
0000
0000
0000
,
0310
0000
1000
0001
0010
0000
0001
0000
,
1000
0010
1000
0000
0001
0010
0001
1000
,
0010
0000
0100
0001
1000
0000
0100
0010
,
0200
0000
0000
0000
0310
0000
0000
0001
,
1000
0000
0010
0100
0010
1000
0001
0000
,
0010
0100
1000
0100
0010
0001
1000
0001
,
0100
0000
0001
1000
0020
0000
0100
0000
,
0130
0000
0001
1000
0100
0010
0001
0000
,
1000
0001
0100
0000
0010
0000
1000
0000
,
0001
0100
0001
0000
2000
0000
0000
0000
,
3100
0000
1000
0000
0010
1000
0010
0000
,
0100
0001
0100
0000
0002
0000
0000
0000
,
0010
0000
0013
0001
,
1000
0001
0102
0000
,
2003
0000
3020
0000
,
0230
0000
0301
1000
,
0002
0000
0103
0010
,
1000
0010
0200
0000
,
0001
0000
0010
0000
,
0301
0000
1000
0001
,
0100
0000
0010
0000
1000
0010
1000
0100
,
0010
0001
2000
0000
,
3001
0000
1000
0000
0010
0000
0100
0010
,
1000
0001
0200
0000
,
0301
0000
1000
0010
0100
0000
0001
0000
,
1000
0100
0020
0000
,
0031
1000
0001
0100
,
0010
0000
1000
0000
0001
0000
0000
0001
,
1000
0000
0001
0000
0000
0100
0010
0000
,
2000
0000
0000
3000
0001
0000
0100
0001
,
0100
0000
1010
0000
0001
0000
0100
0001
,
0100
1010
0002
0203
,
0302
0013
0002
0203
,
0302
0000
0013
0000
0001
0010
0100
1000
,
0200
0000
1300
0000
1000
0100
0010
0001
,
0020
0031
0100
0001
,
0102
0103
0001
0100
,
0102
0103
1001
0001
,
0010
0100
0010
0100
2000
0000
3001
0000
,
0200
0000
0310
0000
2000
0000
0000
3002
,
0000
0203
0320
0000
,
0130
0000
1100
1010
,
1001
0000
0100
0001
0200
0000
0302
0000
,
0013
0000
0011
1100
,
2002
3003
0011
1100
,
2002
0000
3003
0000
0001
0100
0010
0000
,
0100
0000
0001
0000
0001
0000
0010
0001
,
1000
0100
0010
0000
0001
1000
0001
0000
,
0100
0001
1000
0010
,
0100
0001
0011
1000
,
0100
0000
1000
0000
1000
0000
0010
0100
,
0010
1000
0001
0000
0010
0001
1000
0000
,
0001
0000
0100
0001
1000
0002
0000
0000
,
1003
0002
0000
0000
2003
0000
3020
0000
,
0230
0320
2030
3002
,
0203
0000
0302
0000
0013
0000
0100
1000
,
0100
0010
0001
1000
0002
0000
0203
0000
,
0320
0000
0000
0030
2000
0000
3002
0000
,
0203
0302
0023
0230
,
2300
0000
3020
0000
1030
0001
0100
0001
,
1000
0000
0010
1000
0010
0000
0100
0000
,
0002
0000
0000
0000
,
0003
0000
1000
0000
1010
0000
1000
0001
,
1000
0000
1001
0000
1001
0000
1000
0010
,
1000
0000
1001
0000
1000
0010
0100
0010
,
2000
0000
3010
0000
1000
0010
0100
0010
,
2000
0000
3010
0000
0001
0010
0100
1000
,
0200
0000
1300
0000
1000
0100
0010
0001
,
0020
0031
1001
0110
,
2002
3003
1001
0110
,
2002
3003
0001
0010
,
0001
1000
0100
0010
0001
0000
0100
0000
,
0010
0000
1000
0000
0002
0000
0000
0203
,
0000
0320
2030
0000
,
0010
3000
0000
0000
0011
0000
1001
0000
,
0011
0000
1000
0010
0100
0000
0001
0000
,
2000
3000
0011
1010
,
0022
0033
0011
1010
,
0022
0033
0001
0100
,
0020
0000
0000
0030
1000
0000
0001
0000
,
0200
0000
0000
0300
0001
0000
1000
0000
,
0010
0010
0200
0000
,
0300
0002
0000
0000
0000
0000
0000
0000
0000
0000
0000
0000
0003
0000
0000
0000
;

//---------------dance-single - ----------------
#NOTEDATA:;
#CHARTNAME:;
#STEPSTYPE:dance-single;
#DESCRIPTION:;
#CHARTSTYLE:;
#DIFFICULTY:Medium;
#METER:8;
#RADARVALUES:0.381336,0.500307,0.047245,0.401584,0.003937,339.000000,333.000000,6.000000,51.000000,0.000000,0.000000,0.000000,0.000000,0.000000,0.381336,0.500307,0.047245,0.401584,0.003937,339.000000,333.000000,6.000000,51.000000,0.000000,0.000000,0.000000,0.000000,0.000000;
#CREDIT:Musey;
#NOTES:
0000
0000
0000
0000
,
0000
0000
0000
0000
,
0000
0000
0000
0000
,
0000
0000
0000
0000
0000
0000
1000
0010
,
1000
0000
0001
0000
0100
0000
0010
1000
,
0001
1000
0020
0000
,
1030
0000
0001
0000
0100
0000
0010
1000
,
0001
1000
0200
0000
,
0310
0001
1000
1000
,
0001
0001
0200
0000
,
0310
1000
0001
0010
,
0100
0000
1000
0000
0001
1000
0001
0000
,
0200
0000
0000
0300
0001
0100
0010
0000
,
0100
0000
0001
0000
1000
0001
1000
0000
,
0002
0000
0013
0000
,
0001
0000
0001
1000
0010
0000
1000
0000
,
0002
0000
0000
0000
0103
0000
0010
1000
,
0010
1000
0100
1000
,
0002
0000
0103
0000
,
0100
0001
1000
1000
,
0020
0000
0000
0030
1000
0000
0100
0000
,
1000
0100
1000
0000
0002
0000
0000
0000
,
0103
0000
0010
0100
0001
0000
1000
0100
,
1000
0001
0010
0010
,
0100
0100
2000
0000
,
3001
0000
0100
0000
0001
0100
0001
0000
,
1000
0010
1000
0000
0002
0000
0000
0000
,
0100
0000
1003
0010
,
0010
0010
0200
0000
,
0301
0000
0002
0000
,
1003
0000
2000
0000
,
3010
0000
0100
0001
,
0010
0100
2000
0000
,
0001
0000
0000
0000
,
3001
0000
0100
0010
,
0100
0001
1000
1000
,
0010
0000
0010
0000
0200
0000
0000
0300
,
0001
0100
0001
0010
,
0100
1000
0002
0000
,
1003
0010
0100
0100
,
0010
1000
0002
0000
,
0013
0001
0100
0001
,
0010
0100
1000
0000
,
1000
0000
0001
0000
,
1001
0000
0001
0010
,
0100
0110
0001
0010
,
0100
0110
0001
1000
,
0002
0000
1003
0001
,
2000
0000
0000
0000
3001
0100
0010
0100
,
0002
0000
0103
0000
0001
0100
0010
0100
,
0002
0103
0001
1000
,
0200
0000
1300
0001
,
2000
0000
3001
1000
,
0010
1000
0001
0000
1000
0000
1000
0000
,
0001
0001
0200
0000
,
0320
0000
2030
0000
,
3001
0000
0100
0001
,
0100
0000
0001
1000
0010
0000
0010
0000
,
2000
0000
3001
0100
,
0002
0000
0103
0001
,
2000
0000
3010
1000
,
0010
0010
1000
0001
,
0100
0100
0001
1000
,
0010
1000
0001
0001
,
1000
0100
1100
0001
,
1000
0010
0010
1000
,
0001
0100
0001
0001
,
0010
0010
0200
0000
,
2300
0000
3001
0100
,
0010
1000
0001
0010
,
0100
1000
0001
1000
,
0010
1000
0001
0001
,
0200
0000
0301
0010
,
0100
0010
0001
1000
,
0010
1000
0001
0001
,
1000
1000
0100
1000
,
0200
1000
2000
0000
,
3300
0000
1001
0001
,
0100
0001
1001
0001
,
0100
0001
1000
0001
,
0200
0310
1000
0001
,
0200
0000
0310
0000
1000
0100
1000
0100
,
0020
0000
0130
0000
1000
0100
1000
0100
,
0020
0130
1000
0001
,
0200
0000
0301
1000
,
0020
0000
1030
0001
,
1000
0010
0100
0100
,
0001
0001
2000
0000
,
3020
0000
0230
0000
,
0301
0000
1000
0001
,
0100
0000
0001
1000
0010
0000
1000
0000
,
0002
0003
0100
0001
,
0200
0000
0301
0100
,
0002
0000
1003
0000
,
2000
0000
3010
0000
,
0020
0000
0130
0000
,
0100
0000
0020
0000
,
0000
0230
0000
0000
0000
0000
0000
0000
0000
0000
0000
0000
0300
0000
0000
0000
;

//---------------dance-single - ----------------
#NOTEDATA:;
#CHARTNAME:;
#STEPSTYPE:dance-single;
#DESCRIPTION:;
#CHARTSTYLE:;
#DIFFICULTY:Easy;
#METER:5;
#RADARVALUES:0.244100,0.344595,0.047245,0.330716,0.000000,217.000000,211.000000,6.000000,42.000000,0.000000,0.000000,0.000000,0.000000,0.000000,0.244100,0.344595,0.047245,0.330716,0.000000,217.000000,211.000000,6.000000,42.000000,0.000000,0.000000,0.000000,0.000000,0.000000;
#CREDIT:Musey;
#NOTES:
0000
0000
0000
0000
,
0000
0000
0000
0000
,
0000
0000
0000
0000
,
0000
0000
0000
0000
,
0000
0000
1000
0000
,
0001
1000
0002
0000
,
0103
0000
0010
0000
,
1000
0001
2000
0000
,
3010
0000
0100
0000
,
0001
0000
1000
0100
,
1000
0000
0001
0000
,
0010
0000
0001
0001
,
1000
1000
0001
0100
,
0010
0000
0200
0000
,
0301
0000
1000
0000
,
1000
0000
0002
0000
,
0013
0000
0001
1000
,
0010
0000
2000
0000
,
3010
0000
0100
0000
,
0100
0000
0002
0000
,
1003
0000
0100
1000
,
0100
1000
0200
0000
,
1300
0000
0001
0010
,
0001
0010
0002
0000
,
0103
0000
0200
0000
,
0310
0000
1000
0000
,
1000
0000
0002
0000
,
1000
0000
1000
0000
,
1003
0000
0220
0000
,
0000
0000
0330
0000
,
0000
0000
2002
0000
,
0000
0000
3003
0000
,
0000
0000
2200
0000
,
0000
0000
3300
0000
,
0000
0000
0220
0000
,
0000
0000
0330
0000
,
0000
0000
1000
0000
,
0001
0000
1000
0001
,
1000
0000
0010
0000
,
0100
0000
0010
0100
,
0010
0000
1000
0000
,
1000
0000
0001
0000
,
0001
0000
0100
0000
,
0010
0000
0100
0000
,
0001
0000
1000
0100
,
1000
0000
0100
1000
,
0100
0000
2000
0000
,
3001
0000
0002
0000
,
1003
0000
0010
1000
,
0001
0000
1000
0001
,
1000
0000
0002
0000
,
0103
0000
0200
0000
,
0301
0000
1001
0000
,
0100
1000
0001
0000
,
1000
0001
0200
0000
,
0320
0000
2030
0000
,
3001
0000
0100
0001
,
0100
0010
2000
0000
,
3001
0000
0100
0001
,
0100
0000
0001
0100
,
0001
0000
1000
0000
,
1000
0000
0010
0000
,
0010
0000
1000
0000
,
0001
0000
0100
0001
,
0100
0000
0101
0000
,
0001
0000
1000
0000
,
0010
0000
1000
0000
,
0100
0000
0020
0000
,
0230
0000
1300
0001
,
1000
0000
0010
0000
,
0010
0000
1000
0000
,
1000
0000
0001
0100
,
0001
0000
1000
0000
,
1000
0000
0010
0000
,
0010
0000
1000
0001
,
0100
0000
0100
0000
,
0002
0000
0000
0000
,
0003
0000
1000
0001
,
2000
0000
3001
1000
,
0002
0000
0103
0000
,
0100
0000
0010
0000
,
0010
0000
1000
0100
,
1000
1000
0001
1000
,
0001
0001
0200
0000
,
0310
0000
2000
0000
,
3001
0000
0100
0000
,
0100
0001
0010
0000
,
0010
0100
0020
0000
,
0230
0000
2300
0000
,
0000
3000
0001
0100
,
0001
1000
0020
0000
,
1030
0000
0001
1000
,
0002
0000
1003
0001
,
2000
0000
3010
1000
,
0002
0000
0013
0100
,
0020
0000
0130
0000
,
1000
0000
0200
0000
,
0000
0300
0000
0000
;

//---------------dance-single - ----------------
#NOTEDATA:;
#CHARTNAME:;
#STEPSTYPE:dance-single;
#DESCRIPTION:;
#CHARTSTYLE:;
#DIFFICULTY:Beginner;
#METER:3;
#RADARVALUES:0.156359,0.191934,0.015748,0.149610,0.000000,139.000000,137.000000,2.000000,19.000000,0.000000,0.000000,0.000000,0.000000,0.000000,0.156359,0.191934,0.015748,0.149610,0.000000,139.000000,137.000000,2.000000,19.000000,0.000000,0.000000,0.000000,0.000000,0.000000;
#CREDIT:Musey;
#NOTES:
0000
0000
0000
0000
,
0000
0000
0000
0000
,
0000
0000
0000
0000
,
0000
0000
0000
0000
,
0000
0000
1000
0000
,
1000
0000
1000
0000
,
0000
0000
0001
0000
,
0001
0000
0001
0000
,
0000
0000
0100
0000
,
0010
0000
0100
0000
,
0000
0000
1000
0000
,
0001
0000
1000
0000
,
1000
0000
0010
0000
,
0010
0000
1000
0000
,
0000
0000
0001
0000
,
0100
0000
0001
0000
,
0000
0000
1000
0000
,
0001
0000
1000
0000
,
0000
0000
0010
0000
,
0100
0000
0010
0000
,
0000
0000
1000
0000
,
1000
0000
1000
0000
,
0000
0000
0001
0000
,
0001
0000
0001
0000
,
0000
0000
0100
0000
,
0100
0000
0100
0000
,
0000
0000
0020
0000
,
0000
0000
1030
0000
,
0000
0000
2000
0000
,
0000
0000
0000
0000
,
0000
0000
3002
0000
,
0000
0000
0000
0000
,
0000
0000
0203
0000
,
0000
0000
0000
0000
,
0000
0000
0320
0000
,
0000
0000
0000
0000
,
0000
0000
1030
0000
,
1000
0000
1000
0000
,
1000
0000
0001
0000
,
0001
0000
0001
0000
,
0001
0000
0100
0000
,
0010
0000
0100
0000
,
0100
0000
0001
0000
,
1000
0000
0001
0000
,
1000
0000
0010
0000
,
0010
0000
0100
0000
,
0100
0000
0001
0000
,
0001
0000
1000
0000
,
1000
0000
0001
0000
,
0001
0000
1000
0000
,
1000
0000
0010
0000
,
1000
0000
0020
0000
,
0000
0000
1030
0000
,
1000
0000
0001
0000
,
0100
0000
0002
0000
,
0000
0000
1003
0000
,
0000
0000
1000
0000
,
1000
0000
0020
0000
,
0000
0030
1000
0000
,
1000
0000
2000
0000
,
0000
0000
3010
0000
,
0000
0000
0010
0000
,
0000
0000
0100
0000
,
0000
0000
0001
0000
,
0000
0000
1001
0000
,
0000
0000
1000
0000
,
0000
0000
0010
0000
,
1000
0000
0020
0000
,
0000
0000
0130
0000
,
0100
0000
0001
0000
,
0001
0000
1000
0000
,
1000
0000
0020
0000
,
0000
0000
1030
0000
,
1000
0000
0001
0000
,
0001
0000
0100
0000
,
0100
0000
0020
0000
,
0000
0000
0000
0000
,
0030
0000
2002
0000
,
0000
0000
0000
0000
,
3003
0000
0100
0000
,
0100
0000
0001
0000
,
0001
0000
1000
0000
,
1000
0000
0001
0000
,
0001
0000
0100
0000
,
0001
0000
0200
0000
,
0000
0000
0310
0000
,
0010
0000
1000
0000
,
1000
0000
0001
0000
,
1000
0000
0002
0000
,
0000
0003
0100
0000
,
0100
0000
0010
0000
,
0010
0000
1000
0000
,
1000
0000
0010
0000
,
0010
0000
0200
0000
,
0000
0000
0310
0000
,
0000
0000
2000
0000
,
0000
0000
3002
0000
,
0000
0000
0003
0000
;
