#TITLE:XOXZ;
#SUBTITLE:;
#ARTIST:IVE;
#TITLETRANSLIT:;
#SUBTITLETRANSLIT:;
#ARTISTTRANSLIT:;
#GENRE:;
#CREDIT:;
#BANNER:AV.avi;
#BACKGROUND:BG.png;
#LYRICSPATH:;
#CDTITLE:;
#MUSIC:xoxz.ogg;
#OFFSET:-0.306000;
#SAMPLESTART:34.220009;
#SAMPLELENGTH:15.000007;
#SELECTABLE:YES;
#BPMS:0.000000=196.000000
;
#STOPS:
;
#BGCHANGES:0.000=mv.avi=1.400=1=0=1===CrossFade==,
4.000=mv.avi=1.000=0=0=1=====,
99999=-nosongbg-=1.000=0=0=0 // don't automatically add -songbackground-
;
#KEYSOUNDS:;
#ATTACKS:;

//---------------dance-single - ----------------
#NOTES:
     dance-single:
     :
     Challenge:
     15:
     0.760370,0.874562,0.790296,0.123781,0.247562,559.000000,476.000000,83.000000,13.000000,0.000000,0.000000,0.760370,0.874562,0.790296,0.123781,0.247562,559.000000,476.000000,83.000000,13.000000,0.000000,0.000000:
// measure 0
0000
0000
0000
0000
,  // measure 1
0000
0000
0000
0000
,  // measure 2
0000
0000
0000
0000
,  // measure 3
0000
0000
0000
1100
,  // measure 4
1001
0000
1100
0000
0001
0010
0100
0000
,  // measure 5
1000
0010
0100
0011
,  // measure 6
1001
0000
0011
0000
1000
0010
1000
0000
,  // measure 7
1000
0000
0010
0100
0001
0000
1010
0000
,  // measure 8
0110
0000
1010
0000
0001
0100
0010
0000
,  // measure 9
0100
0000
0001
0000
0010
0100
1000
0001
,  // measure 10
1000
0010
0100
0000
0001
1000
0001
1000
,  // measure 11
0010
0100
0001
2000
0000
3000
0110
0000
,  // measure 12
1010
0000
0110
0000
1000
0001
0010
0000
,  // measure 13
0001
0000
0000
1010
,  // measure 14
0101
0000
1010
0000
0010
0100
0001
0000
,  // measure 15
0010
0100
1000
1010
,  // measure 16
1001
0000
0110
0000
1000
0100
1000
0000
,  // measure 17
0010
0000
0100
0000
0001
0010
1000
0010
,  // measure 18
0001
1000
0100
0000
1000
0100
1000
0100
,  // measure 19
0010
0100
1000
0000
0001
0000
0100
0010
,  // measure 20
0100
0010
1000
0100
0010
0100
0010
0001
,  // measure 21
1000
0010
0100
1000
0100
1000
0100
0001
,  // measure 22
0100
0001
1000
0100
0010
0100
0010
0100
,  // measure 23
1000
0001
1000
0010
1000
0010
0100
0001
,  // measure 24
0010
0100
0010
0001
1000
0100
0001
0100
,  // measure 25
1000
0010
0100
0001
0010
0100
1000
0000
,  // measure 26
0000
0000
0000
0000
,  // measure 27
0000
0000
0000
1100
,  // measure 28
1000
0100
1000
0001
0100
0000
0000
0000
0001
0010
0001
1000
0010
0000
0000
0000
,  // measure 29
1000
0000
0000
0001
0000
0000
0100
0000
0000
0001
0000
0000
1000
0000
0000
0000
0000
0000
0000
0000
1100
0000
0000
0000
0000
0000
0000
0000
0001
0000
0000
0000
0000
0000
0000
0000
1001
0000
0000
0000
0000
0000
0000
0000
0000
0000
0000
0000
,  // measure 30
0001
0100
0010
0100
0001
0000
0000
0000
1000
0010
0100
0010
1000
0000
0000
0000
,  // measure 31
1100
0101
1100
0110
,  // measure 32
1000
0000
0100
0000
1000
0000
0100
0000
1000
0001
1000
0001
0100
0000
0000
0000
,  // measure 33
1001
0000
0001
0100
0020
0000
0130
0000
,  // measure 34
0001
0010
0001
0010
1000
0010
0001
0000
,  // measure 35
1001
0000
0100
0010
0100
0000
1001
0000
,  // measure 36
0001
0010
0001
1000
0010
0000
0000
0000
1000
0100
1000
0001
0100
0000
0000
0000
,  // measure 37
0001
0000
0000
1000
0000
0000
0010
0000
0000
1000
0000
0000
0001
0000
0000
0000
0000
0000
0000
0000
1001
0000
0000
0000
0000
0000
0000
0000
0100
0000
0000
0000
0000
0000
0000
0000
0101
0000
0000
0000
0000
0000
0000
0000
0000
0000
0000
0000
,  // measure 38
1000
0010
0100
0010
1000
0000
0000
0000
0001
0100
0010
0100
0001
0000
0000
0000
,  // measure 39
0110
1001
0110
1100
,  // measure 40
0001
0000
0100
0000
1000
0000
0100
0000
0001
1000
0001
1000
0010
0000
0000
0000
,  // measure 41
0110
0000
1000
0100
2000
0000
3010
0000
,  // measure 42
1001
1000
1010
0101
,  // measure 43
1010
0110
0000
1001
,  // measure 44
0010
1000
0002
0000
0013
0000
0100
0010
,  // measure 45
0002
0000
0013
0100
1000
0100
1000
0000
,  // measure 46
0002
0000
2003
0000
3010
0000
0100
0001
,  // measure 47
0020
0000
0031
1000
0100
1000
0010
0000
,  // measure 48
1000
0000
1001
0000
0100
1000
0100
0010
,  // measure 49
0100
1000
0100
0000
1001
0000
1010
0000
,  // measure 50
0100
0000
0101
0000
0001
0010
0100
0010
,  // measure 51
0001
0010
0200
0000
1300
0000
0101
0000
,  // measure 52
0010
1000
0001
0010
0002
0000
1003
0010
,  // measure 53
1000
0001
0100
0000
1001
0000
0110
0000
,  // measure 54
0001
1000
0100
0001
0100
0000
1000
0010
,  // measure 55
0001
0010
0100
0000
1010
0000
0011
0000
,  // measure 56
0100
0000
0000
0000
1001
0000
0000
0000
0010
1000
0010
1000
0001
0000
1000
0000
,  // measure 57
0100
1100
0010
1001
,  // measure 58
0100
0010
1000
0000
0001
0100
0000
0100
,  // measure 59
0010
1000
0002
0000
0003
0000
0000
0000
,  // measure 60
1000
0100
1000
0001
0100
0000
0000
0000
0001
0100
0001
1000
0100
0000
0000
0000
,  // measure 61
1100
0000
0000
1001
0000
1001
0000
1010
0000
1010
0000
0000
,  // measure 62
1000
0001
0100
0010
1000
0000
0000
0000
0001
1000
0010
0100
0001
0000
0000
0000
,  // measure 63
1000
0100
0001
0100
1000
0001
1000
0000
,  // measure 64
0010
0100
0010
0100
0001
0000
2100
0000
,  // measure 65
3010
0100
1000
0100
0001
1000
0100
0000
,  // measure 66
1000
0100
0001
0100
1000
0001
0010
0000
,  // measure 67
0010
0100
1000
0001
0010
0001
1000
0000
,  // measure 68
1000
0001
0010
0001
1000
0000
0000
0000
0001
1000
0010
1000
0001
0000
0000
0000
,  // measure 69
0100
0000
0000
0010
0000
0000
0100
0000
0000
0001
0000
0000
1000
0000
0000
0000
0000
0000
0000
0000
1001
0000
0000
0000
0000
0000
0000
0000
0001
0000
0000
0000
0000
0000
0000
0000
0011
0000
0000
0000
0000
0000
0000
0000
0000
0000
0000
0000
,  // measure 70
1000
0100
0010
0001
1000
0000
0000
0000
0001
0010
0100
1000
0001
0000
0000
0000
,  // measure 71
1000
0100
0001
1000
0010
0001
0100
0000
,  // measure 72
0010
0100
0001
0100
0010
0000
0102
0000
,  // measure 73
1003
0010
1000
0010
0100
0000
1010
0000
,  // measure 74
1100
0000
0011
1100
,  // measure 75
0011
1010
0000
1001
,  // measure 76
0010
0100
0001
0000
0010
0000
1001
0000
,  // measure 77
1001
0010
1000
1100
,  // measure 78
0001
0010
0100
0000
0010
0000
0011
0000
,  // measure 79
0011
0100
1000
1010
,  // measure 80
0001
0100
0010
0000
0100
0000
0011
0000
,  // measure 81
0011
0100
1000
1100
,  // measure 82
1010
1010
0000
1001
,  // measure 83
1001
0000
0110
0000
;

//---------------dance-single - ----------------
#NOTES:
     dance-single:
     :
     Hard:
     12:
     0.632508,0.715551,0.552255,0.171389,0.119020,465.000000,407.000000,58.000000,18.000000,0.000000,0.000000,0.632508,0.715551,0.552255,0.171389,0.119020,465.000000,407.000000,58.000000,18.000000,0.000000,0.000000:
0000
0000
0000
0000
,
0000
0000
0000
0000
,
0000
0000
0000
0000
,
0000
0000
0000
1000
,
0100
0000
1000
0000
0001
0100
0010
0000
,
0100
0001
1000
0100
,
1000
0000
0010
0000
1000
0001
0100
0000
,
0100
0010
1000
0001
,
0100
0000
0010
0000
0100
0001
0010
0000
,
0001
0000
1000
0000
0001
0100
0010
1000
,
0001
0010
0100
0000
1000
0000
0001
1000
,
0010
0100
0001
0000
0100
0000
0001
0000
,
0001
0000
0010
0000
0100
0010
0001
0000
,
1000
0000
0000
1000
,
1000
0000
0010
0000
0100
0001
0010
0000
,
0001
0100
0001
1000
,
0010
0000
0100
0000
0010
0100
0001
0000
,
0010
0000
0100
0000
1000
0100
1000
0001
,
0100
0001
1000
0000
0010
0000
1000
0000
,
1000
0000
0002
0000
0000
0000
0103
0001
,
0100
0001
0200
0000
0310
1000
0010
1000
,
0010
0000
0100
0001
0100
0001
0100
0010
,
0100
0010
2000
0000
3001
1000
0001
1000
,
0002
0000
0103
0010
0100
0010
1000
0000
,
0001
0100
0010
0000
0100
0000
0001
0000
,
0001
0010
0001
0010
0100
1000
0010
0000
,
0000
0000
0000
0000
,
0000
0000
0000
1001
,
1000
0100
1000
0000
0001
0000
0000
0000
0001
0010
0001
0000
1000
0000
0000
0000
,
0010
0000
0000
1000
0000
0000
0010
0000
0000
0000
0000
0000
1000
0000
0000
0000
0000
0000
0000
0000
0001
0000
0000
0000
0000
0000
0000
0000
0100
0000
0000
0000
0000
0000
0000
0000
0010
0000
0000
0000
0000
0000
0000
0000
0000
0000
0000
0000
,
1000
0001
1000
0000
0010
0000
0000
0000
0001
1000
0001
0000
0100
0000
0000
0000
,
0011
1100
0011
1100
,
0001
1000
0001
1000
0010
0000
0100
0000
,
0110
0000
0001
0010
0200
0000
1300
0000
,
0001
1000
0010
1000
0001
0100
0010
0000
,
0110
0000
0100
0001
0010
0000
1001
0000
,
0100
0001
0100
0000
0010
0000
0000
0000
1000
0010
1000
0000
0001
0000
0000
0000
,
1000
0000
0000
0001
0000
0000
1000
0000
0000
0000
0000
0000
0001
0000
0000
0000
0000
0000
0000
0000
0010
0000
0000
0000
0000
0000
0000
0000
0100
0000
0000
0000
0000
0000
0000
0000
1000
0000
0000
0000
0000
0000
0000
0000
0000
0000
0000
0000
,
1000
0001
1000
0000
0010
0000
0000
0000
0001
1000
0001
0000
0100
0000
0000
0000
,
0011
1100
1001
0110
,
0001
0010
0100
0010
0001
1000
0010
0000
,
0110
0000
0100
0010
1000
0000
0001
0000
,
1001
0000
1100
1010
,
1100
1001
0000
0110
,
0001
0010
0002
0000
0103
0000
0010
0100
,
0002
0000
0013
0100
0020
0000
0031
0000
,
1000
0000
0020
0000
1030
0000
0100
0010
,
0002
0000
1003
0010
2000
0000
3001
0000
,
0100
0101
0001
0011
,
0001
2010
0001
3100
,
0001
0011
0010
1001
,
0010
0102
0013
1100
,
0001
1000
0020
0000
1030
0000
0001
0100
,
0001
0010
0200
0000
0310
0000
1100
0000
,
0001
1000
0020
0000
0130
0000
0010
1000
,
0001
1000
0100
0000
1000
0000
1001
0000
,
0001
0011
0010
0110
,
0100
1100
1000
1010
,
0000
0101
0000
0000
1100
0000
0000
1001
,
0000
0220
0330
0000
,
0001
0010
0001
0000
1000
0100
1000
0000
,
0010
0000
0000
1001
0000
0001
0000
0100
0000
0101
0000
0000
,
1000
0000
0001
1000
0001
0000
0000
0000
0100
0000
0010
0100
0010
0000
0000
0000
,
1100
0011
1100
1001
,
1000
0010
1000
0010
0100
0001
0010
0000
,
0011
0000
0001
0010
0100
0000
1001
0000
,
1000
0010
1000
0010
0100
0001
0010
0000
,
0110
0000
0001
1000
0010
0000
1001
0000
,
1000
0001
1000
0000
0010
0000
0000
0000
0100
0001
0100
0000
0010
0000
0000
0000
,
1000
0000
0000
0001
0000
0000
1000
0000
0000
0000
0000
0000
0001
0000
0000
0000
0000
0000
0000
0000
0100
0000
0000
0000
0000
0000
0000
0000
0001
0000
0000
0000
0000
0000
0000
0000
0010
0000
0000
0000
0000
0000
0000
0000
0000
0000
0000
0000
,
0001
1000
0001
0000
0100
0000
0000
0000
0001
1000
0001
0000
0010
0000
0000
0000
,
0011
1100
0011
1001
,
0001
1000
0001
1000
0010
0100
0001
0000
,
1001
0000
0001
0010
0100
0000
1100
0000
,
1001
0000
1010
0101
,
1010
1001
0000
1100
,
0001
1000
0010
0000
0100
0000
0001
0000
,
0001
0010
0100
0010
,
0001
1000
0010
0000
1000
0000
0010
0000
,
0010
1000
0001
1000
,
0100
0010
0001
0000
1000
0000
0010
0000
,
0010
0100
0010
1000
,
0010
0010
0000
1000
,
1000
0000
1000
0000
;

//---------------dance-single - ----------------
#NOTES:
     dance-single:
     :
     Medium:
     9:
     0.506007,0.636045,0.285649,0.133303,0.000000,372.000000,342.000000,30.000000,14.000000,0.000000,0.000000,0.506007,0.636045,0.285649,0.133303,0.000000,372.000000,342.000000,30.000000,14.000000,0.000000,0.000000:
0000
0000
0000
0000
,
0000
0000
0000
0000
,
0000
0000
0000
0000
,
0000
0000
0000
1000
,
0001
0000
1000
0000
0010
0100
0002
0000
,
0000
0013
0000
0001
,
0010
0000
0001
0000
1000
0010
2000
0000
,
0000
3010
0000
0100
,
0001
0000
0010
0000
0100
1000
0020
0000
,
0000
0130
0001
1000
,
0100
0010
0001
2000
,
0000
3010
0000
0100
,
0001
0000
0100
0000
0010
1000
0001
0000
,
0000
0000
0000
1000
,
0001
0000
1000
0000
0010
0100
0001
0000
,
0010
0100
0010
0001
,
1000
0000
0010
0000
0100
0001
2000
0000
,
0000
0000
3010
0000
0000
0000
1000
0100
,
1000
0001
0100
0020
,
0000
0130
0000
0001
,
0001
0010
0010
0001
,
0001
0000
1000
0001
1000
0001
0100
0000
,
0100
0010
0010
1000
,
1000
0000
0001
1000
0001
1000
0001
0000
,
0001
0100
0010
0100
,
0001
0000
0010
0100
0010
0000
0002
0000
,
0000
0000
0000
0000
,
0000
0000
0000
1003
,
0010
1000
0100
0000
1000
0001
0100
0000
,
0001
0010
0100
0000
0010
0000
1001
0000
,
0100
1000
0001
0000
0100
0010
1000
0000
,
0011
0011
1100
1100
,
0001
1000
0010
0000
1000
0000
0001
0000
,
0001
0000
0100
0001
0100
0000
0001
0000
,
0010
0000
0100
1000
0001
0000
0100
0000
,
0100
0000
0010
1000
0001
0000
0010
0000
,
0001
1000
0010
0000
1000
0001
0100
0000
,
0001
1000
0100
0000
0010
0000
0011
0000
,
0001
1000
0010
0000
1000
0001
0100
0000
,
0011
1100
0011
1100
,
0001
1000
0010
1000
0001
0000
0100
0000
,
0100
0000
0001
0010
0100
0000
1000
0000
,
0001
0000
0101
1100
,
0101
1100
0000
0001
,
1000
0020
0130
0001
,
0020
0031
2000
3010
,
0100
0002
0013
0100
,
2000
3010
0200
0301
,
0010
0000
0001
0000
1000
0000
0010
1000
,
0010
1000
0001
0000
0100
0000
0010
0000
,
1000
0000
0100
0000
0010
0000
0001
1000
,
0001
1000
0010
0000
0100
0000
0001
0000
,
0010
0100
0010
0000
0001
0000
1000
0100
,
1000
0000
0001
0100
0001
0000
1000
0000
,
0100
0000
0010
0000
0001
0000
1000
0010
,
1000
0000
0001
0100
0001
0000
0010
0000
,
0100
0010
0100
1000
,
0100
1000
0001
0100
,
0000
0001
0000
0000
0100
0000
0000
0010
,
0000
0000
2000
0000
0000
3000
0000
0000
,
0001
0100
0001
0000
1000
0100
1000
0000
,
0010
1000
1000
1100
,
0001
0010
0100
0000
1000
0001
0100
0000
,
0011
1100
0011
1100
,
0001
1000
0001
1000
0010
0000
0100
0000
,
0100
0000
0010
0100
0001
0000
0010
0000
,
0001
0010
0001
0010
0100
0000
1000
0000
,
1000
0000
0001
1000
0010
0000
0100
0000
,
0001
0010
0100
0000
1000
0010
0100
0000
,
0001
0011
0110
0011
,
0100
1000
0010
0000
0100
0001
0010
0000
,
1001
0110
1001
0110
,
1000
0000
0001
1000
0010
1000
0001
0000
,
0001
0000
0001
0100
0010
0000
1000
0000
,
0000
0000
1100
0011
,
1100
0011
0000
1000
,
0001
1000
0010
0100
,
0100
0001
0010
0100
,
1000
0100
0010
0001
,
0001
0100
0010
1000
,
0001
0100
0010
1000
,
1000
0001
0010
0000
,
0001
0001
0000
1000
,
1000
0000
1000
0000
;

//---------------dance-single - ----------------
#NOTES:
     dance-single:
     :
     Easy:
     5:
     0.303332,0.356704,0.114260,0.019043,0.000000,223.000000,211.000000,12.000000,2.000000,0.000000,0.000000,0.303332,0.356704,0.114260,0.019043,0.000000,223.000000,211.000000,12.000000,2.000000,0.000000,0.000000:
0000
0000
0000
0000
,
0000
0000
0000
0000
,
0000
0000
0000
0000
,
0000
0000
0000
1000
,
0001
1000
0010
0100
,
0000
0100
0000
0001
,
0010
0100
0010
0001
,
0000
0001
0000
1000
,
0010
1000
0010
0100
,
0000
0100
0000
0001
,
0010
0100
1000
0001
,
0000
0100
0000
0010
,
1000
0100
1000
0001
,
0000
0000
0000
1000
,
0001
1000
0010
0100
,
0000
0100
0000
0001
,
0010
0001
1000
0010
,
0000
1000
0000
0100
,
1000
0001
0100
0010
,
0000
1000
0000
0001
,
0000
0001
0000
0001
,
0000
1000
0100
1000
,
0000
1000
0000
1000
,
0000
0010
1000
0001
,
0100
0001
0000
0010
,
0000
0100
1000
0010
,
0000
0000
0000
0000
,
0000
0000
0000
1000
,
0001
1000
0001
0100
,
0000
0100
0000
0001
,
0010
0100
0010
0001
,
0000
1000
0000
1001
,
0000
0001
0100
0010
,
0100
0001
0000
1001
,
0000
0001
0000
0010
,
0100
1000
0000
1001
,
0000
0010
1000
0001
,
0100
0010
0000
1010
,
0000
1000
0000
0100
,
0010
0001
0000
0101
,
0000
1100
0000
0001
,
1000
0010
0000
1100
,
0000
1010
0000
0001
,
1000
0010
0000
1000
,
0000
1000
0000
0100
,
0010
0001
0010
0100
,
0000
1000
0000
0010
,
1000
0001
0100
0010
,
0000
0100
0000
0010
,
0100
0010
0000
1000
,
0000
0001
0000
0100
,
0001
0100
0000
0010
,
1000
0001
1000
0020
,
0000
0130
0000
0001
,
0010
0100
0010
0002
,
0000
1003
0000
0010
,
1000
0100
1000
0010
,
1000
0100
1000
0001
,
0000
0001
0000
0100
,
0000
0100
0000
0000
,
0000
0000
0000
0000
,
0000
0000
0000
1001
,
0000
1100
0000
0011
,
0000
1100
0000
0001
,
1000
0010
1000
0001
,
0000
0001
0000
0100
,
0010
0100
0010
1000
,
0000
1000
0000
0001
,
0010
0100
0000
0001
,
1000
0010
0000
1000
,
0010
0100
0000
0001
,
1000
0010
1000
0001
,
0000
0001
0000
0010
,
0100
0010
0100
1000
,
0000
0000
0000
0001
,
0000
0001
0000
1000
,
0000
1000
0000
0010
,
1000
0001
0000
0100
,
0000
0100
0000
0001
,
0010
0100
0000
1000
,
0000
1000
0000
0001
,
0100
0010
0000
1000
,
0000
1000
0000
0001
,
0000
0001
0000
0000
;

//---------------dance-single - ----------------
#NOTES:
     dance-single:
     :
     Beginner:
     2:
     0.189072,0.236375,0.009522,0.000000,0.000000,139.000000,138.000000,1.000000,0.000000,0.000000,0.000000,0.189072,0.236375,0.009522,0.000000,0.000000,139.000000,138.000000,1.000000,0.000000,0.000000,0.000000:
0000
0000
0000
0000
,
0000
0000
0000
0000
,
0000
0000
0000
0000
,
0000
0000
0000
1000
,
0000
0001
0000
1000
,
0000
1000
0000
0010
,
0000
0100
0000
0001
,
0000
0001
0000
0010
,
0000
0001
0000
1000
,
0000
1000
0000
0010
,
0000
0100
0000
0001
,
0000
1000
0000
0100
,
0000
0100
0000
1000
,
0000
0000
0000
0001
,
0000
0001
0000
0100
,
0000
0100
0000
0010
,
0000
1000
0000
0100
,
0000
0100
0000
1000
,
0000
0001
0000
0100
,
0000
0000
0000
0010
,
0000
1000
0000
0001
,
0000
0010
0000
0001
,
0000
0001
0000
1000
,
0000
1000
0000
0010
,
0000
1000
0000
0001
,
0000
0100
0000
0001
,
0000
0000
0000
0000
,
0000
0000
0000
1000
,
0000
0010
0000
1000
,
0000
0100
0000
1000
,
0000
0001
0000
0100
,
0000
0001
0000
0100
,
0000
0100
0000
0010
,
0000
0000
0000
1000
,
0000
1000
0000
0001
,
0000
0000
0000
1000
,
0000
0010
0000
1000
,
0000
0001
0000
0100
,
0000
0001
0000
0010
,
0000
0001
0000
1000
,
0000
1000
0000
0100
,
0000
0100
0000
1000
,
0000
0000
0000
0000
,
0000
0000
0000
1000
,
0000
0001
0000
0100
,
0000
0100
0000
0001
,
0000
0010
0000
0001
,
0000
0001
0000
1000
,
0000
0010
0000
0100
,
0000
0100
0000
0001
,
0000
1000
0000
0001
,
0000
0001
0000
0010
,
0000
0100
0000
1000
,
0000
0001
0000
1000
,
0000
1000
0000
0010
,
0000
0010
0000
0100
,
0000
0100
0000
0001
,
0000
0001
0000
1000
,
0000
0000
0000
0000
,
0000
0000
0000
0000
,
0000
0000
0000
0000
,
0000
0000
0000
1001
,
0000
0001
0000
0010
,
0000
0001
0000
0100
,
0000
0100
0000
0001
,
0000
0001
0000
1000
,
0000
1000
0000
0010
,
0000
0010
0000
1000
,
0000
0100
0000
1000
,
0000
0001
0000
0100
,
0000
0010
0000
1000
,
0000
0001
0000
0010
,
0000
0010
0000
0001
,
0000
0001
0000
0100
,
0000
0000
0000
0000
,
0000
0000
0000
1000
,
0000
1000
0000
0001
,
0000
0001
0000
0100
,
0000
0100
0000
0010
,
0000
0010
0000
1000
,
0000
1000
0000
0001
,
0000
0001
0000
1000
,
0000
0000
0000
1000
;
