#VERSION:0.83;
#TITLE:Wife;
#SUBTITLE:;
#ARTIST:(G)I-DLE;
#TITLETRANSLIT:;
#SUBTITLETRANSLIT:;
#ARTISTTRANSLIT:;
#GENRE:;
#ORIGIN:;
#CREDIT:;
#BANNER:AV.avi;
#BACKGROUND:bg.png;
#PREVIEWVID:;
#JACKET:jacket.png;
#CDIMAGE:;
#DISCIMAGE:;
#LYRICSPATH:;
#CDTITLE:;
#MUSIC:audio.ogg;
#OFFSET:-0.046000;
#SAMPLESTART:34.614082;
#SAMPLELENGTH:14.999997;
#SELECTABLE:YES;
#BPMS:0.000=124.000;
#STOPS:;
#DELAYS:;
#WARPS:;
#TIMESIGNATURES:0.000=4=4;
#TICKCOUNTS:0.000=4;
#COMBOS:0.000=1;
#SPEEDS:0.000=1.000=0.000=0;
#SCROLLS:0.000=1.000,
20.000=2.000,
20.500=0.200,
20.875=1.000,
21.000=2.000,
21.500=0.200,
21.875=1.000,
22.000=2.000,
22.500=0.200,
22.875=1.000,
36.000=2.000,
36.500=0.200,
36.875=1.000,
37.000=2.000,
37.500=0.200,
37.875=1.000,
38.000=2.000,
38.500=0.200,
38.875=1.000,
84.000=2.000,
84.500=0.200,
84.875=1.000,
85.000=2.000,
85.500=0.200,
85.875=1.000,
86.000=2.000,
86.500=0.200,
86.875=1.000,
100.000=2.000,
100.500=0.200,
100.875=1.000,
101.000=2.000,
101.500=0.200,
101.875=1.000,
102.000=2.000,
102.500=0.200,
102.875=1.000,
104.000=2.000,
104.500=0.200,
104.875=1.000,
105.000=2.000,
105.500=0.200,
105.875=1.000,
106.000=2.000,
106.500=0.200,
106.875=1.000,
108.000=2.000,
108.500=0.200,
108.875=1.000,
109.000=2.000,
109.500=0.200,
109.875=1.000,
110.000=2.000,
110.500=0.200,
110.875=1.000,
112.000=2.000,
112.500=0.200,
112.875=1.000,
114.000=2.000,
114.500=0.200,
114.875=1.000,
116.000=2.000,
116.500=0.200,
116.875=1.000,
117.000=2.000,
117.500=0.200,
117.875=1.000,
118.000=2.000,
118.500=0.200,
118.875=1.000,
164.000=2.000,
164.500=0.200,
164.875=1.000,
165.000=2.000,
165.500=0.200,
165.875=1.000,
166.000=2.000,
166.500=0.200,
166.875=1.000,
180.000=2.000,
180.500=0.200,
180.875=1.000,
181.000=2.000,
181.500=0.200,
181.875=1.000,
182.000=2.000,
182.500=0.200,
182.875=1.000,
183.000=2.000,
183.500=0.200,
183.875=1.000,
196.000=2.000,
196.500=0.200,
196.875=1.000,
197.000=2.000,
197.500=0.200,
197.875=1.000,
198.000=2.000,
198.500=0.200,
198.875=1.000,
199.000=2.000,
199.500=0.200,
199.875=1.000,
212.000=2.000,
212.500=0.200,
212.875=1.000,
213.000=2.000,
213.500=0.200,
213.875=1.000,
214.000=2.000,
214.500=0.200,
214.875=1.000,
215.000=2.000,
215.500=0.200,
215.875=1.000,
228.000=2.000,
228.500=0.200,
228.875=1.000,
229.000=2.000,
229.500=0.200,
229.875=1.000,
230.000=2.000,
230.500=0.200,
230.875=1.000,
244.000=2.000,
244.500=0.200,
244.875=1.000,
245.000=2.000,
245.500=0.200,
245.875=1.000,
246.000=2.000,
246.500=0.200,
246.875=1.000;
#FAKES:;
#LABELS:0.000=Song Start;
#BGCHANGES:0.000=MV.avi=0.700=1=0=1===CrossFade==,
4.000=MV.avi=1.000=0=0=1=====,
99999=-nosongbg-=1.000=0=0=0 // don't automatically add -songbackground-
;
#KEYSOUNDS:;
#ATTACKS:
;

//---------------dance-single - ----------------
#NOTEDATA:;
#CHARTNAME:;
#STEPSTYPE:dance-single;
#DESCRIPTION:;
#CHARTSTYLE:;
#DIFFICULTY:Challenge;
#METER:15;
#RADARVALUES:0.759753,0.817117,0.527704,0.783311,0.725594,645.000000,581.000000,64.000000,95.000000,0.000000,0.000000,0.000000,0.000000,0.000000,0.759753,0.817117,0.527704,0.783311,0.725594,645.000000,581.000000,64.000000,95.000000,0.000000,0.000000,0.000000,0.000000,0.000000;
#CREDIT:Musey;
#NOTES:
// measure 0
0000
0000
0000
0000
,  // measure 1
0000
0000
0000
0000
0000
0000
0000
0010
,  // measure 2
0100
0000
0000
0100
0001
0000
1000
0000
0100
0000
1000
0001
0010
0000
0010
0000
,  // measure 3
0100
0000
0100
0010
0001
0000
0100
0000
0010
0000
0010
1000
0100
0000
0010
0000
,  // measure 4
0001
0000
1000
0100
0010
0000
0100
0000
0001
0000
0100
1000
0010
0000
1000
0000
,  // measure 5
2002
3003
2002
3003
2002
3003
1001
0010
,  // measure 6
0100
0000
0000
0100
0010
0000
1000
0000
0001
0000
0010
0100
0010
0000
0001
0000
,  // measure 7
1000
0000
1000
0100
0010
0000
0001
0000
1000
0000
0010
0100
0001
0000
0010
0000
,  // measure 8
1000
0000
0010
0001
0100
0000
0010
0000
0001
0000
0001
0010
1000
0000
0010
0000
,  // measure 9
0220
0330
0220
0330
0220
0330
1001
0001
,  // measure 10
0100
0001
0010
0000
0100
0000
1000
0001
1000
0000
0010
0000
0200
0300
0001
0100
,  // measure 11
1000
0100
0010
1000
0100
0000
1000
0001
0010
0000
0100
0000
2000
3000
0001
0100
,  // measure 12
0010
1000
0001
0010
1000
0000
0010
0001
0100
0000
0010
0000
0100
0000
0001
1000
,  // measure 13
0100
0000
1000
0001
0010
0100
0010
0001
1000
0010
1000
0100
0010
0000
0000
0000
,  // measure 14
0100
0001
0100
0001
1000
0010
0100
0001
0000
0100
0001
0000
1000
0000
0010
1000
,  // measure 15
0100
0010
0001
0010
0100
1000
0010
0100
0001
0100
1000
0100
0001
0000
0100
0010
,  // measure 16
1000
0100
0001
0100
1000
0001
0100
0010
0001
0010
2000
3001
0010
0000
0001
1000
,  // measure 17
0100
0000
0000
0010
0000
0000
0100
0000
0000
1000
0000
0000
0001
0000
0000
0000
0000
0000
1000
0000
0000
0010
0000
0000
0100
0000
0000
0000
0010
0000
0000
0000
0100
0000
0000
0000
0001
0000
0000
0000
1000
0000
0000
0000
0100
0000
0000
0000
,  // measure 18
0010
0000
0000
0001
0100
0000
0010
0000
1000
0000
0000
0000
0110
0000
0001
0000
,  // measure 19
1000
0000
1000
0100
1000
0000
1000
0000
0010
0000
0010
0100
0001
0000
0010
0000
,  // measure 20
0001
0000
1001
0000
0110
0001
1000
0000
,  // measure 21
2200
3300
2200
3300
2200
3300
1100
0001
,  // measure 22
0100
0010
1000
0001
1000
0000
0100
0010
0001
0010
0100
1000
0010
0100
0001
1000
,  // measure 23
0100
0010
0100
1000
0001
0000
1000
0100
0010
0001
0010
0100
1000
0001
0100
0010
,  // measure 24
1000
0001
0010
0100
0010
0000
0001
0010
0100
0010
0001
1000
0010
1000
0001
0000
,  // measure 25
0220
0330
0220
0330
0220
0330
0210
0300
,  // measure 26
2002
3003
0000
0000
2002
3003
0000
0000
2002
3003
0000
0000
0010
0000
0100
0000
,  // measure 27
0220
0330
0000
0000
0220
0330
0000
0000
0220
0330
0000
0000
0001
0000
0010
0000
,  // measure 28
0220
0330
0000
0000
0001
0000
0100
0000
2200
3300
0000
0000
0001
0000
0010
0000
,  // measure 29
2020
3030
0000
0000
2020
3030
0000
0000
2020
3030
0000
0000
0002
0000
0003
0000
,  // measure 30
1000
0001
1000
0010
0100
0001
0010
1000
0010
0000
0010
0000
0100
0000
0001
0100
,  // measure 31
0010
0100
0001
1000
0100
1000
0001
1000
0010
0000
0010
0000
0100
0000
0001
1000
,  // measure 32
0100
0010
0001
1000
0010
0100
0001
0000
0011
0000
1100
0000
0011
0000
0001
0010
,  // measure 33
0100
0010
0001
1000
0010
0100
0001
1000
0010
0000
0010
0000
2000
0000
3000
0000
,  // measure 34
0001
0100
0010
0100
0001
1000
0100
0010
0001
0000
0001
0100
0010
0100
0001
1000
,  // measure 35
0100
1000
0001
0010
0100
0010
0001
1000
0010
0000
0100
0010
1000
0001
0010
0100
,  // measure 36
0010
0100
1000
0001
0010
0100
1000
0010
0100
0000
0100
0001
0010
0001
1000
0100
,  // measure 37
0010
0000
0000
0100
0000
0000
1000
0000
0000
0010
0000
0000
0100
0000
0000
0001
0000
0000
1000
0000
0000
0100
0000
0000
0010
0000
0000
0000
0100
0000
0000
0000
0010
0000
0000
0000
0001
0000
0000
0000
1000
0000
0000
0000
0001
0000
0000
0000
,  // measure 38
0100
0000
0000
0010
0100
0000
0001
0000
1000
0000
0100
1000
0001
0000
0100
0000
,  // measure 39
0010
0000
0010
0000
1000
0000
0010
0000
0100
0000
0001
0010
0100
0000
1000
0000
,  // measure 40
0010
0000
0000
0000
0110
0000
1000
0000
0001
0000
0010
0100
1000
0000
0001
0000
,  // measure 41
0202
0303
0202
0303
0202
0303
1000
0001
,  // measure 42
0010
0001
1000
0001
0100
0000
1000
0001
1000
0100
0010
0100
1000
0001
0100
0001
,  // measure 43
1000
0010
0100
0001
1000
0000
0001
0010
0001
1000
0010
0100
0001
1000
0100
0010
,  // measure 44
0100
1000
0001
0100
0001
0000
1000
0001
0100
0001
1000
0100
0001
0100
1000
0000
,  // measure 45
0220
0330
0220
0330
0220
0330
1002
0000
,  // measure 46
1003
0000
0010
0100
0001
1000
0010
0100
,  // measure 47
0110
0000
0110
0001
0100
1000
0100
0010
,  // measure 48
1100
0000
1100
0001
0010
0100
0010
0001
,  // measure 49
2002
3003
2002
3003
2002
3003
0210
0000
,  // measure 50
0302
0000
0013
0001
0010
0100
0010
0001
,  // measure 51
1001
0000
1001
0010
1000
0100
0010
0001
,  // measure 52
1001
0000
1001
0010
0100
0001
1000
0100
,  // measure 53
0220
0330
0220
0330
0220
0330
0210
0000
,  // measure 54
0310
0000
0000
1000
0010
0000
1000
0000
0010
0000
0000
0100
0001
0000
0100
0000
,  // measure 55
0010
0000
0000
1000
0100
0000
1000
0000
0001
0000
0000
0010
0001
0000
1000
0000
,  // measure 56
0010
0000
0000
0100
0001
0000
1000
0000
0010
0000
0000
0100
0001
0000
1000
0000
,  // measure 57
2002
3003
2002
3003
2002
3003
0200
0000
,  // measure 58
0310
1000
0001
1000
0100
0000
0010
0001
0010
0100
1000
0001
0100
0010
1000
0001
,  // measure 59
0010
0100
0010
0001
0010
0000
0001
1000
0010
1000
0001
1000
0100
0010
0001
1000
,  // measure 60
0010
0100
0001
1000
0010
0000
1000
0100
0010
0001
0010
0100
1000
0001
0100
0010
,  // measure 61
2002
0000
3003
0000
2002
0000
3003
0000
2002
0000
3003
0000
0220
0000
0000
0330
;

//---------------dance-single - ----------------
#NOTEDATA:;
#CHARTNAME:;
#STEPSTYPE:dance-single;
#DESCRIPTION:;
#CHARTSTYLE:;
#DIFFICULTY:Hard;
#METER:13;
#RADARVALUES:0.630183,0.688747,0.577177,0.783311,0.292711,535.000000,465.000000,70.000000,95.000000,0.000000,0.000000,0.000000,0.000000,0.000000,0.630183,0.688747,0.577177,0.783311,0.292711,535.000000,465.000000,70.000000,95.000000,0.000000,0.000000,0.000000,0.000000,0.000000;
#CREDIT:Musey;
#NOTES:
0000
0000
0000
0000
,
0000
0000
0000
0000
0000
0000
0000
0001
,
0200
0000
0310
0000
1010
0000
0001
0010
,
0100
0010
0001
1000
0010
1000
0001
0100
,
1010
0000
0101
0000
0001
0010
0100
0000
,
0220
0330
0220
0330
0220
0330
0110
0001
,
1000
0010
1000
0001
0010
0000
0011
0100
,
1000
0001
0100
0010
1000
0100
1000
0001
,
0010
0000
0110
0000
1000
0001
1000
0000
,
2020
3030
2020
3030
2020
3030
1010
0000
,
0001
0000
0100
0000
0010
0000
1000
0000
0001
1000
0100
0000
0010
0000
0001
0000
,
0010
0000
0100
0000
1000
0000
0010
0000
0100
0001
0100
0000
0010
0000
1000
0000
,
0100
0000
0010
0000
0001
0000
0010
0000
1000
0010
0001
0000
0100
0000
0010
0000
,
1000
0100
1000
0000
0001
0000
0100
0000
0010
1000
0001
0000
1000
0000
0100
0000
,
1000
0100
1000
0000
0001
0000
0100
0000
0010
0100
0010
0000
1000
0000
0001
0010
,
0100
0010
0001
0000
1000
0000
0010
1000
0100
1000
0001
0000
0010
0000
0100
0000
,
0010
0001
0010
0000
0100
1000
0100
0000
0100
0001
0100
0000
1000
0000
0001
0000
,
0010
0010
0001
0001
1000
0010
1000
0000
,
1001
0000
0000
0100
0001
0000
1000
0000
0001
0000
0000
0010
0001
0000
1000
0000
,
0100
0000
1000
0000
0100
0000
0010
0000
0001
0000
1000
0001
1000
0001
0010
0000
,
0100
0000
0101
0000
1000
0010
0100
0000
,
0220
0330
0220
0330
0220
0330
0110
0001
,
1000
0000
0010
1000
0001
0000
0100
0000
0010
0000
1000
0100
1000
0000
0001
0000
,
0100
0000
0010
0100
0010
0000
1000
0000
0100
1000
0001
0010
0100
0000
0010
0000
,
0001
0000
1001
0000
0010
1000
0100
0000
,
2200
3300
2200
3300
2200
3300
1001
0000
,
0202
0303
0000
0000
0202
0303
0000
0000
0202
0303
0000
0000
0001
0000
1000
0000
,
2002
3003
0000
0000
2002
3003
0000
0000
2002
3003
0000
0000
0010
0000
0100
0000
,
2020
3030
0000
0000
0001
0000
0100
0000
0220
0330
0000
0000
0001
0000
1000
0000
,
2020
3030
0000
0000
0202
0303
0000
0000
2020
3030
0000
0000
1001
0000
0000
0000
,
0010
0100
0001
0000
1000
0000
0100
0000
1000
0000
1000
0000
0001
0000
0100
0000
,
0001
1000
0100
0000
0010
0000
0001
0000
1000
0000
1000
0000
0001
0000
0100
0000
,
0010
1000
0001
0000
0010
0000
0100
0000
0010
0000
0010
0000
0001
0000
0100
0000
,
0001
1000
0100
0000
1000
0001
0100
0000
0010
0000
1000
0000
0001
0000
1000
0000
,
0001
1000
0001
0000
0100
0010
0100
0000
0001
1000
0100
0000
0010
0001
0010
0100
,
0010
0000
0001
1000
0010
0000
1000
0001
0010
0000
0100
0000
0010
0000
0001
0000
,
1000
0010
1000
0001
0010
0100
0010
0001
1000
0010
1000
0001
1000
0000
0010
0000
,
0100
0001
1000
0000
0100
0010
0001
0000
0010
0000
0100
0000
0010
0000
0000
0000
,
0110
0000
1001
0000
0110
0000
0001
1000
,
0100
0000
1000
0001
1000
0000
0010
0000
1000
0000
0001
0010
0100
0010
0001
0000
,
1001
0000
1010
0000
0001
0100
0010
0000
,
2200
3300
2200
3300
2200
3300
1100
0001
,
1000
0000
0010
0100
0001
0000
1000
0000
0100
0000
1000
0001
1000
0000
0010
0000
,
1000
0001
0010
0100
0010
0000
0001
0000
1000
0010
1000
0100
1000
0000
0001
0000
,
0100
0010
0100
0001
1000
0000
0100
0000
0010
0001
0010
0100
1000
0001
0100
0000
,
2020
3030
2020
3030
2020
3030
1002
0000
,
0203
0000
0310
1000
0001
1000
0010
0100
,
0002
0000
0103
0001
0010
0100
0010
0001
,
2000
0000
3010
0100
0001
0100
1000
0100
,
2020
3030
0202
0303
2020
3030
0202
0303
,
1002
0000
1003
0010
0100
0001
0010
0100
,
0110
0000
0110
0001
1000
0010
0100
0001
,
0011
0000
0011
0001
0010
0100
0010
0001
,
2020
3030
2020
3030
2020
3030
2010
0000
,
3001
0000
0000
0100
0001
0000
0100
0000
0010
0000
0000
1000
0010
0000
1000
0000
,
0001
0000
0000
0100
0001
0000
0010
0000
0100
0000
0000
0010
0100
0000
1000
0000
,
0001
0000
0000
1000
0001
0000
0100
0000
0010
0000
0000
1000
0001
0000
1000
0000
,
2020
3030
0202
0303
2020
3030
0202
0303
,
0010
0000
1000
0001
1000
0000
0010
0000
1000
0001
0100
0000
0010
0000
1000
0000
,
0001
0010
0100
0000
0010
0000
0001
1000
0010
1000
0001
0000
0100
0000
0010
0000
,
1000
0001
1000
0000
0100
0000
0010
0001
0010
0100
0010
0000
0001
0000
1000
0000
,
2020
3030
0202
0303
2020
3030
0202
0303
;

//---------------dance-single - ----------------
#NOTEDATA:;
#CHARTNAME:;
#STEPSTYPE:dance-single;
#DESCRIPTION:;
#CHARTSTYLE:;
#DIFFICULTY:Medium;
#METER:9;
#RADARVALUES:0.453496,0.434532,0.230871,0.148417,0.000000,385.000000,357.000000,28.000000,18.000000,0.000000,0.000000,0.000000,0.000000,0.000000,0.453496,0.434532,0.230871,0.148417,0.000000,385.000000,357.000000,28.000000,18.000000,0.000000,0.000000,0.000000,0.000000,0.000000;
#CREDIT:Musey;
#NOTES:
0000
0000
0000
0000
,
0000
0000
0000
0000
0000
0000
0000
0100
,
0020
0000
2030
0000
3001
0000
0100
0001
,
0100
0010
1000
0001
1000
0100
1000
0001
,
0200
0000
0320
0000
1030
0001
1000
0000
,
0001
0001
0001
1001
,
0010
1000
0100
1000
0002
0000
0103
0000
,
0001
1000
0010
1000
0000
0001
0100
0010
,
2000
0000
3002
0000
0103
0001
0100
0000
,
0010
0010
0010
0110
,
1000
0001
1000
0010
1000
0000
1001
0000
,
0010
0100
0001
0010
0100
0000
0110
0000
,
0001
1000
0010
1000
0100
0000
1100
0000
,
0001
1000
0010
1000
0001
0000
0011
0000
,
1000
0001
1000
0010
0100
0001
0100
0010
,
1000
0100
1000
0001
0010
0100
0010
0001
,
1000
0010
1000
0001
0100
0001
1000
0010
,
1000
0001
0010
0100
0010
0000
0110
0000
,
2000
0000
3001
0000
1001
0000
0100
1000
,
0001
1000
0010
1000
0001
0010
0100
0010
,
0001
0000
0110
0000
0001
1000
0100
0000
,
0010
0010
0010
0110
,
0001
1000
0010
1000
0001
0100
0010
0100
,
0001
0010
1000
0010
0001
0100
1000
0100
,
0010
1000
0100
1000
0001
0010
0100
0000
,
0100
0100
0100
2000
,
3001
0001
0001
1000
,
0010
0010
0010
1000
,
0100
1000
0010
1000
,
0001
0001
0001
0200
,
0310
0100
0010
0100
0001
0000
1001
0000
,
0001
0010
0100
0010
0001
0000
0011
0000
,
0001
1000
0010
1000
0001
0000
0101
0000
,
0010
0100
0001
1000
0100
0000
0110
0000
,
0001
1000
0001
1000
0010
0100
0010
0100
,
0001
0010
0100
0010
0001
1000
0010
1000
,
0100
1000
0001
0100
1000
0100
0010
1000
,
0100
0010
0001
0010
0001
0000
1001
0000
,
0010
0000
0010
0000
1010
0000
0001
0100
,
0010
0100
0001
1000
0100
1000
0001
0100
,
0010
0000
0110
0000
0001
0010
0100
0000
,
0001
0000
0001
0000
0001
0000
0001
1000
,
0010
0000
1010
0000
0101
0000
0001
0010
,
0100
0010
0001
1000
0010
1000
0001
0100
,
1000
0000
1100
0000
0010
0100
0001
0000
,
1000
1000
1000
1001
,
0020
0000
0130
0010
0100
0001
1000
0100
,
0020
0000
0130
0010
0001
0100
0010
0100
,
0002
0000
1003
0010
0100
0001
1000
0100
,
1000
1000
1000
1000
,
0002
0000
1003
0010
0100
0001
0100
0010
,
2000
0000
3100
0010
0001
0010
0100
0010
,
0002
0000
1003
0010
1000
0001
0100
0010
,
1000
1000
1000
1000
,
0001
1000
0010
1000
0001
0000
1001
0000
,
0001
0010
0100
0010
0001
0000
0011
0000
,
1000
0010
1000
0001
0100
0000
0110
0000
,
1000
1000
1000
1000
,
0001
0100
0010
0100
0001
0000
1001
0000
,
0001
0010
0100
0010
0001
0000
1001
0000
,
1000
0100
0010
0100
1000
0000
1010
0000
,
1000
1000
0001
2002
,
3003
0000
0000
0000
;

//---------------dance-single - ----------------
#NOTEDATA:;
#CHARTNAME:;
#STEPSTYPE:dance-single;
#DESCRIPTION:;
#CHARTSTYLE:;
#DIFFICULTY:Easy;
#METER:5;
#RADARVALUES:0.293300,0.281168,0.000000,0.041227,0.000000,249.000000,249.000000,0.000000,5.000000,0.000000,0.000000,0.000000,0.000000,0.000000,0.293300,0.281168,0.000000,0.041227,0.000000,249.000000,249.000000,0.000000,5.000000,0.000000,0.000000,0.000000,0.000000,0.000000;
#CREDIT:Musey;
#NOTES:
0000
0000
0000
0000
,
0000
0000
0000
0000
,
0100
0001
0100
0010
,
1000
1000
0001
0100
,
0010
0010
1000
0001
,
1000
1000
1000
1000
,
0001
0100
0001
1000
,
0010
0010
1000
0001
,
0100
0100
0010
1000
,
0001
0001
0001
0001
,
1000
1000
0010
0010
,
0100
0100
0001
0001
,
1000
1000
0001
0001
,
0100
0001
2000
0000
,
3010
0010
0100
0010
,
1000
0010
1000
0000
0001
0000
0001
0000
,
0100
0001
0100
0000
0010
0000
0010
0000
,
1000
0100
2000
0000
,
3001
0001
0100
0010
,
1000
0010
1000
0000
0001
0000
1000
0000
,
0010
0100
0001
1000
,
0001
0001
0001
0001
,
1000
0100
1000
0001
,
0100
0001
0100
0000
0010
0000
1000
0000
,
0100
0010
0001
0010
,
0001
0001
0001
1000
,
0001
0001
0001
1000
,
0010
0010
0010
0100
,
0001
1000
0001
0100
,
0001
0001
0001
1000
,
0010
0100
0010
1000
,
0001
0100
0010
1000
,
0001
0001
1000
0010
,
1000
1000
0002
0000
,
0103
0100
0010
1000
,
0001
1000
0100
0010
,
0001
0010
0001
0000
1000
0000
0100
0000
,
1000
0001
1000
0000
0020
0000
0000
0000
,
0130
0100
0010
1000
,
0001
0100
0001
1000
,
0010
0010
1000
1000
,
0001
0001
0001
0100
,
0010
0010
1000
0001
,
0100
0001
1000
0010
,
1000
0010
1000
0000
0001
0000
0100
0000
,
0001
0001
0001
0001
,
1000
0000
1000
0000
0010
1000
0010
0000
,
1000
0000
1000
0000
0001
0100
0001
0000
,
0100
0000
0100
0000
0010
1000
0010
0000
,
1000
1000
1000
1000
,
0001
0000
1000
0000
0001
1000
0001
0000
,
0100
0000
0100
0000
0001
0100
0001
0000
,
1000
0000
1000
0000
0010
1000
0010
0000
,
1000
1000
1000
1000
,
0001
0100
0001
0100
,
0010
1000
0010
1000
,
0001
0100
0001
0100
,
0010
0010
0010
0010
,
1000
0001
1000
0001
,
0100
0010
0100
0010
,
1000
0100
1000
0100
,
0010
0010
0001
2000
,
3000
0000
0000
0000
;

//---------------dance-single - ----------------
#NOTEDATA:;
#CHARTNAME:;
#STEPSTYPE:dance-single;
#DESCRIPTION:;
#CHARTSTYLE:;
#DIFFICULTY:Beginner;
#METER:2;
#RADARVALUES:0.173153,0.229119,0.000000,0.131926,0.000000,147.000000,147.000000,0.000000,16.000000,0.000000,0.000000,0.000000,0.000000,0.000000,0.173153,0.229119,0.000000,0.131926,0.000000,147.000000,147.000000,0.000000,16.000000,0.000000,0.000000,0.000000,0.000000,0.000000;
#CREDIT:Musey;
#NOTES:
0000
0000
0000
0000
,
0000
0000
0000
0000
,
0001
0000
1000
0000
,
0010
0000
0010
0000
,
0001
0000
0001
0000
,
2000
0000
0000
0000
,
3001
0000
0001
0000
,
0100
0000
0010
0000
,
1000
0000
0001
0000
,
0200
0000
0000
0000
,
0310
0000
0010
0000
,
1000
0001
1000
0000
,
0010
0000
1000
0000
,
0001
0100
0001
0000
,
1000
0001
1000
0000
,
0010
0100
0010
0000
,
1000
0100
0010
0000
,
0001
1000
0001
0000
,
1000
1000
0010
0000
,
0100
0001
1000
0000
,
0010
1000
0001
0000
,
2000
0000
0000
0000
,
3001
0100
0001
0000
,
1000
0010
1000
0000
,
0001
0010
0001
0000
,
2000
0000
0000
0000
,
3002
0000
0000
0000
,
0203
0000
0000
0000
,
0320
0000
2030
0000
,
3002
0000
0000
0000
,
0103
0010
0100
0000
,
1000
0001
1000
0000
,
0010
1000
0001
0000
,
0100
0010
0100
0000
,
1000
0001
1000
1000
,
0001
0001
0100
0100
,
0010
1000
0010
0010
,
2000
0000
3001
0000
,
0100
0001
0100
0000
,
0010
1000
0010
0000
,
0100
0001
1000
0000
,
0020
0000
0000
0000
,
1030
0001
1000
0000
,
0010
1000
0001
0000
,
0100
0001
0100
0000
,
2000
0000
0000
0000
,
3001
0000
0001
0100
,
0010
0000
0010
1000
,
0001
0000
0001
1000
,
0020
0000
0000
0000
,
1030
0000
0001
1000
,
0100
0000
0100
1000
,
0001
0000
0010
1000
,
0002
0000
0000
0000
,
1003
0001
1000
0000
,
0010
0100
0010
0000
,
1000
0100
1000
0000
,
0020
0000
0000
0000
,
1030
0010
1000
0000
,
0001
0100
0001
0000
,
1000
0001
1000
0000
,
0002
0000
0000
0003
;
