#TITLE:WORK;
#SUBTITLE:;
#ARTIST:Ateez;
#TITLETRANSLIT:;
#SUBTITLETRANSLIT:;
#ARTISTTRANSLIT:;
#GENRE:;
#CREDIT:;
#BANNER:AV.avi;
#BACKGROUND:bg.png;
#LYRICSPATH:;
#CDTITLE:;
#MUSIC:audio.ogg;
#OFFSET:-0.229000;
#SAMPLESTART:55.011040;
#SAMPLELENGTH:14.999997;
#SELECTABLE:YES;
#BPMS:0.000000=100.000000
;
#STOPS:
;
#BGCHANGES:0.000=MV.avi=1.000=1=0=1===CrossFade==,
99999=-nosongbg-=1.000=0=0=0 // don't automatically add -songbackground-
;
#KEYSOUNDS:;
#ATTACKS:;

//---------------dance-single - ----------------
#NOTES:
     dance-single:
     :
     Challenge:
     13:
     0.645751,0.598956,0.444907,0.088981,0.631768,508.000000,458.000000,50.000000,10.000000,0.000000,0.000000,0.645751,0.598956,0.444907,0.088981,0.631768,508.000000,458.000000,50.000000,10.000000,0.000000,0.000000:
// measure 0
0000
0000
0000
0000
,  // measure 1
0000
0000
0000
0000
0000
0000
0000
0000
0000
0000
0000
0000
0000
0000
0010
0100
,  // measure 2
0001
0000
0100
0000
1010
0000
0001
1000
0100
0000
0010
0000
0100
1000
0001
0000
,  // measure 3
1001
0000
0010
0000
0110
0000
0010
0100
1000
0000
0100
0000
0001
0010
0100
1000
,  // measure 4
0001
0000
1000
0000
1100
0000
0100
1000
0001
0000
0100
0000
0001
0010
1000
0010
,  // measure 5
0001
0000
0100
0000
0110
0000
1000
0001
0100
0000
0001
1000
0100
0000
1000
0001
,  // measure 6
0010
0000
0001
0000
0101
0000
0010
0100
1000
0000
0001
0000
0100
0010
0001
0010
,  // measure 7
0100
0000
0010
0000
1001
0000
0001
0100
0010
0000
1000
0000
0100
0010
0001
0100
,  // measure 8
0010
0000
1000
0000
0101
0000
0010
1000
0001
0000
0001
0000
0010
0100
0010
0001
,  // measure 9
0100
0000
0001
0000
1001
0000
1000
0100
0001
0000
0001
0100
0010
0000
0001
0100
,  // measure 10
0010
0000
0000
0000
0000
0000
0000
0000
0220
0000
0330
0000
0000
0001
0010
0100
,  // measure 11
1000
0000
1001
0000
0100
0001
1000
0100
0010
0000
0001
0010
0100
0000
1000
0010
,  // measure 12
1000
0000
1001
0000
0100
0001
0100
0010
1000
0000
0010
0100
1000
0000
1000
0100
,  // measure 13
0010
0000
0110
0000
0001
1000
0001
0010
0100
0000
1000
0001
0100
0000
0001
0100
,  // measure 14
0001
1000
0010
0100
0001
0100
1000
0100
0010
0000
1000
0001
0100
0100
0010
0000
,  // measure 15
0110
0000
1001
0000
0010
1000
0001
0010
0100
0000
1000
0010
0100
0000
0001
0100
,  // measure 16
0010
1000
0010
0100
0001
0010
1000
0010
0100
0000
1000
0001
0100
0100
0010
1000
,  // measure 17
0100
0000
1001
0000
0010
0100
0001
0010
0100
0000
0010
0001
1000
0000
0010
0100
,  // measure 18
0010
0000
0100
0001
0010
0001
1000
0100
0010
0000
0001
0010
0100
0000
0000
0000
,  // measure 19
1001
0000
0001
0100
0010
0200
0000
1300
0100
0000
0001
0010
0001
2000
0000
3001
,  // measure 20
0010
0000
1000
0100
0010
2000
0000
3001
0100
0000
0001
0010
0001
0200
0000
0310
,  // measure 21
0100
0000
1000
0100
0010
2000
0000
3001
0010
0000
0001
1000
0001
0200
0000
0310
,  // measure 22
1000
0000
0010
0000
0010
0000
0010
0000
0010
0000
0000
0000
0000
0000
0001
0010
,  // measure 23
0011
0000
0001
0000
1010
0000
0010
0100
0001
0000
1000
0000
0100
0010
0001
0000
,  // measure 24
0110
0000
0001
1000
0100
0000
0010
0100
1000
0000
0010
0000
0100
0001
1000
0010
,  // measure 25
1010
0000
0001
0000
0011
0000
0001
0100
0010
0000
1000
0000
0100
0010
0001
1000
,  // measure 26
1010
0000
1000
0000
0110
0000
0001
0100
0010
0000
1000
0100
0010
0000
0001
0100
,  // measure 27
0101
0000
0010
0000
1001
0000
0010
0001
1000
0000
0100
0000
1000
0001
0100
0010
,  // measure 28
0110
0000
0001
0000
1001
0000
0100
0001
1000
0000
0100
0000
1000
0010
0100
0010
,  // measure 29
0001
0000
1000
0000
0110
0000
0100
0001
1000
0000
0010
0000
0100
0001
0100
0000
,  // measure 30
1010
0000
1000
0000
0001
0000
0100
0001
1000
0000
0001
0010
1000
0000
1000
0010
,  // measure 31
0001
0000
0000
0000
0100
0000
0001
0100
0010
0000
0010
0000
0100
0000
0001
1000
,  // measure 32
0010
0000
0000
0000
0010
0000
1000
0100
0010
0000
0010
0000
0100
0010
0001
0010
,  // measure 33
0100
0000
0000
0000
1000
0000
1000
0100
0010
0000
0001
0000
0010
0001
0010
0100
,  // measure 34
0010
0000
0000
0000
0000
0000
0010
0001
0100
0000
0100
0000
0010
0000
0200
0000
,  // measure 35
0300
0000
0000
0000
0002
0000
0000
0000
0000
0000
0000
0000
0000
0000
0000
0003
,  // measure 36
0000
0000
0000
0000
0000
0000
1000
0001
0100
0000
0100
0000
0010
0100
0001
0000
,  // measure 37
1001
0000
0100
0010
1000
0000
1001
0000
0110
0000
0001
0010
0100
0000
1010
0000
,  // measure 38
0101
0000
0001
0100
0001
0000
0110
0000
1001
0000
0010
1000
0001
0010
0100
0000
,  // measure 39
1001
0000
0100
0010
0001
0000
0011
0000
1100
0000
0001
1000
0010
0000
0110
0000
,  // measure 40
1001
0000
0100
0010
0001
0000
0010
0100
1000
0000
1010
0000
0001
0010
0100
0000
,  // measure 41
0110
0000
0001
1000
0100
1000
0001
0000
0101
0000
0010
1000
0001
0010
0100
0000
,  // measure 42
0110
0000
0001
0010
1000
0010
0100
0000
1010
0000
0001
0010
0001
1000
0010
0000
,  // measure 43
1010
0000
1000
0100
0010
0100
1000
0000
0101
0000
0100
0010
0001
0010
0100
0000
,  // measure 44
1001
0000
0010
0100
0001
1000
0100
0010
0001
0000
0001
0000
1000
0010
1000
0000
;

//---------------dance-single - ----------------
#NOTES:
     dance-single:
     :
     Hard:
     11:
     0.518635,0.519095,0.097880,0.231352,0.418213,408.000000,397.000000,11.000000,26.000000,0.000000,0.000000,0.518635,0.519095,0.097880,0.231352,0.418213,408.000000,397.000000,11.000000,26.000000,0.000000,0.000000:
0000
0000
0000
0000
,
0000
0000
0000
0000
0000
0000
0000
0000
0000
0000
0000
0000
0000
0000
1000
0001
,
0100
0000
0001
0000
0010
0000
0001
0100
0010
0000
0100
0000
0001
0000
0001
0000
,
1000
0000
0010
1000
0100
0000
0010
0001
0100
0000
0001
0000
1000
0000
1000
0000
,
0010
0000
0100
0001
0100
0000
0010
1000
0001
0000
0010
0000
0100
0000
0100
0000
,
0010
0000
0001
0000
1000
0000
0001
0100
0010
0000
0100
0001
1000
0000
0001
0100
,
0010
0000
0100
0000
0101
0000
0010
1000
0001
0000
0100
0000
0010
1000
0001
0000
,
0010
0000
0001
0000
1001
0000
0010
1000
0100
0000
0010
0000
0001
1000
0010
0000
,
0100
0000
0001
0000
0101
0000
0001
1000
0010
0000
1000
0000
0100
0010
0100
0000
,
0010
0000
0001
0000
1001
0000
0010
1000
0010
0000
1000
0010
1000
0000
0010
1000
,
0100
0000
0000
0000
0220
0330
0000
0000
,
1001
0000
0001
0000
0100
0000
0001
0010
0100
0000
1000
0001
1000
0000
0010
0100
,
0001
0000
1000
0000
0010
0000
0100
0001
0010
0000
0100
1000
0001
0000
0100
0010
,
0100
0000
0001
0000
1000
0000
0001
0010
0100
0000
0100
0010
0001
0000
0001
0100
,
0010
0000
1000
0000
0001
0000
1000
0100
0010
0000
0100
1000
0001
0000
0100
0010
,
0100
0000
0100
0000
0010
1000
0001
1000
0001
0000
0010
0100
0010
0000
0001
1000
,
0010
0000
1000
0000
0001
0100
0001
0100
0010
0000
0010
0100
0010
0000
1000
0001
,
0100
0000
0001
0000
1000
0001
0100
0001
1000
0000
0010
0100
0010
0000
1000
0100
,
0010
0000
0000
0000
,
0100
0000
0010
0100
0020
0000
0100
0000
0031
0000
1000
0001
0020
0000
0001
0000
,
0130
0000
1000
0001
0200
0000
0010
0000
0301
0000
1000
0100
0020
0000
0001
0000
,
1030
0000
0001
0100
0020
0000
1000
0000
0130
0000
0001
1000
0200
0000
0010
0000
,
1300
1000
1000
0001
0001
0000
0000
0000
,
1001
0000
0001
0000
0100
0000
0010
0100
0001
0000
0010
0000
0100
0010
0100
0000
,
1000
0000
0001
0000
0100
0000
0010
1000
0001
0000
0010
0000
0001
0100
0010
0100
,
0001
0000
1000
0000
0100
0000
1000
0100
1000
0000
0001
0000
0100
0001
0010
0001
,
1000
0000
0010
0000
0100
0000
0001
1000
0010
0000
1000
0010
0100
0000
0001
1000
,
0100
0000
0010
0000
1001
0000
0010
1000
0001
0000
0100
0000
0010
1000
0001
0010
,
0100
0000
0010
0000
0110
0000
0001
1000
0010
0000
1000
0000
0001
0100
0010
0100
,
0001
0000
1000
0000
1001
0000
0001
0100
0010
0000
0100
0000
0001
1000
0100
0010
,
0001
0000
1000
0000
0010
0000
1000
0010
1000
0000
0001
0010
0100
0000
0010
0100
,
2000
0000
0000
0000
3001
0000
0100
0001
0100
0000
0100
0000
0010
0000
0100
0001
,
2000
0000
0000
0000
3001
0000
0100
0001
0010
0000
0010
0000
0001
0000
0100
0001
,
0200
0000
0000
0000
0310
0000
1000
0001
0010
0000
0010
0000
0100
0000
0010
0100
,
0020
0000
0031
0000
1000
1000
0001
0001
,
0000
0000
0000
0000
0200
0000
0000
0000
0000
0000
0000
0000
0000
0000
0000
0300
,
0000
0000
0000
0000
,
1001
0000
0000
0100
0002
0000
0010
0000
0100
0003
0000
1000
0200
0000
0010
0000
,
1000
0300
0000
0001
0200
0000
0010
0000
0301
0000
1000
0100
1000
0000
0001
0000
,
0010
0000
0000
0001
0200
0000
0010
0000
0301
0000
0000
1000
0200
0000
0010
0000
,
1300
0000
0000
0001
0200
0000
0010
0000
0301
0000
1000
0100
1000
0000
0001
0000
,
0100
0000
0100
0010
0200
0000
0001
0000
0310
0000
1000
0200
0010
0000
1000
0000
,
1300
0000
0001
0100
0020
0000
0100
0000
1030
0000
0001
0010
0200
0000
1000
0000
,
1300
0000
0001
0100
0002
0000
0100
0000
0010
0003
1000
0010
2000
0000
0001
0000
,
3010
0000
0100
0001
0020
0000
0031
0100
0001
0000
1000
0000
1000
0010
1000
0000
;

//---------------dance-single - ----------------
#NOTES:
     dance-single:
     :
     Medium:
     6:
     0.419484,0.459200,0.097880,0.240250,0.213555,330.000000,319.000000,11.000000,27.000000,0.000000,0.000000,0.419484,0.459200,0.097880,0.240250,0.213555,330.000000,319.000000,11.000000,27.000000,0.000000,0.000000:
0000
0000
0000
0000
,
0000
0000
0000
0000
0000
0000
0000
0000
0000
0000
0000
0000
0000
0000
1000
0001
,
0010
0000
0000
0000
1001
0000
0001
0100
0010
0000
0100
0000
0001
0000
0001
0000
,
1000
0000
0000
0000
1001
0000
0001
0010
0100
0000
0010
0000
0001
0000
1000
0000
,
0010
0000
0000
0000
1010
0000
0001
0100
0010
0000
0100
0000
0001
0000
0010
0000
,
0001
0000
0000
0000
1001
0000
0001
0100
0001
0000
1000
0000
0010
0000
0010
0000
,
1000
0000
0000
0000
1010
0000
0001
0100
0010
0000
1000
0000
0100
0000
0100
0000
,
0010
0000
0000
0000
0110
0000
0001
1000
0010
0000
1000
0000
0001
0000
0100
0000
,
0010
0000
0000
0000
1010
0000
0001
1000
0100
0000
0010
0000
0001
0000
0001
0000
,
0100
0000
0000
0000
1010
0000
0010
0100
0010
0000
1000
0000
0001
0000
0001
0000
,
1000
0000
0000
0000
0020
0030
0000
0000
,
1000
0001
0100
0100
0002
0000
0013
0001
,
1000
1000
0010
0100
0002
0000
1003
0100
,
0010
0010
0100
0010
0002
0000
1003
0010
,
0100
0001
1000
0010
0200
0000
0301
1000
,
0100
0000
1000
0000
0001
0100
0001
0000
2000
0000
0000
0000
3010
0000
0100
0000
,
0001
0000
1000
0000
0010
0100
0001
0000
0020
0000
0000
0000
0031
0000
1000
0000
,
0100
0000
0010
0000
0100
1000
0010
0000
0200
0000
0000
0000
0301
0000
1000
0100
,
1000
0001
0001
0100
0020
0000
1030
0000
,
0001
0000
1000
0001
2000
0000
0000
0000
3001
0000
0100
0010
0200
0000
0000
0000
,
0310
0000
0100
0001
0020
0000
0000
0000
0031
0000
0001
0100
0002
0000
0000
0000
,
0013
0000
0010
0100
0020
0000
0000
0000
0130
0000
0100
1000
0002
0000
0000
0000
,
0103
0100
0100
0100
0100
0000
0000
0000
,
0110
0000
0000
0000
1001
0000
0001
1000
0001
0000
0010
0000
0100
0000
0010
0000
,
0002
0000
0000
0000
1003
0000
0010
0100
0010
0000
1000
0000
0001
0000
0001
0000
,
2000
0000
0000
0000
3100
0000
1000
0001
0100
0000
0001
0000
1000
0000
1000
0000
,
0020
0000
0000
0000
0130
0000
0001
1000
0100
0000
1000
0000
0001
0000
0001
0000
,
0200
0000
0000
0000
0310
0000
1000
0001
0010
0000
0001
0000
0100
0001
0100
0000
,
0020
0000
0000
0000
1030
0000
0001
0010
0100
0000
1000
0000
0001
1000
0001
0000
,
0200
0000
0000
0000
0310
0000
1000
0001
1000
0000
0001
0000
0010
0100
0010
0000
,
0002
0000
0000
0000
1003
0000
0001
1000
0001
0000
0100
0000
0010
0000
0010
0000
,
0200
0000
0000
0000
0310
0000
0010
0010
,
2000
0000
0000
0000
3001
0000
0001
0100
,
0002
0000
0000
0000
0013
0000
0010
0001
,
0200
0000
0310
1000
0001
0001
1000
1000
,
0000
0020
0000
0000
,
0030
0000
0000
0000
,
1001
0000
0000
0001
0100
0000
0100
0000
0010
0000
0000
0100
0010
0000
1000
0000
,
0001
0000
0000
0001
0010
0000
0100
0000
0010
0000
0001
1000
0001
0000
0100
0000
,
0010
0000
0000
1000
0010
0000
1000
0000
0001
0000
0000
0100
0001
0000
0100
0000
,
0010
0000
0000
1000
0001
0000
0010
0000
0100
0000
0100
0000
0010
0001
0010
0000
,
0001
0000
1000
0010
1000
0000
0001
0000
0001
0000
1000
0001
0010
0000
0100
0000
,
1000
0000
0001
1000
0010
0000
0100
0000
0001
0000
1000
0100
1000
0001
0100
0000
,
0010
0000
1000
0001
0010
0000
0001
0000
1000
0000
0010
1000
0001
0000
0010
0000
,
0100
0000
0010
0001
1000
0000
0010
1000
0001
0000
0100
0000
0001
0100
0010
0000
;

//---------------dance-single - ----------------
#NOTES:
     dance-single:
     :
     Easy:
     4:
     0.272029,0.278734,0.000000,0.008898,0.000000,214.000000,214.000000,0.000000,1.000000,0.000000,0.000000,0.272029,0.278734,0.000000,0.008898,0.000000,214.000000,214.000000,0.000000,1.000000,0.000000,0.000000:
0000
0000
0000
0000
,
0000
0000
0000
0000
,
1000
0000
0001
0000
0100
0001
0010
0001
,
1000
0000
1000
0000
0001
0100
0010
0100
,
0001
0000
0001
0000
1000
0001
0010
0001
,
1000
0010
0100
0100
,
0010
0000
1000
0000
1000
0010
0100
0010
,
1000
0000
1000
0000
1000
0100
0010
0100
,
1000
0000
1000
0000
0001
0100
0010
0100
,
0001
0001
1000
1000
,
0010
0000
0000
0000
,
1000
0000
1000
0000
0001
0100
0001
0010
,
0100
0000
0100
0000
0100
0010
0001
1000
,
0010
0000
0010
0000
0010
1000
0001
0100
,
0010
0010
1000
1000
,
0001
0000
0001
0100
0001
0010
0001
0000
,
1000
0000
1000
0000
0010
1000
0001
0000
,
0100
0000
0100
0000
0001
1000
0010
0000
,
1000
0100
0010
0000
,
0100
0000
0100
0010
0100
0000
0100
1000
,
0010
0000
0010
1000
0001
0000
0001
0010
,
0100
0000
0100
1000
0010
0000
0010
0100
,
0001
0001
0001
0000
,
1000
0000
1000
0000
0001
0100
0010
1000
,
0001
0000
0001
0000
0001
0010
0100
1000
,
0010
0000
0010
0000
1000
0001
0100
0001
,
0010
0010
0100
0100
,
1000
0000
1000
0000
0001
0100
0010
1000
,
0001
0000
0001
0000
0001
0010
0100
1000
,
0010
0000
0010
0000
1000
0100
0010
0001
,
0100
0000
0100
0000
0001
1000
0010
1000
,
0001
0000
0001
0001
,
0100
0000
0100
0100
,
0010
0000
0010
0010
,
1000
0000
1000
1000
,
0000
0002
0000
0000
,
0003
0000
0000
0000
,
1000
0000
1000
0001
0100
0000
0100
0001
,
0010
0000
0010
0100
1000
0000
1000
0010
,
0100
0000
0100
0001
0010
0000
0010
0001
,
1000
0000
1000
0010
1000
0001
0100
0001
,
0010
0000
0010
0100
1000
0000
1000
0010
,
0100
0000
0100
0001
0010
0000
0010
0100
,
1000
0000
1000
0010
1000
0000
1000
0001
,
0100
0000
0100
0001
0010
0000
0010
0000
;

//---------------dance-single - ----------------
#NOTES:
     dance-single:
     :
     Beginner:
     2:
     0.143641,0.179186,0.000000,0.053389,0.000000,113.000000,113.000000,0.000000,6.000000,0.000000,0.000000,0.143641,0.179186,0.000000,0.053389,0.000000,113.000000,113.000000,0.000000,6.000000,0.000000,0.000000:
0000
0000
0000
0000
,
0000
0000
0000
0000
,
1000
1000
0001
0001
,
0100
0000
0010
0010
,
1000
0000
0001
0100
,
0001
0000
1000
1000
,
0010
0000
1000
0001
,
0100
0000
0001
0010
,
0100
0000
1000
0010
,
1000
0000
0001
0001
,
0100
0000
0000
0000
,
1000
1000
1000
0000
,
0001
0001
0001
0000
,
0100
0100
0100
0000
,
0010
0010
0010
0000
,
1000
0001
0100
0000
,
0001
0010
0100
0000
,
1000
0001
1000
0000
,
0010
0010
0010
0000
,
2000
0000
3002
0000
,
0203
0000
0320
0000
,
2030
0000
3002
0000
,
0013
0000
0000
0000
,
0001
0001
0001
0000
,
1000
0010
1000
0000
,
0001
0100
0010
0000
,
1000
0100
0010
0000
,
0001
1000
0001
0000
,
1000
0010
0100
0000
,
0001
0010
0100
0000
,
1000
0010
1000
0000
,
0001
0000
0000
0000
,
1000
0000
0000
0000
,
0001
0000
0000
0000
,
0100
0000
0000
0000
,
0000
0000
0000
0000
,
0000
0000
0000
0000
,
0010
0010
0010
0000
,
0100
0100
0100
0000
,
0001
0001
0001
0000
,
1000
1000
1000
0000
,
0001
0100
0001
1000
,
0010
1000
0001
0010
,
0001
0100
0010
1000
,
0100
1000
0001
0001
;
