#TITLE:Will;
#SUBTITLE:;
#ARTIST:IVE;
#TITLETRANSLIT:;
#SUBTITLETRANSLIT:;
#ARTISTTRANSLIT:;
#GENRE:;
#CREDIT:;
#BANNER:AV.avi;
#BACKGROUND:bg.png;
#LYRICSPATH:;
#CDTITLE:;
#MUSIC:audio.ogg;
#OFFSET:-0.087000;
#SAMPLESTART:55.213070;
#SAMPLELENGTH:15.000009;
#SELECTABLE:YES;
#BPMS:0.000000=123.000000
;
#STOPS:
;
#BGCHANGES:0.000=MV.avi=1.000=1=0=1===CrossFade==,
260.000=MV.avi=0.100=0=0=1=====,
99999=-nosongbg-=1.000=0=0=0 // don't automatically add -songbackground-
;
#KEYSOUNDS:;
#ATTACKS:;

//---------------dance-single - ----------------
#NOTES:
     dance-single:
     :
     Challenge:
     14:
     0.630841,0.600685,0.209541,0.411321,0.485049,569.000000,542.000000,27.000000,53.000000,0.000000,0.000000,0.630841,0.600685,0.209541,0.411321,0.485049,569.000000,542.000000,27.000000,53.000000,0.000000,0.000000:
0000
0000
0000
0000
0000
0000
0000
0000
1001
0000
0001
0100
0010
0000
0100
0000
,
0002
0000
0103
0010
1000
0000
0010
0000
0200
0000
0301
0010
0100
0000
1000
0000
,
0020
0000
1030
0010
0100
0000
0010
0000
1010
0000
0001
0100
0010
0000
1000
0000
,
0002
0000
1003
0100
0010
0000
0100
0000
1001
0000
0000
0100
0001
0000
0001
0000
,
0000
0000
0100
0000
0010
1000
0100
0000
0010
0000
0000
0000
0001
0010
0100
0000
,
1000
0000
0001
0100
0010
0000
0100
0000
0001
0000
1000
0010
1000
0000
0001
0000
,
0010
0000
1000
0000
0010
0000
0001
0000
1001
0000
0010
1000
0001
0000
0010
0000
,
0001
1000
0010
0000
1001
0000
0000
0000
0110
0000
0000
1000
0001
0000
1100
0000
,
0000
0000
1001
0000
0010
0000
1000
0100
0010
0000
0001
0000
1000
0000
0010
1000
,
0002
0000
0000
1003
0000
0000
0001
0010
0200
0000
0000
0310
0000
0000
0010
0001
,
0100
0000
1000
0000
0100
0000
0001
0000
0010
0000
0000
0000
0001
0000
1000
0100
,
0010
0000
0001
1000
0000
0000
1000
0001
0100
0000
0001
1000
0000
0000
0010
0100
,
0001
0000
0100
0000
0010
0000
0100
0000
0001
0010
1000
0010
0001
0000
1000
0000
,
0010
1000
0100
0000
0010
0000
0001
0000
0010
0100
0010
0001
0000
1000
0001
1000
,
0010
0000
1000
0000
0002
0000
0000
0000
0103
0000
0001
1000
0010
0000
1000
0000
,
0001
0000
0010
0000
0002
0000
0000
0000
1003
0000
0001
0100
1000
0100
0001
0000
,
0100
0000
0010
0000
1000
0001
0100
0000
0010
0000
1000
0001
0010
0000
0010
0000
,
0001
1000
0010
0000
0010
0000
1000
0000
1001
0000
0100
0010
0001
0000
0001
0000
,
0010
0100
1000
0000
1000
0000
0010
0000
1001
0000
0001
0010
0100
0000
1000
0000
,
0001
0100
0001
1000
0010
0000
1000
0000
0001
0000
1000
0010
0100
0000
0001
0000
,
0010
0001
1000
0000
0001
0000
1000
0010
2000
0000
0000
0000
3002
0000
0000
0000
,
0203
0000
0310
1000
0020
0000
0100
0000
,
2030
0000
0000
0000
3001
0000
0100
0000
0001
0000
1000
0010
0000
0100
0001
0000
,
2000
0000
0000
0000
3010
0000
0100
0000
0001
0000
1000
0001
0000
0100
0010
0000
,
2000
0000
0000
0000
3100
0000
0000
0000
1001
0000
0000
0001
1000
0000
0001
0000
,
0001
0000
0010
0100
1000
0000
0002
0000
1003
0000
0001
0000
0100
0000
0001
0000
,
1000
0000
0000
0000
0000
0000
0010
0000
0000
0100
0000
0000
0001
0000
0000
0000
0000
0000
2000
0000
0000
0000
0000
0000
3001
0000
0000
0000
0010
0000
0000
0000
0001
0000
0000
0000
2000
0000
0000
0000
0000
0000
3001
0000
0000
0000
0000
0000
,
0010
0000
1000
0000
0010
0000
0200
0000
0000
1300
0000
0000
0010
0000
0000
0000
0000
0000
0000
0000
0000
0000
0000
0000
,
0000
0000
0000
0000
0001
0000
1000
0000
1000
0100
0000
0100
0001
0000
1000
0100
,
0000
1000
0100
0010
0001
0000
1000
0000
0001
0000
0100
0001
0010
0000
0001
0000
,
2000
0000
0000
0000
3001
0000
0001
0010
0200
0000
1300
0000
1000
0001
0200
0000
,
0301
0000
0001
1000
0200
0000
0310
0000
0001
0000
0100
0001
0100
0010
1000
0000
,
0001
0010
0100
0000
0010
0000
0001
0000
0001
0100
0000
0100
1000
0000
0001
0100
,
0000
0001
0010
0100
1000
0000
0010
0000
0100
0000
0001
1000
0010
0000
0100
0000
,
0002
0000
0000
0000
1003
0000
0100
0010
0002
0000
1003
0000
0010
0100
0002
0000
,
0013
0000
0100
1000
0002
0000
0013
0000
0100
0000
1000
0010
1000
0001
0100
0000
,
0010
0100
0010
0100
0001
0000
0001
0000
0200
0000
0000
0000
0301
0000
0100
0000
,
0010
0100
0001
0010
0200
0000
1300
0020
,
0000
0030
0000
0001
1000
0010
1000
0200
,
0000
0300
0010
0100
0010
0002
0000
0003
,
2000
0000
0000
0000
3010
0000
0000
0000
0100
0000
0000
0100
0000
0000
0001
0000
,
0200
0000
0010
0000
0310
0000
0000
0000
1000
0000
0000
1000
0000
0000
0001
0000
,
0020
0000
0100
0000
0130
0000
0000
0000
0001
0000
0000
0001
0000
0000
1000
0000
,
0100
0001
0100
0010
0002
0000
0000
0000
,
0000
0000
0000
0000
0003
0000
0000
0000
0011
0000
0000
0101
0000
0000
1010
0000
,
0000
0000
0001
1000
0100
0000
0010
0000
1001
0000
0000
1100
0000
0000
0101
0000
,
0010
0000
1000
0001
0010
0000
0001
0000
0101
0000
0000
1100
0000
0000
1001
0000
,
0000
0000
0100
0010
0100
0000
0001
0000
2000
0000
3200
0000
0320
0000
0032
0000
,
0203
0000
0300
0000
1001
0000
0000
0000
1000
0010
0000
0010
0001
0000
1000
0010
,
0000
1000
0100
0010
0100
0000
1000
0000
0001
0000
1000
0100
0010
0000
0001
0000
,
0100
0000
0010
0000
1000
0000
0001
0100
2000
0000
3100
0000
1000
0100
0002
0000
,
1003
0000
0001
0010
2000
0000
3010
0000
0001
0000
0100
0010
0100
0001
1000
0000
,
0001
1000
0100
0010
0001
0000
1000
0000
0001
0010
0000
0010
1000
0000
0001
0010
,
0000
0001
0010
0100
1000
0000
0001
0000
0100
0000
0010
1000
0100
0000
1000
0000
,
0001
0000
0010
0000
0001
0000
0001
0100
2000
0000
3100
0000
1000
0100
0002
0000
,
1003
0000
0001
0010
2000
0000
3010
0000
0001
0000
1000
0010
0100
0010
1000
0000
,
0010
0100
1000
0000
0100
0000
0001
0010
0100
0000
1000
0000
0001
0000
0010
0000
,
0100
0000
1000
0001
1000
0000
0010
0000
0200
0000
0000
0000
0301
0000
0010
0000
,
0200
0000
0000
0000
0310
0000
0001
0000
2000
0000
0000
3002
0000
0000
0000
0000
,
0103
0001
0010
0100
1010
0000
1001
0000
,
1010
0000
0000
0001
0100
0000
0010
1000
0100
0000
1000
0000
0001
0000
0100
0000
,
0010
0000
1000
0010
1000
0000
0010
0000
2000
0000
0000
0000
3010
0000
0001
0000
,
0020
0000
0000
0000
1030
0000
0000
0000
0100
0000
1000
0100
0010
0000
0100
0000
,
0010
0100
1000
0000
0001
0000
0000
0000
1001
0000
0000
0010
0001
0000
1001
0000
,
0000
1000
0010
0000
1001
0000
0000
0000
;

//---------------dance-single - ----------------
#NOTES:
     dance-single:
     :
     Hard:
     11:
     0.504451,0.527636,0.186259,0.527733,0.329833,455.000000,431.000000,24.000000,68.000000,0.000000,0.000000,0.504451,0.527636,0.186259,0.527733,0.329833,455.000000,431.000000,24.000000,68.000000,0.000000,0.000000:
0000
0000
0000
0000
1000
0001
0010
0100
,
2000
0000
0000
3001
0000
0000
0100
0000
0020
0000
0000
1030
0000
0000
0010
0000
,
0200
0000
0000
0301
0000
0000
0010
0000
0110
0000
0000
0000
0001
0000
0100
0000
,
0020
0000
0000
1030
0000
0000
0001
0000
1001
0000
0000
0000
1000
0000
1001
0000
,
0000
0000
0001
0000
0010
0001
0010
0000
0101
0000
0000
0000
0001
1000
0001
0000
,
0010
0000
0000
0000
0001
0100
0001
0000
0200
0000
0000
0000
0310
0000
1000
0000
,
0010
0000
0100
0000
0002
0000
1000
0000
2003
0000
3000
0200
0000
0300
0002
0000
,
0003
0200
0000
0300
2000
0000
0000
0000
3010
0000
0000
1000
0010
0000
0010
0000
,
0000
0000
1000
0000
0001
1000
0001
0000
0100
0000
0000
0000
0010
0000
1000
0001
,
0200
0000
0000
0301
0000
0000
1000
0100
0020
0000
0000
0130
0000
0000
1000
0001
,
0200
0000
0000
0301
0000
0000
0100
0000
0020
0000
0000
0130
0000
0000
0001
1000
,
0020
0000
0000
1030
0000
0000
0001
0100
0020
0000
0000
1030
0000
0000
0001
0010
,
0200
0000
0000
0310
0000
0000
0001
0000
0100
0000
0001
1000
0001
0000
0100
0000
,
0010
0000
1000
0000
0002
0000
0000
0000
1003
0000
0010
1000
0010
0000
0100
0000
,
0001
0010
0200
0000
1300
0001
0100
0010
,
1000
0000
0100
0000
0020
0000
0000
0000
0130
0000
1000
0010
1000
0000
0001
0000
,
0010
0000
0100
0000
0020
0000
0001
0000
0031
0000
1000
0001
1000
0000
0001
0000
,
0010
0000
1000
0000
0020
0000
0000
0000
0031
0000
0100
0001
0100
0000
0010
0000
,
1000
0010
0200
0000
0301
0010
0100
0010
,
0001
0000
0100
0000
0010
0000
1000
0000
0100
0000
1000
0100
1000
0000
0001
0000
,
2000
3100
1100
1001
,
0110
0000
0010
1000
0020
0000
0100
0000
,
2030
0000
3100
1000
0100
0000
0010
0000
,
0002
0000
0103
0001
0100
0000
0010
0000
,
2000
3100
1001
0101
,
1010
0000
1000
0100
2000
0000
0100
0000
,
3002
0000
0000
0000
0103
0000
0000
0000
0010
1000
0010
0000
0200
0000
0000
0000
,
0301
1000
0001
0000
0020
0000
0000
0000
0230
0000
0000
0000
0000
0000
0000
0000
,
0300
0000
0000
0000
0001
0000
0100
0000
0010
1000
0000
0010
1000
0000
0010
1000
,
0000
0010
1000
0000
0100
0000
0010
0000
0002
0000
0000
0203
0000
0000
0320
0000
,
0000
0000
0000
0000
1030
0000
0001
0100
0001
0000
1000
0000
0010
1000
0010
0000
,
0100
0000
0001
1000
0001
0000
1000
0000
0100
0000
0010
0001
0000
0001
1000
0000
,
0010
0000
0100
0000
0001
0000
1000
0000
0100
0010
0000
0100
0010
0000
0100
0010
,
0000
0100
0010
0000
0001
0000
0100
0000
0002
0000
0000
1003
0000
0000
0020
0000
,
0000
0000
0000
0030
0100
0000
0001
0100
0001
0000
1000
0000
0010
1000
0010
0000
,
1000
0000
0100
0010
0100
0000
1000
0000
0001
0000
0001
0010
0000
0010
0001
0000
,
1000
0010
0200
0000
0301
0000
0000
1000
,
0010
1000
0100
0010
0002
0000
0103
0020
,
0000
0000
0030
1000
0010
1000
0100
0020
,
0000
0030
0001
0010
0001
0200
0000
0300
,
0002
0000
0000
0000
1003
0000
0000
0000
0001
0000
0000
0001
0000
0000
0100
0000
,
0001
0000
0100
0000
0100
0000
0000
0000
0010
0000
0000
0010
0000
0000
1000
0000
,
0001
0000
1000
0000
1000
0000
0000
0000
0001
0000
0000
0100
0000
0000
0002
0000
,
0000
1003
0010
2000
0000
0000
0000
0000
,
0000
0000
3000
0000
1001
0000
0000
0000
1000
0000
0000
0010
0000
0000
1000
0000
,
0100
0000
1000
0001
2000
0000
0000
0000
3001
0000
1000
0001
0000
0000
1000
0001
,
0000
0000
0100
0001
0100
0000
0010
0000
2000
0000
0000
0000
3100
0000
1000
0000
,
0001
0000
0100
0001
0200
0000
0000
0000
0301
0000
1000
0000
0100
0000
0010
0000
,
0001
0000
0000
0000
1001
0000
0000
0000
0100
0001
0000
0100
0001
0000
0100
0001
,
0000
0100
0001
0000
1000
0000
0010
0000
0200
0000
0000
0301
0000
0000
2000
0000
,
0000
0000
0000
3000
0100
0000
0010
0100
0010
0000
0100
0000
1000
0001
1000
0000
,
0001
0000
0100
0001
0100
0000
0001
0000
1000
0000
0010
1000
0000
1000
0100
0000
,
0010
0000
0100
0000
1000
0000
0001
0000
0100
0001
0000
0100
0001
0000
0100
0001
,
0000
0100
0001
0000
1000
0000
0010
0000
0200
0000
0000
0301
0000
0000
2000
0000
,
0000
0000
0000
0000
3100
0000
0010
0100
0010
0000
0001
0000
0100
0001
0100
0000
,
0001
0000
1000
0100
1000
0000
0010
0000
1000
0000
0001
1000
0000
0001
1000
0000
,
0001
0000
0100
0000
0020
0000
0000
0030
1010
0000
0000
0000
1100
0000
0000
0000
,
0011
0000
1000
0001
0200
0000
0001
0000
,
0302
0000
0000
0000
1003
0000
0010
0000
2000
0000
0000
3200
0000
0000
0000
0000
,
0310
0000
0100
1000
1100
0000
0110
0000
,
1001
0000
0000
0100
0000
0000
0002
0000
0000
0000
0003
0000
1010
0000
0000
0000
,
0110
0000
0001
1000
0002
0000
0100
0000
,
2003
0000
0000
0000
0010
3000
0000
0000
2000
0000
3000
0200
0000
0300
0020
0000
,
0030
0002
0000
0003
0200
0000
0300
0000
1001
0000
0000
0000
1001
0000
0110
0000
,
0000
0101
0000
0100
0002
0000
0003
0000
;

//---------------dance-single - ----------------
#NOTES:
     dance-single:
     :
     Medium:
     7:
     0.419082,0.450513,0.155216,0.535494,0.089249,378.000000,358.000000,20.000000,69.000000,0.000000,0.000000,0.419082,0.450513,0.155216,0.535494,0.089249,378.000000,358.000000,20.000000,69.000000,0.000000,0.000000:
0000
0000
0000
0000
1000
0000
0001
0100
,
0020
0000
1030
0001
0020
0000
0031
0100
,
0020
0000
1030
0000
1100
0000
1000
0100
,
2000
0000
3001
0100
0002
0000
1003
0100
,
2000
0000
3010
1000
0001
0000
0010
0001
,
0020
0000
0130
0010
0002
0000
2003
0000
,
3010
0000
1000
0000
0020
0000
0000
0000
0130
0000
0000
0100
0000
0000
1000
0000
,
0000
1000
0000
0000
0002
0000
0000
0000
0103
0000
0000
0000
0010
0000
0100
0000
,
0000
0100
0010
0000
1010
0000
0001
1000
,
0002
0000
0013
0100
2000
0000
3010
1000
,
0020
0000
1030
0000
1001
0000
0001
0010
,
0200
0000
0310
0001
0020
0000
0031
1000
,
0020
1030
1100
0011
,
0001
1000
0020
0000
1030
0100
0010
0001
,
0020
0000
0130
0000
1000
0010
1000
0100
,
0020
0000
0031
0000
0100
0010
1000
0001
,
0020
0130
0110
1001
,
0010
1000
0010
0000
1000
0000
0000
0000
1010
0000
0000
0000
0101
0000
0000
0000
,
0001
0010
0001
0000
1000
0000
0000
0000
1100
0000
0000
0000
0001
0000
1000
0000
,
0010
1000
0100
0010
0001
1000
0010
1000
,
0200
0310
0011
0002
,
1003
0000
0010
1000
0020
0000
1000
0000
,
2030
0000
3001
0100
0002
0000
0023
0000
,
0230
0000
0310
0001
2000
0000
3020
0000
,
0230
0301
1100
0020
,
0130
0000
0001
1000
0020
0000
1000
0000
,
2030
0000
3100
0000
1000
1000
0020
0000
,
1030
1000
0002
0000
0013
0000
0000
0000
,
0000
0000
0000
0000
0100
0000
0001
0000
1000
0001
0000
1000
0001
0000
1000
0001
,
0000
0100
0020
0000
2030
0000
3002
0000
,
0203
0000
0310
1000
0001
0010
0100
0010
,
0001
1000
0010
1000
0100
0010
0001
0100
,
0010
0000
1000
0000
0001
0000
0000
0000
0001
1000
0000
0001
1000
0000
0001
1000
,
0000
0010
1000
0010
2000
0000
3100
0000
,
0020
0000
0031
1000
0010
0100
0010
1000
,
0100
1000
0010
0100
0010
1000
0001
0010
,
0011
0101
2001
3010
,
0200
0310
0002
0103
,
2000
3010
0200
0310
,
0002
1003
0200
0301
,
0020
0000
0000
0000
0031
0000
0000
0000
1000
0000
0000
1000
0000
0000
0001
0000
,
0200
0000
0000
0000
0310
0000
0000
0000
0001
0000
0000
0001
0000
0000
1000
0000
,
0020
0130
0001
1000
,
0010
0100
0010
0000
2000
0000
0000
0000
,
0000
0000
0000
0000
3100
0000
0000
0000
1000
0000
0000
1000
0000
0000
1000
0000
,
0002
0000
0000
0000
0103
0000
0000
0000
0010
0000
0000
0010
0000
0000
0010
0000
,
0100
0000
0010
0000
1000
0000
0100
0000
0010
0000
0000
0010
0000
0000
0010
0000
,
0200
1300
0002
0000
,
1003
0000
0000
0000
1001
0000
0000
0000
0100
0001
0000
0100
0001
0000
0100
0001
,
0000
0100
0001
1000
0020
0000
0130
0000
,
0200
0000
0301
1000
0001
0100
0010
1000
,
0001
0010
0001
0100
0010
1000
0001
0010
,
1000
0000
0010
0000
0001
0000
0000
0000
0100
0001
0000
0100
0001
0000
0100
0001
,
0000
1000
0010
0100
0002
0000
0013
0000
,
2000
0000
3100
1000
0100
0010
0001
0100
,
0001
0100
0001
0010
0100
1000
0001
0100
,
0010
1000
0100
0000
1100
0000
2000
0000
,
3001
0000
0100
0001
0020
0000
0100
0000
,
0032
0000
0103
0010
2000
0000
3100
0000
,
0010
0000
0001
1000
1010
0000
1010
0000
,
0100
0001
0200
0000
0301
0000
2000
0000
,
3100
0000
0010
0100
0020
0000
0100
0000
,
0230
0000
0000
0000
1300
0000
0000
0000
0010
0000
0000
0010
0000
0000
0001
0000
,
0000
0001
0000
0000
0200
0000
0000
0000
0301
0000
0000
0000
0001
0000
1000
0000
,
0000
1000
0001
0000
1001
0000
0000
0000
;

//---------------dance-single - ----------------
#NOTES:
     dance-single:
     :
     Easy:
     4:
     0.263867,0.300342,0.015522,0.256106,0.000000,238.000000,236.000000,2.000000,33.000000,0.000000,0.000000,0.263867,0.300342,0.015522,0.256106,0.000000,238.000000,236.000000,2.000000,33.000000,0.000000,0.000000:
0000
0000
1000
0001
,
0200
0301
0020
0031
,
1000
0010
0200
0310
,
2000
3001
0010
0100
,
1000
0010
1000
1000
,
0001
0001
0100
0010
,
2000
3010
1000
1000
,
0001
0000
0001
0000
1001
0000
0001
1000
,
0000
1000
0010
0000
1000
0000
0001
0000
,
0100
0000
0010
0000
1000
0000
0001
1000
,
0002
0000
0103
0010
,
1000
0000
0100
0000
1000
0000
0001
1000
,
0020
0000
0130
0100
,
0001
0001
0010
0100
,
2000
0000
3001
0100
,
0020
0000
1030
0001
,
0100
0101
0010
1000
,
0001
1000
0002
0000
0013
0000
0100
0000
,
1000
0100
2000
0000
3010
0000
0100
0000
,
0001
1000
0010
1000
,
0200
0000
0310
0010
,
0001
1000
2000
0000
,
3010
0000
0100
0100
,
0020
0000
1030
1000
,
0002
0000
0013
0001
,
0010
0100
2000
0000
,
3020
0000
0130
0100
,
0001
0001
1000
0000
,
0000
1000
0010
0010
,
0010
0100
0001
0010
,
0200
0000
1300
1000
,
0001
0001
1000
0010
,
1000
0100
0100
0100
,
0100
0010
0002
0000
,
1003
0010
1000
1000
,
0001
0001
0100
0001
,
0010
0100
0200
0000
,
1300
0000
0002
0000
,
1003
0000
2000
0000
,
3010
0000
0200
0000
,
0310
0000
1000
0001
,
0020
0000
0031
0100
,
0020
0000
1030
1000
,
0001
0001
0200
0000
,
0000
0300
0001
1000
,
0010
1000
0010
0000
1000
0000
0100
0000
,
0010
0100
0010
0000
0001
0000
0001
0000
,
1000
1000
0020
0000
,
1030
0010
0100
0100
,
0100
0001
0100
0000
0001
0000
1000
0000
,
0020
1030
1000
0100
,
0010
0000
0001
0000
0100
0001
0100
0000
,
0010
0010
1000
1000
,
1000
0000
0001
0000
0100
0001
0100
0000
,
0020
1030
1000
0001
,
0010
0100
0010
0001
,
1000
1000
0010
0100
,
0001
0000
0100
0001
0020
0000
0000
0000
,
0031
0100
0200
0000
,
0310
1000
0001
0001
,
1000
1000
0010
1000
,
0100
0000
1000
0100
2000
0000
0000
0000
,
3002
0000
0103
0100
,
0010
0010
1000
1000
,
0001
0001
1000
0000
;

//---------------dance-single - ----------------
#NOTES:
     dance-single:
     :
     Beginner:
     2:
     0.162976,0.200228,0.000000,0.310431,0.000000,147.000000,147.000000,0.000000,40.000000,0.000000,0.000000,0.162976,0.200228,0.000000,0.310431,0.000000,147.000000,147.000000,0.000000,40.000000,0.000000,0.000000:
// measure 0
0000
0000
2000
0000
,  // measure 1
3001
0000
0002
0000
,  // measure 2
0103
0000
0020
0000
,  // measure 3
1030
0000
1000
0000
,  // measure 4
1000
0000
0002
0000
,  // measure 5
0013
0000
0200
0000
,  // measure 6
0310
0000
1000
0000
,  // measure 7
1000
0000
0010
0000
,  // measure 8
0010
0000
1000
0000
,  // measure 9
0100
0000
0001
1000
,  // measure 10
0002
0000
0013
0000
,  // measure 11
0010
0000
0001
0010
,  // measure 12
0200
0000
1300
0000
,  // measure 13
1000
0000
0001
1000
,  // measure 14
0002
0000
0103
0001
,  // measure 15
0200
0000
0310
0000
,  // measure 16
0010
0000
1000
1000
,  // measure 17
2000
0000
3001
0001
,  // measure 18
0002
0000
0103
0000
,  // measure 19
0100
0000
0010
1000
,  // measure 20
0020
0000
1030
0000
,  // measure 21
1000
0000
2000
0000
,  // measure 22
3001
0000
0001
0000
,  // measure 23
0100
0000
0002
0000
,  // measure 24
0013
0000
0100
0100
,  // measure 25
0100
0000
0010
0010
,  // measure 26
0010
0000
0002
0000
,  // measure 27
1003
0000
2000
0000
,  // measure 28
0000
0000
3010
0010
,  // measure 29
0010
0000
2000
0000
,  // measure 30
3001
0000
0100
0100
,  // measure 31
0001
0001
1000
0010
,  // measure 32
2000
0000
3010
0010
,  // measure 33
0010
0000
2000
0000
,  // measure 34
3001
0000
0100
0100
,  // measure 35
0001
0000
0010
0001
,  // measure 36
0020
0000
0032
0000
,  // measure 37
0000
0000
2003
0000
,  // measure 38
0000
0000
3020
0000
,  // measure 39
0000
0000
0230
0000
,  // measure 40
0000
0000
0301
0000
,  // measure 41
0001
0000
1000
0000
,  // measure 42
1000
0000
0010
0000
,  // measure 43
1000
0000
0200
0000
,  // measure 44
0000
0000
0310
0000
,  // measure 45
0010
0000
0001
0010
,  // measure 46
0001
0000
2000
0000
,  // measure 47
3010
0000
2000
0000
,  // measure 48
3001
0000
0100
0100
,  // measure 49
0100
0000
0002
0000
,  // measure 50
0013
0000
0100
0010
,  // measure 51
0100
0000
1000
0001
,  // measure 52
1000
0000
0001
0001
,  // measure 53
0001
0000
2000
0000
,  // measure 54
3010
0000
0100
0001
,  // measure 55
0100
0000
0010
1000
,  // measure 56
0010
0000
2000
0000
,  // measure 57
3002
0000
0023
0000
,  // measure 58
0032
0000
0203
0000
,  // measure 59
0320
0000
1030
0000
,  // measure 60
1000
0000
0002
0000
,  // measure 61
0023
0000
0230
0000
,  // measure 62
2300
0000
3001
0000
,  // measure 63
0001
0000
0100
0001
,  // measure 64
0200
0000
0310
0000
;
