#VERSION:0.83;
#TITLE:WAY 4 LUV;
#SUBTITLE:;
#ARTIST:PLAVE;
#TITLETRANSLIT:;
#SUBTITLETRANSLIT:;
#ARTISTTRANSLIT:;
#GENRE:;
#ORIGIN:;
#CREDIT:;
#BANNER:AV.avi;
#BACKGROUND:bg.png;
#PREVIEWVID:;
#JACKET:jacket.png;
#CDIMAGE:;
#DISCIMAGE:;
#LYRICSPATH:;
#CDTITLE:;
#MUSIC:audio.ogg;
#OFFSET:-0.216000;
#SAMPLESTART:75.724213;
#SAMPLELENGTH:15.000001;
#SELECTABLE:YES;
#BPMS:0.000=127.000;
#STOPS:;
#DELAYS:;
#WARPS:;
#TIMESIGNATURES:0.000=4=4;
#TICKCOUNTS:0.000=4;
#COMBOS:0.000=1;
#SPEEDS:0.000=1.000=0.000=0;
#SCROLLS:0.000=1.000,
128.000=0.500,
156.500=0.600,
157.500=0.800,
158.500=0.900,
160.000=1.000;
#FAKES:;
#LABELS:0.000=Song Start;
#BGCHANGES:0.000=MV.avi=1.000=1=0=1===CrossFade==,
99999=-nosongbg-=1.000=0=0=0 // don't automatically add -songbackground-
;
#KEYSOUNDS:;
#ATTACKS:
;

//---------------dance-single - ----------------
#NOTEDATA:;
#CHARTNAME:;
#STEPSTYPE:dance-single;
#DESCRIPTION:;
#CHARTSTYLE:;
#DIFFICULTY:Hard;
#METER:11;
#RADARVALUES:0.444815,0.592542,0.088733,0.451729,0.044366,386.000000,375.000000,11.000000,56.000000,0.000000,0.000000,0.000000,0.000000,0.000000,0.444815,0.592542,0.088733,0.451729,0.044366,386.000000,375.000000,11.000000,56.000000,0.000000,0.000000,0.000000,0.000000,0.000000;
#CREDIT:Musey;
#NOTES:
// measure 0
0000
0000
0000
0000
,  // measure 1
0000
0000
0000
0000
,  // measure 2
0000
0000
0000
0000
,  // measure 3
0000
0000
0000
0000
,  // measure 4
0000
0000
0000
0000
,  // measure 5
0000
0000
0000
0000
,  // measure 6
0000
0000
0000
0000
,  // measure 7
0000
1000
0010
1000
0010
1000
0010
0100
,  // measure 8
0102
0000
0203
0000
0310
0100
0001
0020
,  // measure 9
0000
0032
0000
0203
0000
0310
1000
0100
,  // measure 10
0200
0000
2300
0000
3001
0010
0001
2000
,  // measure 11
0000
3020
0000
2030
0000
3100
0010
0001
,  // measure 12
0001
0010
0100
1000
0020
0000
0130
0001
,  // measure 13
0000
0001
0100
0010
0000
0010
1000
0001
,  // measure 14
0001
1000
0001
0010
0200
0000
1300
0001
,  // measure 15
0000
0001
0100
0010
1000
0010
0100
0001
,  // measure 16
0100
0000
0101
0000
0100
0001
0100
0010
,  // measure 17
0000
1000
0001
0100
0010
0100
0001
0010
,  // measure 18
0100
0000
1010
0000
0001
1000
0010
0100
,  // measure 19
0000
0100
0001
0010
0001
1000
0010
0100
,  // measure 20
0001
0000
0011
0000
0001
0100
0010
0100
,  // measure 21
0000
0100
0010
1000
0100
0001
1000
0010
,  // measure 22
0100
0000
1001
0000
1000
1000
0010
0100
,  // measure 23
0000
0000
0001
0100
0010
0000
0100
0000
0010
0000
1000
0000
0010
0000
0100
0000
,  // measure 24
0001
0000
0000
0000
0100
0000
0001
0000
0100
0001
0010
0000
0001
0000
1000
0000
,  // measure 25
0010
1000
0100
0000
0010
0000
0001
0000
0100
0010
1000
0000
0100
0010
0001
0000
,  // measure 26
0101
0000
0000
0000
1100
0000
0000
0000
0100
1000
0010
1000
0001
0000
0010
0000
,  // measure 27
0011
0000
0000
0000
1100
0000
0000
0000
0010
1000
0001
0000
0100
0000
0001
0000
,  // measure 28
0010
0000
0000
0000
0001
0000
1000
0000
0010
0100
1000
0000
0100
0000
0001
0000
,  // measure 29
1000
0000
0100
0000
0010
1000
0010
0001
,  // measure 30
0100
0000
0010
0000
1000
0100
0010
0000
0100
0000
0010
0000
0001
0100
0010
0000
,  // measure 31
0100
0001
0100
0010
1000
0100
0010
0100
,  // measure 32
2000
0000
3020
0000
,  // measure 33
0130
0001
0010
0100
0020
0000
0032
0000
,  // measure 34
2003
0000
3020
0000
,  // measure 35
0130
0010
0100
1000
0200
0000
0320
0000
,  // measure 36
1030
0001
0010
0100
0010
0001
1000
0000
,  // measure 37
2000
3002
0023
0230
0320
0032
2003
3000
,  // measure 38
0100
1000
0100
0001
0100
1000
0100
0000
,  // measure 39
0100
1000
0100
1000
0010
0100
0001
0010
,  // measure 40
0002
0000
0203
0000
0310
1000
0001
0020
,  // measure 41
0000
0130
0010
0002
0000
1003
0001
0010
,  // measure 42
0020
0000
0230
0000
1300
0001
0010
0002
,  // measure 43
0000
0013
0100
0020
0000
0031
1000
0010
,  // measure 44
0010
0100
0001
1000
0200
0000
0310
0002
,  // measure 45
0000
1003
0010
2000
0000
3100
0001
0100
,  // measure 46
0100
1000
0001
0100
0020
0000
1030
0200
,  // measure 47
0000
1300
0010
0100
0001
0100
0010
1000
,  // measure 48
1100
0000
0101
0000
0001
0010
0100
0020
,  // measure 49
0000
0031
1000
0020
0000
0130
0010
1000
,  // measure 50
1000
0001
0100
0010
1000
0001
0010
0002
,  // measure 51
0000
0103
0010
2000
0000
3100
0010
0001
,  // measure 52
0001
0100
0010
0100
1000
0100
0001
2000
,  // measure 53
0000
3010
0100
0002
0000
0013
0100
0010
,  // measure 54
0010
1000
0010
0001
0010
0100
1000
0002
,  // measure 55
0000
0103
0001
1000
0010
1000
0001
0100
,  // measure 56
0020
0000
0100
0000
1030
0010
0100
0002
,  // measure 57
0000
0103
0010
0001
0000
0010
1000
0010
,  // measure 58
0200
0000
1000
0000
0310
1000
0001
0020
,  // measure 59
0000
0130
0001
0100
0000
1000
0001
1000
,  // measure 60
0020
0000
1000
0000
0130
0001
1000
0200
,  // measure 61
0000
0310
0001
2000
0000
3010
1000
0001
,  // measure 62
0200
0000
0001
0000
0310
0100
0001
0020
,  // measure 63
0000
0130
1000
0001
0100
0010
1000
0010
;

//---------------dance-single - ----------------
#NOTEDATA:;
#CHARTNAME:;
#STEPSTYPE:dance-single;
#DESCRIPTION:;
#CHARTSTYLE:;
#DIFFICULTY:Medium;
#METER:8;
#RADARVALUES:0.339949,0.411397,0.056466,0.395263,0.000000,295.000000,288.000000,7.000000,49.000000,0.000000,0.000000,0.000000,0.000000,0.000000,0.339949,0.411397,0.056466,0.395263,0.000000,295.000000,288.000000,7.000000,49.000000,0.000000,0.000000,0.000000,0.000000,0.000000;
#CREDIT:Musey;
#NOTES:
0000
0000
0000
0000
,
0000
0000
0000
0000
,
0000
0000
0000
0000
,
0000
0000
0000
0000
,
0000
0000
0000
0000
,
0000
0000
0000
0000
,
0000
0000
0000
0000
,
0000
1000
0001
0000
0100
0010
0100
0000
,
0020
0000
2030
0000
3100
0000
1000
0001
,
0000
0001
0100
0010
0000
0010
0100
0001
,
2000
0000
3002
0000
0203
0000
0310
0100
,
0000
0100
0001
0010
0000
0010
0001
1000
,
0010
1000
0001
0000
0100
0000
0100
0001
,
0000
0001
0100
0010
0000
0010
1000
0000
,
0001
1000
0100
0000
1000
0000
1000
0010
,
0000
0010
0100
0001
0010
0100
0010
0000
,
0011
0000
1001
0000
0010
1000
0010
0100
,
0000
0100
0001
0010
0100
0010
0001
1000
,
0010
0000
1000
0000
0001
1000
0001
0100
,
0000
0100
0010
1000
0001
0010
0100
0000
,
0010
0000
0001
0000
1000
0010
1000
0001
,
0000
0100
0001
0100
0010
0000
1000
0000
,
0001
0000
1000
0000
0001
0100
0010
0100
,
0000
0001
1000
0000
0100
1000
0001
0000
,
1001
0000
0010
0000
1000
0001
0010
0000
,
0001
0010
0100
0000
0001
1000
0010
0000
,
1000
0000
0001
0000
0100
0010
0100
0000
,
0001
1000
0100
1000
0001
0000
0110
0000
,
0001
0000
0001
0100
0010
0100
0001
0000
,
1000
0000
1000
0000
0010
1000
0001
0100
,
0010
0100
0001
0010
1000
0010
0001
0000
,
0100
0001
1010
0101
,
0020
0000
1030
0000
,
0001
0001
0001
0000
,
2000
0000
3010
0000
,
0100
0100
0100
0000
,
0001
1000
0010
0010
,
1000
0001
0100
0100
,
0001
1000
0010
0010
,
1000
0001
1000
0001
,
2000
0000
3020
0000
0230
0000
0301
0100
,
0000
0200
0000
0320
0000
2030
0000
3000
,
0002
0000
0203
0000
0320
0000
1030
0001
,
0000
0002
0000
0203
0000
0320
0000
0030
,
1000
0010
1000
0010
0200
0000
0301
0020
,
0000
0032
0000
0203
0000
0000
0310
0000
,
1000
0001
1000
0010
0200
0000
0301
0020
,
0000
0032
0000
2003
0000
0000
3010
0000
,
0200
0000
0320
0000
2030
0000
3001
0020
,
0000
0032
0000
0203
0000
0320
0000
0030
,
1000
0100
0010
0100
1000
0010
0100
0020
,
0000
2030
0000
3002
0000
0203
0000
0000
,
0301
1000
0001
0010
0200
0000
0310
0002
,
0000
1003
0010
0100
0000
0100
0001
0000
,
1000
0001
0010
0001
2000
0000
3010
0100
,
0000
0100
0010
1000
0100
0001
0100
1000
,
0020
0130
0002
1003
,
0010
0100
0010
0000
1000
0001
0010
0000
,
0002
0013
0200
0310
,
0001
0100
0010
0000
0010
0100
0001
0000
,
0020
0130
0002
1003
,
0010
0100
0001
0000
0001
0010
1000
0000
,
0002
0103
0020
1030
,
1000
0100
0001
0000
0010
0000
0110
0000
;

//---------------dance-single - ----------------
#NOTEDATA:;
#CHARTNAME:;
#STEPSTYPE:dance-single;
#DESCRIPTION:;
#CHARTSTYLE:;
#DIFFICULTY:Easy;
#METER:5;
#RADARVALUES:0.209732,0.282835,0.032266,0.137132,0.000000,182.000000,178.000000,4.000000,17.000000,0.000000,0.000000,0.000000,0.000000,0.000000,0.209732,0.282835,0.032266,0.137132,0.000000,182.000000,178.000000,4.000000,17.000000,0.000000,0.000000,0.000000,0.000000,0.000000;
#CREDIT:Musey;
#NOTES:
0000
0000
0000
0000
,
0000
0000
0000
0000
,
0000
0000
0000
0000
,
0000
0000
0000
0000
,
0000
0000
0000
0000
,
0000
0000
0000
0000
,
0000
0000
0000
0000
,
0000
0000
0000
0000
,
1000
0001
0100
0010
,
0100
0001
0020
0031
,
0010
0100
0010
0100
,
1000
1000
0002
0103
,
0001
0100
0010
1000
,
0001
0001
2000
0000
,
3010
0100
0001
1000
,
0010
0010
2000
0000
,
3001
0100
0010
0000
,
0100
0001
0100
0010
,
1000
1000
0001
0000
,
0100
0001
0010
0001
,
1000
1000
0010
0000
,
0100
0001
0100
0010
,
1000
1000
0001
0001
,
1000
0010
0100
0010
,
1010
0000
0001
0100
,
0101
0010
1000
0010
,
1010
0000
0001
0100
,
0001
0001
0010
0001
,
1000
1000
0010
0010
,
1000
1000
0001
0001
,
0100
0001
1000
0010
,
2000
0000
3001
0000
,
0200
0000
0000
0000
,
0310
0000
0000
0000
,
2000
0000
0000
0000
,
3001
0000
0000
0000
,
0200
0000
0310
0000
,
2000
0000
3001
0000
,
0200
0000
0310
0000
,
2000
0000
3001
0000
,
1000
1000
0010
1000
,
0001
0001
0100
0000
,
0100
0010
0100
0100
,
0001
0001
1000
0000
,
0010
1000
0001
0100
,
0020
0000
1030
0000
,
0001
1000
0100
1000
,
0020
0000
0130
0000
,
0001
0010
0001
0100
,
0020
0000
0130
0000
,
0001
0100
0010
1000
,
0200
0000
0310
0000
,
1000
0100
1000
0001
,
0200
0000
0310
0000
,
0001
0010
0001
0100
,
0020
0000
0130
0000
,
1000
1000
0001
0001
,
0100
0100
0010
0000
,
1000
0001
1000
0001
,
0100
0100
0010
0000
,
1000
0001
0010
0100
,
0010
0010
0001
0000
,
1000
0001
1000
0001
,
0100
0100
0010
0110
;

//---------------dance-single - ----------------
#NOTEDATA:;
#CHARTNAME:;
#STEPSTYPE:dance-single;
#DESCRIPTION:;
#CHARTSTYLE:;
#DIFFICULTY:Beginner;
#METER:2;
#RADARVALUES:0.157875,0.205698,0.000000,0.072599,0.000000,137.000000,137.000000,0.000000,9.000000,0.000000,0.000000,0.000000,0.000000,0.000000,0.157875,0.205698,0.000000,0.072599,0.000000,137.000000,137.000000,0.000000,9.000000,0.000000,0.000000,0.000000,0.000000,0.000000;
#CREDIT:Musey;
#NOTES:
0000
0000
0000
0000
,
0000
0000
0000
0000
,
0000
0000
0000
0000
,
0000
0000
0000
0000
,
0000
0000
0000
0000
,
0000
0000
0000
0000
,
0000
0000
0000
0000
,
0000
0000
0000
0000
,
1000
0000
0001
0000
,
0100
0001
0100
0000
,
0010
0000
1000
0000
,
0010
1000
0010
0000
,
0100
0100
0001
0000
,
1000
0001
1000
0000
,
0010
1000
0100
0000
,
0010
0100
0010
0000
,
1000
0000
0001
0000
,
1000
0010
1000
0000
,
0100
0000
0001
0000
,
0100
0010
0100
0000
,
0001
0000
1000
0000
,
0010
1000
0100
0000
,
0100
0000
0001
0000
,
1000
0001
1000
0010
,
0100
0000
0001
0100
,
0001
0000
1000
0100
,
1000
0000
1000
0000
,
0001
1000
0010
0000
,
0010
0000
0100
0000
,
0100
0000
0001
0000
,
1000
0010
1000
0001
,
0100
0000
0100
0000
,
0020
0000
0000
0000
,
1030
0000
0000
0000
,
2000
0000
0000
0000
,
3001
0000
0000
0000
,
0200
0000
0000
0000
,
0310
0000
0000
0000
,
0002
0000
0000
0000
,
1003
0000
0000
0000
,
1000
1000
0010
0000
,
0100
0001
0100
0000
,
0010
1000
0010
0000
,
0100
0001
0100
0000
,
0001
0000
0001
0000
,
1000
0001
0100
0000
,
0001
0000
0001
0000
,
1000
0001
1000
0001
,
0100
0000
0010
0000
,
1000
0001
0010
0000
,
0001
1000
0001
0000
,
0100
0001
0100
0000
,
0010
0000
0010
0000
,
1000
0001
1000
0000
,
0100
0010
0100
0000
,
2000
0000
3001
0000
,
0100
0100
0001
0000
,
2000
0000
3001
0000
,
0010
1000
0010
0000
,
2000
0000
3001
0000
,
0100
0001
0100
0000
,
0020
0000
1030
0000
,
0001
1000
0010
0000
,
0200
0000
0301
0001
;
