#VERSION:0.83;
#TITLE:Time of Our Live;
#SUBTITLE:;
#ARTIST:DAY6;
#TITLETRANSLIT:;
#SUBTITLETRANSLIT:;
#ARTISTTRANSLIT:;
#GENRE:;
#ORIGIN:;
#CREDIT:;
#BANNER:AV.avi;
#BACKGROUND:bg.png;
#PREVIEWVID:;
#JACKET:jacket.png;
#CDIMAGE:;
#DISCIMAGE:;
#LYRICSPATH:;
#CDTITLE:;
#MUSIC:audio.ogg;
#OFFSET:-0.105000;
#SAMPLESTART:57.975060;
#SAMPLELENGTH:14.999998;
#SELECTABLE:YES;
#BPMS:0.000=175.000;
#STOPS:;
#DELAYS:;
#WARPS:;
#TIMESIGNATURES:0.000=4=4;
#TICKCOUNTS:0.000=4;
#COMBOS:0.000=1;
#SPEEDS:0.000=1.000=0.000=0;
#SCROLLS:0.000=1.000;
#FAKES:;
#LABELS:0.000=Song Start;
#BGCHANGES:0.000=MV.avi=1.200=1=0=1===CrossFade==,
3.000=MV.avi=1.000=0=0=1=====,
99999=-nosongbg-=1.000=0=0=0 // don't automatically add -songbackground-
;
#KEYSOUNDS:;
#ATTACKS:
;

//---------------dance-single - ----------------
#NOTEDATA:;
#CHARTNAME:;
#STEPSTYPE:dance-single;
#DESCRIPTION:;
#CHARTSTYLE:;
#DIFFICULTY:Challenge;
#METER:15;
#RADARVALUES:0.640365,0.707772,0.493966,0.722517,0.084785,608.000000,541.000000,67.000000,98.000000,0.000000,0.000000,0.000000,0.000000,0.000000,0.640365,0.707772,0.493966,0.722517,0.084785,608.000000,541.000000,67.000000,98.000000,0.000000,0.000000,0.000000,0.000000,0.000000;
#CREDIT:Musey;
#NOTES:
// measure 0
0000
0000
0000
0000
,  // measure 1
0000
0000
0000
0000
,  // measure 2
0000
0000
0000
0000
,  // measure 3
0000
0000
0000
0000
,  // measure 4
0000
0000
0000
0000
,  // measure 5
0000
0000
0000
0000
,  // measure 6
0000
0000
0000
0000
,  // measure 7
0000
0000
0000
0000
,  // measure 8
0000
0000
0000
0000
,  // measure 9
0000
0000
1010
0000
1010
0000
0010
0100
,  // measure 10
0001
0000
0001
0100
0001
0100
0001
0100
,  // measure 11
0001
0100
0001
0000
1001
0000
0001
0100
,  // measure 12
0010
0000
0010
1000
0010
1000
0100
1000
,  // measure 13
0010
1000
0001
0000
0011
0000
0001
1000
,  // measure 14
0010
0000
0010
0100
0010
0100
0010
0100
,  // measure 15
0010
0100
0001
0000
1001
0000
0001
0100
,  // measure 16
0010
0000
0000
0000
1000
0000
0001
0000
0001
0100
0001
0000
0010
0000
0100
0000
,  // measure 17
1000
0001
0020
0000
0031
1000
0200
0000
,  // measure 18
0310
0001
1000
0010
0100
0020
0030
1000
,  // measure 19
0001
0100
0002
0000
0013
0100
1000
0002
,  // measure 20
0000
0013
0100
0000
0100
1000
0010
0100
,  // measure 21
0001
1000
0200
0000
1300
0000
0010
1000
,  // measure 22
0010
0200
0000
0301
0010
0100
1000
0010
,  // measure 23
1000
0002
0010
0000
1003
0000
0100
0000
,  // measure 24
1001
0000
1000
1000
1000
0001
1000
0001
,  // measure 25
0100
0010
0002
0000
0013
1000
0200
0000
,  // measure 26
1300
0001
0010
0001
0100
0020
0030
0010
,  // measure 27
1000
0001
2000
0000
3100
0010
0100
1000
,  // measure 28
0001
0100
0010
0000
0010
0100
0010
0001
,  // measure 29
0010
1000
0002
0000
1003
0000
1000
0010
,  // measure 30
0100
0002
0000
1003
0100
1000
0001
0010
,  // measure 31
1000
0010
0002
0000
1003
0010
1000
0001
,  // measure 32
0100
0010
1000
1000
1000
0100
1000
0010
,  // measure 33
1000
0000
0001
0010
0001
0000
0000
0000
0022
0000
0033
0000
0022
0000
0033
0000
,  // measure 34
0022
0033
1000
0001
0100
0020
0000
0130
,  // measure 35
0001
0010
0002
0000
0013
1000
0010
0001
,  // measure 36
1000
0010
0100
0001
0010
0100
1000
0100
,  // measure 37
0010
0001
2002
3003
2002
3003
2002
3003
,  // measure 38
2002
3003
0001
1000
0010
0200
0000
0301
,  // measure 39
1000
0100
0020
0000
0031
0100
0010
0100
,  // measure 40
0001
0000
1000
0000
0010
1000
0010
1000
0010
0000
0100
0000
0001
0000
0000
0000
,  // measure 41
0000
2000
0000
0000
,  // measure 42
0000
3000
2002
3003
0220
0330
0022
0033
,  // measure 43
2200
3300
2002
3003
1000
0010
0001
0010
,  // measure 44
0100
0001
1000
0000
0011
0000
2200
3300
,  // measure 45
2002
3003
0220
0330
1000
0100
0001
0100
,  // measure 46
1000
0000
0000
0010
0000
0000
0100
0000
0000
0000
0000
0000
1001
0000
0000
0000
0000
0000
1100
0000
0000
0000
1001
0000
,  // measure 47
0000
0000
1001
0000
0000
0000
1100
0000
0000
0000
0000
0000
1000
0000
0000
0100
0000
0000
0010
0000
0000
0100
0000
0000
,  // measure 48
1000
0000
1002
0000
1003
0001
0100
0010
,  // measure 49
1000
0000
0001
0000
0010
0000
0100
0000
0100
0000
0010
0000
0001
0100
0001
0100
,  // measure 50
0000
0010
0100
0010
0100
0000
0000
0000
2200
0000
3300
0000
0001
0000
1000
0000
,  // measure 51
2020
3030
2002
3003
1000
0100
1000
0001
,  // measure 52
0100
0010
1000
0000
1001
0000
1000
0001
,  // measure 53
2002
3003
0220
0330
1000
0100
1000
0001
,  // measure 54
0010
0000
0000
0001
0000
0000
2002
0000
0000
3003
0000
0000
1010
0000
0000
0000
0000
0000
1001
0000
0000
0000
0110
0000
,  // measure 55
0000
0000
0110
0000
0000
0000
1001
0000
0000
0000
0000
0000
1000
0000
0000
0001
0000
0000
1001
0000
0000
1000
0000
0000
,  // measure 56
0010
0000
0022
0033
0100
0000
1000
0100
,  // measure 57
0010
0000
2002
3003
1000
0001
0100
0010
,  // measure 58
1000
0000
2020
3030
0001
0000
0100
0001
,  // measure 59
0100
0000
0001
0000
0010
0000
0001
0000
0100
0010
0100
0000
0001
0000
0010
0000
,  // measure 60
1000
0010
0002
0000
1003
0000
2000
0000
,  // measure 61
3001
0002
0013
0020
,  // measure 62
0130
1000
0002
0203
,  // measure 63
0320
2030
3002
0023
,  // measure 64
0000
0130
1000
0002
,  // measure 65
1003
2000
3100
0200
,  // measure 66
0310
0000
0100
0000
0100
0001
0100
1000
,  // measure 67
0001
0100
0020
0000
0000
0000
1030
0000
,  // measure 68
0000
0000
0001
0100
1000
0100
0001
0100
,  // measure 69
0010
0100
0001
0100
1000
0100
0001
0100
,  // measure 70
0010
0100
0001
0010
1000
0010
0001
0010
,  // measure 71
0100
0010
0001
0010
1000
0010
0001
0010
,  // measure 72
0100
0000
0000
0010
0000
0000
0001
0000
0000
1000
0000
0000
0010
0000
0000
1000
0000
0000
0100
0000
0000
0000
1100
0000
,  // measure 73
0000
0000
1100
0000
0000
0000
1001
0000
0000
0000
0000
0000
1000
0000
0000
0100
0000
0000
1000
0000
0000
0100
0000
0000
,  // measure 74
0010
0000
2002
3003
0001
1000
0010
1000
,  // measure 75
0001
0000
0100
0000
0010
0000
0100
0000
0100
0000
0001
0000
0100
0001
0100
0001
,  // measure 76
0000
0010
0100
0010
0100
0000
0000
0000
2200
0000
3300
0000
0001
0000
1000
0000
,  // measure 77
0010
0000
0011
0001
0100
1000
0100
0001
,  // measure 78
0010
0100
1000
0000
1010
0000
0010
1000
,  // measure 79
0001
0000
1001
0010
0001
1000
0100
0010
,  // measure 80
0001
0000
0000
0100
0000
0000
0010
0000
0000
0000
0000
0000
0110
0000
0000
0000
0000
0000
1001
0000
0000
0000
0110
0000
,  // measure 81
0000
0000
0110
0000
0000
0000
1001
0000
0000
0000
0000
0000
1000
0000
0000
0100
0000
0000
1000
0000
0000
0001
0000
0000
,  // measure 82
0010
0000
2002
3003
0010
0000
1000
0100
,  // measure 83
1000
0000
1010
0100
0001
0100
0010
0100
,  // measure 84
0001
0000
0220
0330
0022
0033
0100
1000
,  // measure 85
0001
0000
0100
0000
0010
0000
0100
0000
0001
1000
0001
0000
1000
0000
0100
0000
,  // measure 86
0010
0001
1000
0000
0220
0330
0001
0100
,  // measure 87
1000
0001
0010
0100
0001
0010
1000
0001
,  // measure 88
0100
1000
0001
0000
0110
0000
1000
0010
,  // measure 89
0001
1000
0100
0010
1000
0100
0001
1000
,  // measure 90
0010
0001
1000
0000
0220
0330
0001
0100
,  // measure 91
1000
0001
0010
0100
0001
0010
1000
0001
,  // measure 92
0100
1000
0001
0000
1001
0000
1000
0100
,  // measure 93
1000
0000
0001
0000
0100
0000
0001
0000
1000
0001
1000
0000
1001
0000
0001
0000
,  // measure 94
0101
0100
0020
0000
0000
0000
0000
0000
,  // measure 95
0000
0000
0000
0000
,  // measure 96
0030
0000
0000
0000
;

//---------------dance-single - ----------------
#NOTEDATA:;
#CHARTNAME:;
#STEPSTYPE:dance-single;
#DESCRIPTION:;
#CHARTSTYLE:;
#DIFFICULTY:Hard;
#METER:11;
#RADARVALUES:0.571905,0.636994,0.545574,0.361258,0.029490,543.000000,469.000000,74.000000,49.000000,0.000000,0.000000,0.000000,0.000000,0.000000,0.571905,0.636994,0.545574,0.361258,0.029490,543.000000,469.000000,74.000000,49.000000,0.000000,0.000000,0.000000,0.000000,0.000000;
#CREDIT:Musey;
#NOTES:
0000
0000
0000
0000
,
0000
0000
0000
0000
,
0000
0000
0000
0000
,
0000
0000
0000
0000
,
0000
0000
0000
0000
,
0000
0000
0000
0000
,
0000
0000
0000
0000
,
0000
0000
0000
0000
,
0000
0000
0000
0000
,
0000
0000
1000
0000
1000
0000
0001
1000
,
0001
0000
0001
0100
0001
0100
0010
0100
,
0001
0100
0010
0000
0010
0000
0010
1000
,
0100
0000
0100
1000
0100
1000
0010
1000
,
0100
1000
0010
0000
0010
0000
0010
0100
,
0001
0000
0001
0010
0100
0010
0001
0010
,
0100
0010
0001
0000
0001
0000
0001
1000
,
0010
0000
1000
0100
0010
0001
0010
0100
,
1000
0001
0200
0000
0310
0100
0020
0000
,
1030
0001
0100
0001
0010
0100
0000
0100
,
1000
0010
2000
0000
3010
0100
0001
0010
,
0100
0010
0001
0000
1000
0010
1000
0100
,
0010
0100
2000
0000
3010
0000
1000
0001
,
1000
0020
0000
0130
0002
0000
0103
0001
,
0100
0001
0020
0000
0130
0000
0200
0000
,
0310
0000
0001
0010
0010
0001
0010
0001
,
0010
0001
0200
0000
0301
1000
0020
0000
,
1030
0100
1000
0100
0010
0100
0000
1000
,
0001
1000
0020
0000
0130
0010
0100
0001
,
0010
0100
1000
0000
1000
0001
1000
0010
,
0100
0001
0020
0000
0031
0000
0010
0001
,
0010
0200
0000
1300
0010
1000
0100
0010
,
0001
0010
0200
0000
0310
0000
0010
0001
,
1000
0000
1000
0001
1000
0100
0010
0100
,
1000
1001
1001
1001
,
1001
0000
1000
0002
0000
0013
0000
0001
,
0100
0010
0100
0000
0100
0010
1000
0100
,
1000
0100
0020
0000
0130
0000
0010
0001
,
1000
1010
1010
1010
,
1010
0000
1000
0020
0000
0130
0000
0100
,
0001
0010
0200
0000
0310
0000
0010
0100
,
0010
0000
0001
1000
0001
1000
0010
0000
,
0000
0200
0000
0000
,
0301
1100
1100
0011
,
0011
0000
0110
0000
0010
0001
0010
0001
,
0010
0100
2000
0000
3010
0000
1010
0000
,
1010
0000
0110
0000
0100
0010
0100
0010
,
1000
0000
0000
0010
0000
0000
0200
0000
0000
0000
0000
0000
0310
0000
0000
0000
0000
0000
1000
0000
0000
0000
0100
0000
,
0000
0000
0010
0000
0000
0000
0001
0000
0000
0000
0000
0000
0100
0000
0000
0001
0000
0000
0100
0000
0000
0010
0000
0000
,
1000
0000
0002
0000
1003
0100
0010
0001
,
0010
0100
1000
0001
0100
0001
1000
0010
,
1000
0100
0010
0000
0110
0000
1001
0000
,
0110
0000
1001
0000
1000
0100
1000
0100
,
0010
0100
2000
0000
3001
0000
1001
0000
,
0110
0000
1001
0000
1000
0100
1000
0100
,
0010
0000
0000
0100
0000
0000
2000
0000
0000
0000
0000
0000
3001
0000
0000
0000
0000
0000
0100
0000
0000
0000
0001
0000
,
0000
0000
0100
0000
0000
0000
0010
0000
0000
0000
0000
0000
1000
0000
0000
0010
0000
0000
1000
0000
0000
0010
0000
0000
,
0100
0011
0110
0011
,
1100
0000
1001
0000
1000
0001
1000
0010
,
0100
0011
0110
1001
,
1010
0000
1000
0001
1000
0001
0100
0010
,
0100
0010
2000
0000
0000
0000
3002
0000
,
0000
0023
0000
0032
,
0000
0203
0302
0203
,
0320
2030
3200
0320
,
0000
0230
0000
2300
,
0000
3002
0000
0203
,
0000
0320
2030
3020
,
0000
2030
0000
0000
,
3001
1100
1100
0101
,
0101
1010
1010
0011
,
0011
1001
1001
0110
,
0110
1001
1001
0110
,
0110
0000
0000
1001
0000
0000
1001
0000
0000
1000
0000
0100
,
0000
0000
1000
0000
0000
0000
0010
0000
0000
0000
0000
0000
0100
0000
0000
0001
0000
0000
0100
0000
0000
0001
0000
0000
,
0010
0000
0002
0000
0013
0001
1000
0010
,
0100
0001
0010
0001
1000
0001
1000
0010
,
0100
0010
0100
0000
0110
0000
1010
0000
,
1001
0000
0110
0000
1000
0100
1000
0100
,
0010
0100
1000
0000
0001
0000
0101
0000
,
0110
0000
0101
0000
0001
0010
0001
0100
,
0001
0000
0000
0010
0000
0000
0001
0000
0000
0000
0000
0000
1010
0000
0000
0000
0000
0000
0001
0000
0000
0000
1000
0000
,
0000
0000
0001
0000
0000
0000
0100
0000
0000
0000
0000
0000
0100
0000
0000
0010
0000
0000
1000
0000
0000
0010
0000
0000
,
0100
1001
1100
0011
,
1100
0000
1001
0000
1000
0010
1000
0100
,
0010
0101
0110
1001
,
1100
0000
1000
0001
1000
0001
0010
0001
,
0100
0010
1000
0000
1010
0000
1000
0001
,
1000
0001
1000
0001
0200
0000
0301
0100
,
0001
0100
0001
0100
0020
0000
0130
0000
,
1001
0000
0110
0000
0010
1000
0100
1000
,
0010
1000
0100
0000
1001
0000
1000
0100
,
1000
0100
1000
0100
0020
0000
0130
0010
,
0100
0010
0100
0010
0001
0000
0110
0000
,
1001
0000
0110
0000
0001
1000
0001
0100
,
0002
2003
0000
0000
,
0000
0000
0000
0000
,
3000
0000
0000
0000
;

//---------------dance-single - ----------------
#NOTEDATA:;
#CHARTNAME:;
#STEPSTYPE:dance-single;
#DESCRIPTION:;
#CHARTSTYLE:;
#DIFFICULTY:Medium;
#METER:8;
#RADARVALUES:0.452890,0.495440,0.235924,0.390749,0.000000,430.000000,398.000000,32.000000,53.000000,0.000000,0.000000,0.000000,0.000000,0.000000,0.452890,0.495440,0.235924,0.390749,0.000000,430.000000,398.000000,32.000000,53.000000,0.000000,0.000000,0.000000,0.000000,0.000000;
#CREDIT:Musey;
#NOTES:
0000
0000
0000
0000
,
0000
0000
0000
0000
,
0000
0000
0000
0000
,
0000
0000
0000
0000
,
0000
0000
0000
0000
,
0000
0000
0000
0000
,
0000
0000
0000
0000
,
0000
0000
0000
0000
,
0000
0000
0000
0000
,
0000
0000
1000
0000
0001
0000
0100
0001
,
0100
0000
0010
0000
1000
0000
1000
0100
,
1000
0100
0010
0000
0010
0000
0100
0010
,
0100
0000
0010
0001
0010
0000
0001
1000
,
0001
1000
0010
0000
0010
0000
0010
1000
,
0010
0000
0100
0001
0100
0000
0001
1000
,
0001
1000
0010
0000
0010
0000
0100
0010
,
0100
0000
0001
0000
1000
0000
0001
1000
,
0010
2000
3100
0200
,
0310
0000
0001
0010
0001
0000
1000
0000
,
0010
0000
0200
0000
0310
0000
1000
0010
,
1000
0000
0001
0000
0010
0000
0100
0010
,
0001
0000
2000
0000
3010
0000
0100
0001
,
1000
0000
0001
0100
0010
0000
1000
0100
,
1000
0020
0130
2000
,
3001
0000
1000
0001
1000
0001
0100
0001
,
0100
0002
0013
0020
,
0130
0000
1000
0100
1000
0000
0001
0000
,
0100
0000
0020
0000
1030
0000
1000
0100
,
1000
0000
0001
0000
0100
0000
0001
0010
,
0100
0000
2000
0000
3010
0000
0100
0010
,
0100
0000
0001
1000
0100
0000
0010
0001
,
0100
0010
2000
0000
3100
0000
1000
0000
,
0100
0000
0010
0001
0010
0001
1000
0000
,
0010
0100
1001
0010
,
1001
0000
1000
0100
1000
0000
0001
0100
,
0001
0000
0010
0000
0100
0000
1000
0001
,
1000
0010
0100
1000
,
1001
0010
0110
0001
,
1001
0000
0100
0000
0010
0000
0001
0010
,
0100
2000
3010
0200
,
0310
0000
1000
0001
1000
0000
0001
0000
,
0000
0200
0000
0000
,
0000
0310
1000
1001
,
0010
0101
0100
0010
,
0001
2000
3010
0110
,
0001
0011
0100
1000
,
0001
0000
0200
0000
0310
0000
1000
0001
,
1000
0000
0020
0000
0130
0000
0001
0010
,
0001
0000
1000
0000
0100
0000
1000
0001
,
1000
0000
0010
0100
0010
1000
0002
0000
,
0013
0001
0011
0100
,
1100
0000
1000
0000
0001
1000
0010
0000
,
0100
0002
0013
1000
,
1010
0000
0001
0000
0100
0001
0100
0000
,
0010
0000
2000
0000
3100
0000
0010
0100
,
0010
0000
0001
0000
1000
0000
0001
1000
,
0010
0000
0100
0000
0001
0000
1000
0001
,
1000
0000
0100
0000
0010
0000
0001
0010
,
0100
0000
1000
0000
0010
0000
0100
0010
,
1000
0000
0100
1000
0100
1000
0001
0010
,
0001
0200
0000
0302
,
0000
2003
0000
3020
,
0000
0230
0302
0203
,
0320
2030
3200
0320
,
0000
0031
0000
2000
,
0000
3020
0000
0130
,
0000
0000
0001
0100
0001
0000
1000
0000
,
0010
2000
0000
3010
,
0000
0001
0101
0010
,
0110
0100
1100
1000
,
1001
0010
0110
0100
,
0110
0010
1010
1000
,
1001
0000
0001
0000
0011
0000
0001
0010
,
0100
0000
1000
0000
0001
0000
1000
0010
,
1000
0002
0103
0020
,
0130
0000
0010
1000
0010
1000
0100
0000
,
0110
0001
1001
0001
,
0110
0000
0100
0000
0010
0001
0010
0000
,
0001
2000
3010
1000
,
1010
0000
0001
0000
0101
0000
0001
1000
,
0100
0000
0020
0000
0130
0000
1000
0001
,
1000
0000
0010
0000
0100
0000
0001
0010
,
0100
1000
0110
0100
,
1001
0000
1000
0000
0100
1000
0100
0000
,
0010
0001
0110
0010
,
1010
0000
0001
0100
0001
0100
0002
0000
,
0013
0000
0100
0000
0110
0000
1000
0100
,
1000
0020
0000
0230
0000
0300
0001
1000
,
0001
0020
0000
0230
0000
0300
0020
0000
,
0032
0000
2003
0000
3010
1000
0020
0000
,
0130
0000
0001
0000
0011
0000
0001
0010
,
0001
0020
0000
0230
0000
0300
1000
0100
,
1000
0020
0000
0230
0000
0000
0320
0000
,
1030
0000
0001
0100
0001
1000
0100
0010
,
0001
1000
0020
0000
0000
0000
0000
0000
,
0000
0000
0000
0000
,
0030
0000
0000
0000
;

//---------------dance-single - ----------------
#NOTEDATA:;
#CHARTNAME:;
#STEPSTYPE:dance-single;
#DESCRIPTION:;
#CHARTSTYLE:;
#DIFFICULTY:Easy;
#METER:4;
#RADARVALUES:0.328608,0.353886,0.029490,0.250669,0.000000,312.000000,308.000000,4.000000,34.000000,0.000000,0.000000,0.000000,0.000000,0.000000,0.328608,0.353886,0.029490,0.250669,0.000000,312.000000,308.000000,4.000000,34.000000,0.000000,0.000000,0.000000,0.000000,0.000000;
#CREDIT:Musey;
#NOTES:
0000
0000
0000
0000
,
0000
0000
0000
0000
,
0000
0000
0000
0000
,
0000
0000
0000
0000
,
0000
0000
0000
0000
,
0000
0000
0000
0000
,
0000
0000
0000
0000
,
0000
0000
0000
0000
,
0000
0000
0000
0000
,
0000
1000
0001
0100
,
0001
0010
0001
1000
,
1000
0010
0010
0100
,
0100
0001
1000
0100
,
0010
0001
0001
1000
,
1000
0010
0100
0010
,
0100
0001
0001
1000
,
1000
0100
0010
0001
,
0100
0002
0000
2003
,
0000
3001
0100
0010
,
0100
0002
0000
0023
,
0000
0130
0010
0001
,
1000
0020
0000
0130
,
0001
0100
0001
1000
,
0100
0020
0000
0230
,
0000
0310
0001
1000
,
1000
0002
0103
0020
,
0130
0001
1000
1000
,
0001
0020
0130
2000
,
3010
0100
0100
0001
,
1000
0020
1030
0001
,
0100
0001
0001
0010
,
0010
0200
0310
0002
,
1003
0010
0010
0010
,
1001
0001
1000
0001
,
1000
0010
0100
0001
,
0010
0100
0100
0010
,
0001
2000
0000
3010
,
0000
0010
0010
0010
,
0010
0100
0001
1000
,
0100
0020
0000
0031
,
1000
0001
0001
0100
,
0000
0002
0000
0000
,
0000
0013
0100
1000
,
0100
0010
0001
1000
,
1000
0020
0000
0130
,
0001
1000
0100
0010
,
0001
0200
0000
0301
,
1000
0001
0001
0010
,
0100
1000
0010
0100
,
0100
0001
1000
0001
,
1001
0001
0010
0100
,
1000
0010
0100
0001
,
0100
0020
0000
1030
,
0100
1000
0001
0010
,
0100
2000
0000
3001
,
0100
0001
0001
0010
,
0100
1000
1000
0010
,
0010
0100
0001
0010
,
0001
1000
1000
0010
,
0010
0100
0001
1000
,
0010
0200
0000
0302
,
0000
0023
0000
0032
,
0000
0103
0010
0100
,
0010
1000
0100
0020
,
0000
0031
0000
2000
,
0000
3200
0000
2300
,
0000
3010
0100
0002
,
0000
0023
0000
0000
,
0000
0130
0100
0010
,
0010
0100
0100
1000
,
1000
0001
0001
1000
,
1000
0010
0010
0100
,
0100
0001
0001
0010
,
0001
0100
0100
0010
,
0010
1000
0100
0010
,
0001
0010
0100
1000
,
0010
1000
1000
0001
,
0001
0100
0010
1000
,
0001
0020
0000
0031
,
0100
0010
0100
0001
,
1000
0200
0000
1300
,
0001
0100
0100
0010
,
0010
1000
0001
1000
,
0010
0100
0100
0001
,
0001
0010
0100
1000
,
0001
0100
0010
1000
,
0001
0010
0011
0001
,
0010
0100
0100
0010
,
0100
1000
1000
0001
,
0100
0010
0010
1000
,
0001
0010
1001
0010
,
1000
0100
0100
1000
,
0001
0010
0010
0001
,
0100
0010
0100
0001
,
0001
2000
0000
0000
,
0000
0000
0000
0000
,
3000
0000
0000
0000
;

//---------------dance-single - ----------------
#NOTEDATA:;
#CHARTNAME:;
#STEPSTYPE:dance-single;
#DESCRIPTION:;
#CHARTSTYLE:;
#DIFFICULTY:Beginner;
#METER:2;
#RADARVALUES:0.157985,0.176943,0.000000,0.147452,0.000000,150.000000,150.000000,0.000000,20.000000,0.000000,0.000000,0.000000,0.000000,0.000000,0.157985,0.176943,0.000000,0.147452,0.000000,150.000000,150.000000,0.000000,20.000000,0.000000,0.000000,0.000000,0.000000,0.000000;
#CREDIT:Musey;
#NOTES:
0000
0000
0000
0000
,
0000
0000
0000
0000
,
0000
0000
0000
0000
,
0000
0000
0000
0000
,
0000
0000
0000
0000
,
0000
0000
0000
0000
,
0000
0000
0000
0000
,
0000
0000
0000
0000
,
0000
0000
0000
0000
,
0000
1000
0000
1000
,
0000
0001
0000
0000
,
0000
0100
0000
0010
,
0000
0100
0000
0000
,
0000
0001
0000
0010
,
0000
0001
0000
0000
,
0000
1000
0000
0100
,
0000
1000
0000
0000
,
0000
0010
0000
0010
,
0000
0100
0000
0100
,
0000
0001
0000
0001
,
0000
1000
0000
0000
,
0000
0100
0000
1000
,
0000
0010
0000
1000
,
0000
0002
0000
0000
,
0000
0103
0000
0100
,
0000
0010
0000
0010
,
0000
1000
0000
1000
,
0000
0100
0000
1000
,
0000
0100
0000
0100
,
0000
0010
0000
0010
,
0000
0001
0000
0001
,
0000
2000
0000
0000
,
0000
3010
0000
0010
,
0000
0100
0000
0100
,
0000
0100
0000
0001
,
0000
0010
0000
0010
,
0000
0002
0000
0000
,
0000
1003
0000
1000
,
0000
0010
0000
0100
,
0000
0020
0000
0000
,
0000
1030
0000
0000
,
0000
0002
0000
0000
,
0000
0023
0000
0031
,
0000
0002
0000
0103
,
0000
0100
0000
0010
,
0000
1000
0000
0100
,
0000
1000
0000
1000
,
0000
0001
0000
0001
,
0000
1000
0000
0010
,
0000
0200
0000
0000
,
0000
0320
0000
1030
,
0000
2000
0000
3001
,
0000
0001
0000
0100
,
0000
0010
0000
1000
,
0000
0100
0000
0100
,
0000
0010
0000
0010
,
0000
0001
0000
1000
,
0000
0010
0000
0010
,
0000
1000
0000
0100
,
0000
0010
0000
0001
,
0000
0200
0000
0000
,
0000
0320
0000
0000
,
0000
2030
0000
0000
,
0000
3002
0000
0000
,
0000
0203
0000
0000
,
0000
0320
0000
0000
,
0000
2030
0000
0000
,
0000
3200
0000
0000
,
0000
1300
0000
1000
,
0000
0010
0000
0010
,
0000
0100
0000
0100
,
0000
0010
0000
0010
,
0000
1000
0000
0001
,
0000
0100
0000
0001
,
0000
0020
0000
0000
,
0000
0031
0000
0001
,
0000
1000
0000
0100
,
0000
1000
0000
0010
,
0000
0100
0000
0100
,
0000
0001
0000
0001
,
0000
1000
0000
1000
,
0000
0010
0000
1000
,
0000
0100
0000
0010
,
0000
0001
0000
0001
,
0000
0100
0000
0100
,
0000
0010
0000
1000
,
0000
0001
0000
0001
,
0000
0100
0000
0100
,
0000
0010
0000
0010
,
0000
0010
0000
1000
,
0000
0001
0000
0001
,
0000
1000
0000
1000
,
0000
0010
0000
0010
,
0000
0100
0000
0001
,
0000
0200
0000
0000
,
0000
0000
0000
0000
,
0300
0000
0000
0000
;
