#TITLE:-Thunderstrike 1988;
#SUBTITLE:;
#ARTIST:Sephid;
#TITLETRANSLIT:;
#SUBTITLETRANSLIT:;
#ARTISTTRANSLIT:;
#GENRE:;
#CREDIT:;
#BANNER:BN.png;
#BACKGROUND:BG.png;
#LYRICSPATH:;
#CDTITLE:;
#MUSIC:thunderstrike 1988.ogg;
#OFFSET:-0.021000;
#SAMPLESTART:102.639664;
#SAMPLELENGTH:15.000009;
#SELECTABLE:YES;
#DISPLAYBPM:*;
#BPMS:0.000000=190.000000
;
#STOPS:
;
#BGCHANGES:;
#KEYSOUNDS:;
#ATTACKS:;

//---------------dance-single - ----------------
#NOTES:
     dance-single:
     :
     Challenge:
     18:
     0.922977,1.195068,0.401675,0.251898,0.622936,949.000000,890.000000,59.000000,37.000000,0.000000,0.000000,0.922977,1.195068,0.401675,0.251898,0.622936,949.000000,890.000000,59.000000,37.000000,0.000000,0.000000:
0000
0000
0000
0000
,
0000
0000
0000
0000
,
0000
0000
0000
0000
,
0000
0000
0000
0000
,
0000
0000
0000
0000
,
0000
0000
1000
0100
1000
0001
0100
0010
,
0100
1000
0100
0001
1000
0010
0100
0001
,
0010
0000
0001
0000
1000
0001
1000
0001
0100
0010
0100
0010
0100
0001
0100
0001
,
1000
0100
1000
0100
1000
0000
0001
0100
0001
0000
1000
0010
1000
0000
0001
0000
,
1001
0000
1010
0000
0020
0000
2030
3000
,
0100
0000
0100
0000
1000
0000
0100
0000
0020
0000
0030
0000
0001
2000
0000
0000
,
3001
0000
0001
0000
0100
0000
0010
0000
0200
0000
0300
0000
0100
0002
0000
0000
,
0013
0010
0200
0300
0100
1000
0001
0100
,
0020
0000
1030
0000
0002
0000
0023
0030
,
0100
0000
1000
0000
0001
0000
0100
0000
0020
0000
0030
0000
0010
0200
0000
0000
,
0301
0000
0001
0000
1000
0000
0100
0000
2000
0000
3000
0000
0001
2000
0000
0000
,
3100
0010
0002
0003
0001
0010
0001
1000
,
0020
0130
1001
1010
,
0010
0100
1000
0100
0010
0000
0110
0000
,
1000
0001
0010
0100
0001
0000
0110
0000
,
0010
0001
0100
0000
0100
0010
1000
0100
,
0010
0000
0010
0001
0010
0001
0010
0100
,
0010
0100
1000
0100
1000
0100
1000
0001
,
0010
0000
0100
0000
1000
0001
1000
0001
0100
0010
0100
0010
1000
0100
1000
0100
,
0010
0001
0010
0001
1000
0000
1000
0000
0001
0000
0100
0000
1000
0000
0100
0010
,
0100
0000
0000
0000
0001
0000
0100
0000
0010
0000
0100
0000
0001
0000
1000
0100
,
1000
0000
0001
0010
0001
0000
1000
0000
0010
0100
1000
0100
0010
1000
0001
0010
,
0100
0010
0001
1000
0010
0000
0010
0000
2000
0000
0001
0000
3001
0010
0100
0000
,
0020
0000
0001
0000
0031
1000
0001
1000
0001
0000
1000
0000
0010
0000
0100
0000
,
0001
0000
0010
0000
0001
0000
1000
0000
0100
0000
0010
0000
0001
0000
1000
0001
,
1000
0000
0010
0100
0010
0000
1000
0000
0001
0000
0100
0000
0001
1000
0010
0100
,
0010
1000
0001
1000
0001
0010
0001
0010
0100
1000
0100
1000
0001
1000
0001
1000
,
0100
0010
0100
1000
0001
0000
0010
0000
0001
0000
0010
0000
0001
0000
1000
0000
,
0010
0000
0000
0000
1000
0000
0000
0000
0110
0000
0000
0000
0001
0000
0000
1000
,
0000
0000
0001
0000
0100
0000
0000
0000
0110
0000
0000
0000
0010
0000
0000
0100
,
0000
0000
0001
0000
0000
0000
1000
0000
1001
0000
0000
0000
0001
0000
0000
0010
,
0000
0000
0001
0000
1000
0000
1000
0000
1000
0000
0010
0100
0010
0000
0000
1000
,
0001
0000
0001
0000
0101
0000
0000
0000
1010
0000
0000
0000
0110
0000
0000
1001
,
0000
0000
1000
0000
1010
0000
0000
0000
1100
0000
0000
0000
0011
0000
0000
0110
,
0000
0000
1100
0000
0000
0000
0001
0000
0101
0000
0000
0000
1001
0000
0000
0110
,
0000
0000
1001
0000
0010
0000
0010
0000
0010
0000
1000
0001
1000
0100
0010
0001
,
1000
0000
1000
0000
0010
0000
0001
0000
0010
0000
0000
0000
1000
0000
1000
0001
,
0000
0000
1000
0000
0010
0000
0100
0000
0010
0000
0000
0000
1000
0000
1000
0001
,
0000
0000
1000
0000
0000
0000
0001
0000
0001
0000
0010
0000
0100
0000
0100
1000
,
0000
0000
0100
0000
1000
0000
0100
0000
0010
0000
0001
1000
0010
0000
1000
0001
,
0000
0001
1000
0000
1010
0000
0000
0000
0100
0000
0001
1000
0001
0000
1000
0100
,
0000
0100
0010
0000
0110
0000
0000
0000
1000
0000
0010
1000
0001
0000
0001
1000
,
0000
0010
1000
0000
1010
0000
0010
0000
0100
0000
0001
0100
0001
0000
0001
1000
,
0000
1000
0010
0000
1010
0000
0100
0000
0100
0000
0010
0100
0001
0000
0000
1001
,
0000
0110
0100
0001
1000
0000
0001
0000
,
0010
0100
0000
1000
0001
1000
0001
1000
,
0010
0000
0000
0100
0001
0000
0010
0000
,
0100
1000
0000
0001
0000
0001
0100
0000
,
0010
1000
0001
0010
,
0100
1000
0000
0001
1000
0001
1000
0001
,
1000
0000
0000
0010
0100
0000
0001
0000
,
0010
0100
0000
1000
0100
1000
0100
0000
,
0000
0000
1001
0000
0100
0010
1000
0000
,
0001
0010
0001
1000
0010
0000
0101
0000
,
0001
0100
0010
0000
1000
0001
1000
0100
,
0010
0001
0100
0000
0110
0000
0001
0100
,
0001
0100
0010
0000
0101
0000
0010
1000
,
0001
1000
0010
0100
1000
0100
0010
1000
,
0001
0000
0000
0000
0000
0000
0100
0000
0000
0000
0000
0000
0100
0000
0000
0000
0001
0000
0000
0000
1000
0000
0000
0000
0001
0000
0000
0000
0010
0000
0000
0000
0100
0000
0000
0000
1000
0000
0000
0100
0000
0000
0010
0000
0000
0001
0000
0000
,
1000
0100
1000
0001
1000
0000
0000
0000
1000
0000
0000
0000
0010
0000
0100
0000
,
0010
0000
0000
0000
1000
0000
0001
0000
1000
0001
0010
0000
0001
1000
0010
0000
,
0100
0000
0001
0000
0100
0010
1000
0000
0010
0100
0001
0000
1000
0000
0001
1000
,
0001
1000
0010
0000
0100
0000
0001
0000
1000
0010
1000
0010
0100
0000
0001
0010
,
0001
0000
0001
0000
1000
0010
0100
0010
1000
0000
0001
0000
1000
0010
1000
0001
,
0100
0000
0010
0000
0100
0000
0001
0000
1000
0100
0010
0000
0001
0010
0100
0000
,
1000
0000
0010
0000
1000
0001
0010
0000
0001
1000
0100
0000
1000
0000
0010
0000
,
1000
0001
1000
0010
0100
0000
0001
0000
1000
0010
0100
0010
1000
0001
1000
0001
,
1000
0010
0100
0000
0001
0000
0010
0000
0001
0010
0100
1000
0001
1000
0100
0010
,
0001
0010
0100
0010
0001
1000
0001
1000
0001
0100
0010
0000
1000
0010
0100
0000
,
0001
0000
1000
0000
0001
0010
0100
0000
1000
0100
0010
0000
0001
0000
1000
0100
,
0001
0100
1000
0000
0001
0000
1000
0000
0010
0100
1000
0100
0010
0000
1000
0001
,
1000
0000
1000
0000
0010
1000
0001
0010
0001
0000
1000
0000
0010
0100
1000
0100
,
0010
0000
0100
0000
0101
0000
0001
0000
1000
0010
1000
0000
0001
0100
0001
0000
,
1000
0000
0100
0000
0010
0001
0010
0000
0100
1000
0100
0000
1000
0001
1000
0010
,
0100
0000
0001
0000
0010
0000
0100
0000
1000
0001
1000
0010
0100
0001
0100
0001
,
1000
0100
0010
0100
1000
0001
1000
0000
0001
1000
0001
0000
1000
0000
0001
0000
,
2000
0000
3001
0010
0011
0000
1001
0000
,
0001
1000
0100
0010
1001
0000
0101
0000
,
1000
0001
1000
0010
0101
0000
1001
0000
,
0010
0100
0001
0000
1000
0010
1000
0010
,
0100
1001
1010
1001
,
0010
0100
0001
0010
1001
0000
1100
0000
,
0001
0010
0100
1000
0011
0000
1001
0000
,
1000
0010
0100
0000
0001
1000
0100
1000
,
0001
0000
0100
0000
0010
1000
0010
1000
0001
0000
0000
0000
0011
0000
0000
0000
,
1000
0001
1000
0100
0011
0000
1001
0000
,
0100
0010
0100
0001
1001
0000
0110
0000
,
0001
1000
0010
0000
0100
0001
1000
0010
,
1000
0001
1001
0000
0101
0000
1001
0000
,
1010
1000
0001
1000
1010
0000
0011
0000
,
1001
0000
0001
0000
1000
0000
0100
0000
1000
0000
0001
0000
0010
0001
1000
0010
,
1000
0001
0100
0010
1000
0000
0000
0000
0001
0000
0100
0000
0010
0000
0100
0001
,
1000
0000
0000
0000
0001
0000
0100
0000
0010
0000
0100
0000
0001
0000
1000
0100
,
1000
0000
0001
0010
0001
0000
1000
0000
0010
1000
0010
1000
0001
0010
0100
1000
,
0100
0010
0001
1000
0010
0000
0100
0000
0002
0000
1000
0000
1003
0100
0010
0000
,
0200
0000
1000
0000
1300
0001
1000
0001
1000
0000
0001
0000
0100
0000
0010
0000
,
1000
0001
0100
0001
1000
0000
0001
0000
0010
0000
0100
0000
1000
0000
0001
1000
,
0001
0000
0100
0010
0100
0000
0001
0000
1000
0010
1000
0010
1000
0001
0100
0010
,
0100
0001
1000
0001
1000
0100
1000
0100
0010
0001
0010
0001
1000
0001
1000
0001
,
0010
0100
0010
0001
1000
0000
0100
0000
1000
0000
0100
0000
1000
0000
0001
0000
,
0100
0000
1001
0000
0020
0000
2030
3000
,
0100
0000
0010
0000
0001
0000
1000
0000
0020
0000
0030
0000
0100
0020
0000
0000
,
1030
0000
0001
0000
0010
0000
0100
0000
2000
0000
3000
0000
0001
0200
0000
0000
,
0310
1000
0200
0300
1000
0001
0010
0100
,
2000
0000
3000
0000
0002
0000
0203
0300
,
0010
0000
1000
0000
0100
0000
0010
0000
0002
0000
0003
0000
0100
0002
0000
0000
,
0103
0000
0001
0000
0010
0000
0001
0000
2000
0000
3000
0000
1000
0002
0000
0000
,
1003
0100
0020
0030
0010
0001
1000
0100
,
0020
0030
0000
0000
;

//---------------dance-single - ----------------
#NOTES:
     dance-single:
     :
     Hard:
     16:
     0.756666,0.923171,0.190625,0.231474,0.330190,778.000000,750.000000,28.000000,34.000000,0.000000,0.000000,0.756666,0.923171,0.190625,0.231474,0.330190,778.000000,750.000000,28.000000,34.000000,0.000000,0.000000:
0000
0000
0000
0000
,
0000
0000
0000
0000
,
0000
0000
0000
0000
,
0000
0000
0000
0000
,
0000
0000
0000
0000
,
0000
0000
0001
1000
0001
0000
0100
0010
,
0100
0000
0001
0010
0100
0000
1000
0010
,
0100
0000
0001
1000
0100
0010
0001
0010
,
0100
0000
1000
0000
0010
0000
0100
0010
1000
0000
0001
0010
0100
0000
1000
0000
,
0001
0110
0200
0302
,
1003
0100
0010
0001
2000
0000
3020
0000
,
0130
0001
1000
0100
0020
0000
0032
0000
,
1003
0100
0010
0000
0001
1000
0010
0100
,
0020
1030
2000
3002
,
0103
0010
0001
1000
0200
0000
0320
0000
,
0130
0001
0010
0100
0020
0000
0230
0000
,
0310
0100
1000
0000
0001
0010
1000
0010
,
0002
1003
1000
0100
,
0100
0010
0001
1000
0010
0000
0100
0000
,
0001
1000
0100
0010
0001
0000
1000
0000
,
0100
0010
0001
0000
1000
0010
1000
0100
,
1000
0010
0100
0001
,
0010
0100
1000
0010
0100
0000
0001
0000
,
1000
0010
1000
0010
0100
0000
0001
0000
,
0010
0000
0000
0000
0001
0000
0010
0000
0001
0000
1000
0000
0010
0000
0100
0001
,
0100
0000
0000
0000
1000
0000
0001
0000
1000
0000
0010
0000
0100
0000
0001
1000
,
0010
0000
1000
0001
0010
0001
1000
0000
0200
0000
0000
0000
1300
0100
0010
0000
,
0010
0100
1000
0001
1000
0000
0010
0000
0100
0000
0001
0000
0010
0000
0100
0000
,
2000
0000
0000
0000
3001
0100
0001
0100
0020
0000
0000
0000
1030
0000
0001
0000
,
1000
0100
0010
0000
0001
0000
0100
0000
1000
0000
0100
0000
0001
0000
0100
0001
,
0100
0000
0001
1000
0001
0100
0010
0000
1000
0000
0010
0000
1000
0100
1000
0000
,
0010
0100
0001
0100
0010
0000
1000
0000
0100
0000
1000
0000
0010
1000
0001
1000
,
0010
1000
0001
1000
0001
1000
0001
1000
,
0001
0000
0000
0000
1000
0000
0000
0000
0001
0000
0000
0000
0010
0000
0000
0100
,
0000
0000
1000
0000
0001
0000
0000
0000
0100
0000
0000
0000
0010
0000
0000
1000
,
0000
0000
0001
0000
0000
0000
0001
0000
0001
0000
0000
0000
0100
0000
0000
0010
,
0000
0000
1000
0000
0100
0000
0010
0000
0001
0000
0000
0000
0001
0000
0000
1000
,
0000
0000
0010
0000
0100
0000
0000
0000
0100
0000
0000
0000
0001
0000
0000
1000
,
0000
0000
0100
0000
0010
0000
0000
0000
0001
0000
0000
0000
1000
0000
0000
1000
,
0000
0000
0010
0000
0000
0000
0100
0000
0100
0000
0000
0000
0001
0000
0000
1000
,
0000
0000
0100
0000
0010
0000
0001
0000
1000
0000
0010
1000
0010
0000
0000
0100
,
0000
0000
0001
0000
0010
0000
0100
0000
1000
0000
0000
0000
0010
0000
0000
0100
,
0000
0000
0001
0000
1000
0000
0000
0000
0010
0000
0000
0000
0100
0000
0000
0001
,
0000
0000
0001
0000
0000
0000
1000
0000
0100
0000
0000
0000
0010
0000
0000
0010
,
0000
0000
0001
0000
1000
0000
0010
0000
0100
0000
0000
0000
0001
0000
0000
0001
,
0000
0000
1000
0000
0100
0000
0000
0000
0010
0000
0000
0000
0001
0000
0000
1000
,
0000
0000
0010
0000
0100
0000
0000
0000
0001
0000
0000
0000
0010
0000
0000
0100
,
0000
1000
0010
0100
0001
0000
0001
1000
,
0100
0000
1000
0000
0010
0000
0100
0000
0001
0000
0010
0000
0100
0000
0000
0100
,
0000
1000
0010
0000
1000
0000
0100
0000
,
0010
0001
0000
1000
0001
1000
0001
1000
,
0001
0000
0000
0100
0010
0000
1000
0000
,
0100
0010
0000
0001
0000
0001
1000
0000
,
0010
0100
0001
1000
,
0100
1000
0000
1000
0010
1000
0010
1000
,
0010
0000
0000
0100
0001
0000
0010
0000
,
0100
1000
0000
0010
0000
0100
0001
0000
,
0000
1001
0010
0100
,
1000
0001
0100
0001
0010
0000
0010
0100
,
1000
0000
0001
0000
0100
0000
0001
0010
,
1000
0010
0001
1000
0100
0000
0100
0010
,
0001
0000
0001
1000
0001
0100
0010
1000
,
0010
0000
1000
0100
0010
0100
0010
0001
,
1000
0000
0001
1000
0100
0010
0001
0100
,
0010
0001
0010
0000
1000
0000
0010
0100
,
0010
0000
0000
0000
1000
0000
0001
0000
1000
0000
0001
0000
0100
0010
0000
0010
,
1000
0000
0001
0000
0100
0001
0100
0000
0001
0000
1000
0000
0100
1000
0000
1000
,
0100
0000
0100
0010
0001
0000
1000
0000
0001
0000
1000
0000
0010
0100
0000
0100
,
0001
0000
0001
0000
0010
0001
0010
0000
0001
0000
1000
0000
0010
0000
0100
0010
,
0100
0000
0001
0000
1000
0000
0100
0000
0010
0000
0100
0000
1000
0001
0000
0001
,
1000
0000
0001
0010
0001
0000
1000
0000
0010
0000
1000
0000
0010
0100
0000
0100
,
0010
0000
1000
0001
0100
0000
0010
0000
1000
0000
0010
0100
0010
0000
1000
0001
,
1000
0001
0100
0000
0010
0000
1000
0000
0001
0010
0100
0000
1000
0000
0010
0000
,
0100
0001
0100
0001
0200
0000
0000
0000
0301
0000
1000
0000
0001
1000
0000
1000
,
0001
0000
0001
0010
0100
0000
1000
0000
0100
0000
0010
0000
0100
1000
0000
1000
,
0001
0000
0100
0010
0100
0000
0001
0000
0100
0000
0001
0000
0100
0010
0000
0010
,
1000
0000
0010
0100
0001
0000
1000
0000
0100
0000
0001
0000
0100
1000
0000
1000
,
0010
1000
1001
0000
0110
0000
1010
0000
,
0101
0001
1001
0000
0101
0000
1001
0000
,
1000
0000
0100
0000
0010
0000
0100
0000
1000
0000
0001
0000
0100
0001
1000
0001
,
1000
0100
0010
0100
1000
0000
0001
0000
1000
0001
0100
0000
0100
0000
0010
0000
,
0010
1001
0100
0010
,
1000
0001
0010
0100
1000
0000
0110
0000
,
0001
1000
0100
0010
0001
0000
1010
0000
,
0001
1000
0100
0000
0100
1000
0010
0100
,
0001
0011
0100
1001
,
0001
0010
0001
1000
0010
0000
0110
0000
,
0001
1000
0100
0010
0001
0000
1100
0000
,
0010
0100
0001
0000
0001
1000
0100
0010
,
0001
0000
1000
0000
0001
1000
0001
1000
0001
0000
0000
0000
0110
0000
0000
0000
,
0001
1000
0010
0100
0001
0000
1100
0000
,
0001
0010
0100
1000
0010
0000
0101
0000
,
0010
1000
0100
0000
1000
0100
0010
0001
,
1000
1010
1010
0101
,
1001
1000
1010
0000
1001
0000
0110
0000
,
1001
0000
1000
0000
0010
0000
1000
0000
0010
0000
0100
0000
0001
0010
0100
0010
,
0001
1000
0001
1000
0001
0000
0000
0000
1000
0000
0100
0000
0010
0000
0100
0000
,
1000
0000
0000
0000
0001
0000
1000
0000
0001
0000
0100
0000
0010
0000
1000
0010
,
1000
0000
0001
0010
0100
0010
0001
0000
0200
0000
0000
0000
0301
0010
0100
0000
,
1000
0100
0010
0100
1000
0000
0001
0000
0010
0000
1000
0000
0010
0000
0001
0000
,
0002
0000
0000
0000
1003
0010
1000
0010
0200
0000
0000
0000
0301
0000
1000
0000
,
0001
0100
0010
0000
0010
0000
0100
0000
0001
0000
0100
0000
0010
0000
1000
0001
,
0100
0000
0001
1000
0100
1000
0001
0000
0010
0000
0100
0000
0100
0010
0001
0000
,
1000
0100
1000
0100
0010
0000
0100
0000
1000
0000
0010
0000
0100
0010
0001
0010
,
0100
0001
0100
0010
0100
0010
0100
0010
,
0100
1001
0002
0203
,
0310
1000
0010
0100
0002
0000
0023
0000
,
0130
1000
0100
0010
0002
0000
2003
0000
,
3010
0100
0010
0000
1000
0010
0100
0010
,
2000
3000
2000
3002
,
0103
0010
0001
1000
0200
0000
0320
0000
,
1030
0100
0010
0001
0200
0000
0320
0000
,
1030
0001
1000
0000
0010
0001
0010
0100
,
0001
0000
0000
0000
;

//---------------dance-single - ----------------
#NOTES:
     dance-single:
     :
     Medium:
     12:
     0.610779,0.653913,0.122545,0.000000,0.010212,628.000000,610.000000,18.000000,0.000000,0.000000,0.000000,0.610779,0.653913,0.122545,0.000000,0.010212,628.000000,610.000000,18.000000,0.000000,0.000000,0.000000:
0000
0000
0000
0000
,
0000
0000
0000
0000
,
0000
0000
0000
0000
,
0000
0000
0000
0000
,
0000
0000
0000
0000
,
0000
0000
1000
0001
1000
0000
0001
1000
,
0001
0000
0100
0010
0100
0000
0010
0100
,
0010
0000
1000
0100
0001
0100
1000
0010
,
0001
0010
1000
0001
1000
0001
0010
0100
,
1000
1001
0100
0010
,
1000
0100
0010
0000
0001
0000
0100
0000
,
0010
0100
0010
0000
0100
0000
0001
0000
,
1000
0001
1000
0000
0010
0100
0001
0100
,
0001
0000
1000
0100
,
0010
0001
1000
0000
1000
0000
0010
0000
,
0010
0100
0010
0000
0100
0000
0001
0000
,
0001
0010
0001
0000
1000
0010
0100
0010
,
1000
0010
1000
0100
,
0010
0001
0010
0000
0001
0000
0100
0000
,
0010
1000
0010
0000
0100
0000
0001
0000
,
1000
0001
1000
0000
0010
0100
0010
0100
,
0001
0010
0001
1000
,
0100
1000
0100
0000
1000
0000
1000
0000
,
0001
1000
0001
0000
0010
0000
0100
0000
,
1000
0000
0001
1000
0001
1000
0010
0100
,
0010
0000
1001
0000
0010
0000
0001
0100
,
0010
0100
0001
0000
1001
0000
0100
0010
,
0001
0010
0100
0001
1000
0000
1000
0010
,
1000
0010
0100
0000
1001
0000
0010
0100
,
0010
0100
0001
0000
1001
0000
0100
0010
,
0100
0010
1000
0000
1001
0000
0010
0001
,
0010
0001
0100
0010
1000
0000
0001
0100
,
0010
0100
0001
0000
1000
0000
0100
0010
,
0001
0000
0000
0000
0100
0000
0000
0000
0010
0000
0000
0000
1000
0000
0000
1000
,
0000
0000
1000
0000
0010
0000
0000
0000
1000
0000
0000
0000
0001
0000
0000
0001
,
0000
0000
0100
0000
0000
0000
0010
0000
0010
0000
0000
0000
0100
0000
0000
0001
,
0000
0001
0100
0001
0100
0000
0010
0000
,
1000
0010
0100
0000
0001
0000
1000
0000
,
0010
1000
0010
0000
1000
0000
0001
0000
,
0010
0100
0010
0000
0001
0000
1000
0000
,
0010
0100
0010
0000
1000
0000
0001
1000
,
0010
1000
0001
0000
1000
0000
0010
0000
,
0100
0001
1000
0000
0010
0000
0100
0000
,
0010
1000
0001
0000
0010
0000
0100
0000
,
1000
0100
0010
0000
0001
0000
1000
0100
,
0010
0100
1000
0000
1000
0000
0100
0000
,
0010
0001
1000
0000
0010
0000
0100
0000
,
0010
1000
0100
0000
0010
0001
1000
0000
,
0010
0100
0001
0000
1000
0000
0100
0010
,
0100
0010
0001
0000
0000
1000
0100
0000
,
0100
0000
0000
0001
0000
0000
1000
0001
,
0100
0000
0001
0000
0000
1000
0010
0000
,
1000
0000
0000
0001
0100
0000
0001
0000
,
0010
0000
0001
0000
0000
1000
0100
0000
,
1000
0000
0000
1000
0010
0000
0100
0001
,
0100
0000
0100
0000
0000
0001
0100
0000
,
0010
1000
0100
0010
,
0001
0000
1001
0000
1000
0001
1000
0000
,
0001
1000
0001
0000
0001
0000
0100
0000
,
0010
0100
0001
0000
1000
0001
0100
0000
,
0010
0100
0010
1000
,
0001
0000
1000
0001
0100
0000
0100
0000
,
0001
1000
0010
0000
1000
0001
1000
0001
,
0100
0000
0010
0100
0010
0100
0001
1000
,
0001
1000
0001
0000
0010
0000
0001
1000
,
0100
0000
1000
0001
1000
0000
0010
0000
,
1000
0100
0001
0100
1000
0000
0001
0000
,
0100
0001
0010
0000
1000
0100
0010
0100
,
1000
0000
0001
1000
0001
0100
0010
1000
,
0010
0100
0001
0010
0001
0000
1000
0100
,
1000
0001
0010
0000
0100
0000
1000
0100
,
1000
0001
1000
0000
0010
1000
0010
1000
,
0100
0010
0001
0010
0100
1000
0001
1000
,
0010
1000
0010
1000
0100
0000
1000
0001
,
0010
0001
0100
0000
0001
0000
1000
0010
,
0100
0001
1000
0000
1000
0000
0001
0010
,
0001
0010
0100
0000
1000
0010
0100
0001
,
0100
0010
1000
0000
0001
0000
0100
0010
,
1000
0010
0100
0000
0010
0000
1000
0010
,
0100
0010
1000
0000
0010
0000
1000
1000
,
0100
0010
0001
1000
0010
0100
0010
1000
,
0001
1010
1000
0100
,
0100
0010
0001
0010
0100
0000
0010
0000
,
0100
0010
1000
0010
0100
0000
0010
0000
,
1000
0010
1000
0000
0001
1000
0001
1000
,
0100
0010
0001
1000
,
0010
0100
0010
1000
0010
0000
0100
0000
,
0001
0010
0100
0010
0001
0000
0100
0000
,
0010
0100
0010
0000
1000
0100
0010
0100
,
1000
1000
0100
0010
,
0001
1000
0010
1000
0001
0000
0001
0000
,
0001
0010
0001
1000
0100
0000
0100
0000
,
0010
0001
1000
0000
0010
0100
0010
1000
,
0001
1100
0110
0011
,
1000
0010
1000
0001
0100
0000
1010
0000
,
0001
1000
0010
1000
0100
0000
1001
0000
,
1000
0001
0100
0000
0001
1000
0010
1000
,
0001
0000
1000
0000
0100
0000
1000
0010
,
0100
0010
1000
0000
1001
0000
0010
0100
,
1000
0100
0010
1000
0001
0000
0001
0100
,
0001
0100
0010
0000
1001
0000
0100
0010
,
0100
0010
1000
0000
1001
0000
0010
0100
,
0010
0100
0001
0000
1001
0000
0100
1000
,
0100
1000
0010
0100
1000
0100
0010
1000
,
0001
0100
0001
0000
0001
0000
0010
0100
,
1000
1001
0001
0010
,
0100
1000
0100
0000
0010
0000
0010
0000
,
0001
0010
0100
0000
1000
0000
0001
0000
,
0100
0010
1000
0000
0001
0010
0100
0000
,
1000
0001
0100
0010
,
1000
0001
1000
0000
0100
0000
0010
0000
,
0010
0001
0010
0000
0100
0000
1000
0000
,
0001
0100
0010
0000
1000
0001
0100
0010
,
0001
0000
0000
0000
;

//---------------dance-single - ----------------
#NOTES:
     dance-single:
     :
     Easy:
     7:
     0.392922,0.537325,0.088505,0.006808,0.000000,404.000000,391.000000,13.000000,1.000000,0.000000,0.000000,0.392922,0.537325,0.088505,0.006808,0.000000,404.000000,391.000000,13.000000,1.000000,0.000000,0.000000:
0000
0000
0000
0000
,
0000
0000
0000
0000
,
0000
0000
0000
0000
,
0000
0000
0000
0000
,
0000
0000
0000
0000
,
0000
0001
1000
0001
,
1000
0010
0100
0010
,
0100
0001
0001
0010
,
0010
0000
0001
1000
0001
0000
1000
0001
,
0100
1001
0000
0000
,
0000
0001
0000
0100
,
0000
1001
0000
0000
,
0000
0010
0000
0100
,
0000
1001
0000
0000
,
0000
0100
0000
0001
,
0000
1001
0000
0000
,
0000
0010
0000
0001
,
0000
0101
0001
1000
,
1000
0001
0001
0010
,
0010
0100
0100
1000
,
1000
0001
0001
0100
,
0010
0000
1000
0001
1000
0000
0001
1000
,
0010
0000
1000
0001
1000
0000
0010
0100
,
0010
0000
1000
0001
1000
0000
0010
0000
,
1000
0000
0001
0000
0001
0000
0100
0001
,
0010
1001
0001
1000
,
1000
0010
0100
0001
,
0001
0000
0010
0000
0010
0000
0001
1000
,
0001
0000
0010
0000
0100
0000
1000
0001
,
1000
0000
0010
0000
0100
0000
0001
1000
,
0001
0000
0100
0000
0010
0000
0010
1000
,
0001
0000
0001
0000
1000
0000
0100
0010
,
0001
0010
0001
0000
0000
0000
0010
0000
,
0100
1001
0000
1000
,
0010
1000
0000
0001
,
0100
0001
0000
1000
,
0000
0010
0100
0001
,
0010
0001
0001
1000
,
0000
0001
0010
0001
,
0000
0010
0100
0001
,
0001
1000
0100
0010
,
0001
1000
1000
0010
,
0100
0001
0010
0100
,
1000
0100
0010
0001
,
1000
0010
0100
0001
,
0010
0000
0001
1000
0001
0000
1000
0000
,
0100
0000
1000
0001
1000
0000
0100
0000
,
0010
0000
0001
1000
0001
0000
1000
0010
,
1000
0000
0010
0000
0010
0000
1000
0001
,
1000
0001
0000
0000
,
0000
1000
0000
0000
,
0000
0010
0000
0000
,
0000
0010
0000
0000
,
0000
1000
0000
0000
,
0000
1000
0000
0000
,
0000
0001
0000
0000
,
0000
0001
0000
0000
,
0000
1000
0000
1000
,
0000
0100
0000
0100
,
0000
0010
0000
0010
,
0000
0001
0000
0001
,
0000
1000
0001
1000
,
0010
0010
0100
0010
,
1000
1000
0100
0010
,
0001
0000
0010
0000
0100
0000
1000
0001
,
2000
3100
0100
0010
,
0001
1000
0010
0000
0010
0000
1000
0000
,
1000
0001
0100
0000
0100
0000
0010
0000
,
1000
0001
0100
0000
0100
0000
0010
0000
,
1000
0001
1000
0000
1000
0000
0100
0000
,
0010
0001
0010
0000
0001
0000
0001
0000
,
0100
0010
1000
0000
1000
0000
0001
0000
,
0100
0000
0010
1000
0010
0000
0100
0000
,
0010
1000
0001
0000
1001
0000
0001
0000
,
1000
0010
0100
0000
0100
0000
0001
0000
,
0001
1000
0010
0000
0010
0000
1000
0000
,
1000
0100
0010
0000
0001
0000
0100
0000
,
0001
1000
0010
0000
0010
0000
1000
0000
,
1000
0010
1000
0000
0001
0000
0010
0000
,
0001
1000
0001
0000
0010
0000
0100
0000
,
1000
0001
1000
0000
0001
1000
0001
0000
,
0001
1000
0010
0100
,
0000
0100
0001
1000
,
0000
1000
0100
0010
,
0000
0001
0100
0010
,
1000
0001
0100
0001
,
0000
1000
0010
1000
,
0000
0001
0010
0100
,
0000
1000
0100
0010
,
0001
0000
1000
0001
1000
0000
1000
0000
,
0000
0001
0010
0001
,
0000
0100
0010
0100
,
0000
0001
0001
1000
,
0100
0010
0001
0010
,
0100
1000
0001
1000
,
0010
0000
0100
0001
0100
0000
0001
1000
,
0001
0000
1000
0000
0001
1000
0001
1000
,
0010
1001
0001
1000
,
1000
0010
0100
0001
,
0001
0000
0010
0000
0010
0000
0001
1000
,
0001
0000
0010
0000
0100
0000
1000
0001
,
1000
0000
0010
0000
0100
0000
0001
1000
,
0001
0000
0100
0000
0010
0000
0010
1000
,
0001
0000
0001
0000
1000
0000
0100
0010
,
0001
0010
0001
0000
1000
0000
0001
0000
,
1000
1001
0000
0000
,
0000
0001
0000
0100
,
0000
1001
0000
0000
,
0000
0010
0000
0100
,
0000
1001
0000
0000
,
0000
0100
0000
0001
,
0000
1001
0000
0000
,
0000
0010
0000
0001
;

//---------------dance-single - ----------------
#NOTES:
     dance-single:
     :
     Beginner:
     4:
     0.224666,0.322446,0.122545,0.000000,0.000000,231.000000,213.000000,18.000000,0.000000,0.000000,0.000000,0.224666,0.322446,0.122545,0.000000,0.000000,231.000000,213.000000,18.000000,0.000000,0.000000,0.000000:
// measure 0
0000
0000
0000
0000
,  // measure 1
0000
0000
0000
0000
,  // measure 2
0000
0000
0000
0000
,  // measure 3
0000
0000
0000
0000
,  // measure 4
0000
0000
0000
0000
,  // measure 5
0000
1000
0000
0000
,  // measure 6
0000
1000
0000
0000
,  // measure 7
0000
0010
0000
0010
,  // measure 8
0000
0010
0000
1000
,  // measure 9
0000
1001
0000
0000
,  // measure 10
0000
1010
0000
0000
,  // measure 11
0000
1001
0000
0000
,  // measure 12
0000
1000
0000
0010
,  // measure 13
0000
0001
0000
0000
,  // measure 14
0000
1000
0000
0000
,  // measure 15
0000
0001
0000
0000
,  // measure 16
0000
1000
0000
0001
,  // measure 17
0000
1000
0000
0000
,  // measure 18
0000
1001
0000
0000
,  // measure 19
0000
0010
0000
0000
,  // measure 20
0000
0100
0000
0000
,  // measure 21
0000
1001
0000
0000
,  // measure 22
0000
1001
0000
0000
,  // measure 23
0000
0101
0000
0000
,  // measure 24
0000
0100
0000
0000
,  // measure 25
0000
0010
0000
1000
,  // measure 26
0000
1000
0000
0001
,  // measure 27
0000
0001
0000
1000
,  // measure 28
0000
1000
0000
0100
,  // measure 29
0000
1000
0000
1000
,  // measure 30
0000
0010
0000
0010
,  // measure 31
0000
1000
0000
1000
,  // measure 32
0000
0001
0000
0001
,  // measure 33
0000
0100
0000
0010
,  // measure 34
1000
0001
0000
1000
,  // measure 35
0000
0010
0000
0100
,  // measure 36
0100
0001
0000
1000
,  // measure 37
0000
0010
0000
1000
,  // measure 38
0001
1000
0000
0001
,  // measure 39
0000
1000
0000
0010
,  // measure 40
0100
0010
0000
1000
,  // measure 41
0000
1001
0000
0010
,  // measure 42
0000
0011
0000
1000
,  // measure 43
0000
0010
0010
1000
,  // measure 44
0000
1001
0000
0001
,  // measure 45
0000
0110
0000
1000
,  // measure 46
0000
1010
0000
0100
,  // measure 47
0000
0011
0000
0011
,  // measure 48
0000
0011
0000
0100
,  // measure 49
0000
1001
0000
0000
,  // measure 50
0000
0000
0000
0000
,  // measure 51
0000
0001
0000
0000
,  // measure 52
0000
0000
0000
0000
,  // measure 53
0000
1000
0000
0000
,  // measure 54
0000
0000
0000
0000
,  // measure 55
0000
1000
0000
0000
,  // measure 56
0000
0000
0000
0000
,  // measure 57
0000
1001
0000
0100
,  // measure 58
0000
0001
0000
0100
,  // measure 59
0000
0100
0000
0001
,  // measure 60
0000
0100
0000
0100
,  // measure 61
0000
0010
0000
1000
,  // measure 62
0000
0001
0000
1000
,  // measure 63
0000
1000
1000
0100
,  // measure 64
0100
0010
0000
0000
,  // measure 65
0000
0110
0000
1000
,  // measure 66
0000
0001
1000
1000
,  // measure 67
0000
0001
1000
0001
,  // measure 68
1000
0001
0000
0010
,  // measure 69
0000
0010
0000
0001
,  // measure 70
0000
0010
0001
0001
,  // measure 71
0000
1000
0000
0010
,  // measure 72
0000
1000
0001
1000
,  // measure 73
0001
1000
0000
0001
,  // measure 74
0000
1000
1000
0010
,  // measure 75
0000
0100
0001
0100
,  // measure 76
0001
1000
0000
0010
,  // measure 77
0000
1000
0000
0100
,  // measure 78
0000
1000
0001
0001
,  // measure 79
0000
0100
0000
0100
,  // measure 80
0001
1000
0001
1000
,  // measure 81
0010
1000
0000
1000
,  // measure 82
0000
0001
1000
0001
,  // measure 83
0000
0100
0010
0100
,  // measure 84
0000
0010
0000
0100
,  // measure 85
0001
1000
0000
0001
,  // measure 86
0000
1000
0100
0100
,  // measure 87
0000
0001
0010
0010
,  // measure 88
0000
1000
0000
0100
,  // measure 89
0001
1000
0001
0010
,  // measure 90
0000
0001
1000
0001
,  // measure 91
0000
0100
0010
0100
,  // measure 92
0000
0001
0000
0001
,  // measure 93
1000
0001
0000
0010
,  // measure 94
0000
0001
1000
0100
,  // measure 95
0000
1000
0001
1000
,  // measure 96
0000
0010
0000
0010
,  // measure 97
1000
0010
0000
1000
,  // measure 98
0000
0001
0010
0001
,  // measure 99
1000
1000
0000
0001
,  // measure 100
0000
0001
0010
0100
,  // measure 101
0010
0001
0000
0001
,  // measure 102
0000
0010
1000
0001
,  // measure 103
1000
0001
0000
0001
,  // measure 104
0000
1000
0001
1000
,  // measure 105
0001
0100
0000
0000
;
