#TITLE:The Chase;
#SUBTITLE:;
#ARTIST:Hearts2Hearts;
#TITLETRANSLIT:;
#SUBTITLETRANSLIT:;
#ARTISTTRANSLIT:;
#GENRE:;
#CREDIT:;
#BANNER:AV.avi;
#BACKGROUND:bg.png;
#LYRICSPATH:;
#CDTITLE:;
#MUSIC:audio.ogg;
#OFFSET:-0.160000;
#SAMPLESTART:38.080105;
#SAMPLELENGTH:15.000002;
#SELECTABLE:YES;
#BPMS:0.000000=125.999992
;
#STOPS:
;
#BGCHANGES:0.000=MV.avi=1.000=1=0=1===CrossFade==,
99999=-nosongbg-=1.000=0=0=0 // don't automatically add -songbackground-
;
#KEYSOUNDS:;
#ATTACKS:;

//---------------dance-single - ----------------
#NOTES:
     dance-single:
     :
     Challenge:
     12:
     0.429880,0.584880,0.169530,0.491638,0.144101,355.000000,335.000000,20.000000,58.000000,0.000000,0.000000,0.429880,0.584880,0.169530,0.491638,0.144101,355.000000,335.000000,20.000000,58.000000,0.000000,0.000000:
0000
0000
0000
0000
,
0000
0000
0000
0000
,
0000
0000
0000
0000
,
0000
0000
0000
0000
,
1000
0100
1000
0000
0001
0000
0100
0000
0002
0000
0000
0000
0003
0000
0000
0000
,
0001
0010
0001
0000
1000
0000
0100
0000
2000
0000
0000
0000
3000
0000
0000
0000
,
0010
1000
0100
0000
1000
0000
0001
0000
0200
0000
0000
0000
0310
0000
0000
0000
,
0100
0001
0010
0000
0001
0000
0100
0000
0020
0000
0000
0000
0130
0000
0001
0000
,
2000
0000
3200
0000
0320
0000
0031
1000
,
0002
0000
0203
0000
0320
0000
1030
0100
,
0020
0000
0000
0032
,
0003
0000
0000
1001
,
0001
0100
1000
0100
0001
1000
0100
0001
,
0100
0010
0001
1000
0001
0100
0010
1000
,
0010
0000
1000
0000
0001
0000
0100
0001
0100
0001
0010
0100
0000
0000
0010
0100
,
0010
0100
1000
0000
0010
0000
1000
0000
0001
0000
0100
0000
0020
0000
1000
0000
,
1030
0100
0010
0001
0200
0000
0310
0100
,
0001
0010
0100
1000
0002
0000
0103
0010
,
2000
0000
3100
1000
0002
0000
0103
0010
,
0200
0000
0301
1000
0020
0000
1030
1000
,
2001
0000
0000
3001
0100
0010
1020
0000
,
0000
1030
0100
0001
0100
1000
0010
0010
,
0210
0000
0000
0301
0010
0100
2100
0000
,
0000
3001
0100
0010
0100
0001
0010
0100
,
2001
0000
3001
0010
1000
0010
0200
0000
,
1300
0010
1000
0100
0001
0010
1000
0100
,
1001
0000
0010
0100
1000
0100
1000
0000
,
0001
0100
0010
1000
0001
0010
0100
1000
,
0001
0000
0200
0000
0302
0000
0013
0100
,
1000
0010
2000
0000
3200
0000
1300
0100
,
0010
0001
0200
0000
0320
0000
0130
0001
,
0010
0100
2000
0000
3002
0000
0103
0000
,
0110
0000
0000
1000
0001
0000
0100
0000
0000
0001
1000
0000
,
0010
0000
0000
0000
0000
0000
1000
0000
0001
0000
0000
0000
1000
0000
0000
0000
0000
0000
0001
0000
0000
0001
0000
0000
,
0200
0000
0000
0310
0000
0000
0100
0001
0010
0000
0010
0000
0100
0000
1000
0000
,
0002
0000
1003
0010
1000
0100
0010
0001
,
1000
0100
0010
0001
1000
0000
0010
0000
1000
0100
0010
0001
1000
0000
0010
0000
,
1000
0100
0010
0001
1000
0000
0010
0000
0200
0000
0000
0000
0301
0100
0001
0000
,
0001
0010
0100
1000
0010
0000
1000
0000
0001
0010
0100
1000
0010
0000
1000
0000
,
0001
0010
0100
1000
0010
0000
1000
0000
0002
0000
0000
0000
0103
0001
0100
0000
,
0010
0000
1000
0100
0020
0000
0001
0000
,
0130
0000
0000
0000
0010
0100
1000
0000
0020
0000
0000
0130
0000
0000
0001
0000
,
0020
0000
0000
0130
0000
0000
0000
0000
0200
0000
0000
1300
0000
0000
0000
0000
,
1001
0000
1000
0100
0000
1000
0001
0000
0100
0000
0010
0000
1000
0000
0001
0000
,
0200
0000
0000
0000
,
0000
0000
0320
2030
,
3200
0000
0000
0000
,
2300
0000
0000
0000
,
3002
0000
0000
0000
,
0000
0000
0000
0000
,
2003
0000
0000
0000
,
3001
0100
0010
1000
0100
0010
0001
0000
,
2001
0000
3001
0010
0100
1000
0020
0030
,
1100
0100
1000
0001
0110
0100
0001
0010
,
0201
0000
0301
1000
0010
0100
0020
0030
,
0011
0100
1000
0001
0011
0100
1000
0010
,
0201
0000
0301
0100
1000
0100
0002
0000
,
0013
0001
1000
0000
1010
0000
0001
0100
,
0120
0000
0130
0001
0120
0000
0031
1000
,
1020
0000
0000
0130
0002
0000
0000
0000
,
0003
0000
0000
0000
;

//---------------dance-single - ----------------
#NOTES:
     dance-single:
     :
     Hard:
     9:
     0.357225,0.432302,0.059336,0.389920,0.000000,295.000000,288.000000,7.000000,46.000000,0.000000,0.000000,0.357225,0.432302,0.059336,0.389920,0.000000,295.000000,288.000000,7.000000,46.000000,0.000000,0.000000:
0000
0000
0000
0000
,
0000
0000
0000
0000
,
0000
0000
0000
0000
,
0000
0000
0000
0000
,
1000
0100
1000
1000
0002
0000
0103
0000
,
0001
0100
0001
0001
0020
0000
0031
0000
,
0010
0100
1000
0010
0200
0000
0310
0000
,
0100
0010
1000
0001
0020
0000
0130
0010
,
0001
0000
1000
0000
0020
0000
1030
0100
,
1000
0000
0001
0000
0200
0000
0310
0100
,
0002
0000
0000
2003
,
0000
3000
0000
0000
0000
0000
1001
0000
,
0010
1000
0100
1000
0001
0100
0010
0100
,
0001
0010
0100
0010
0001
1000
0010
1000
,
0010
0100
0001
0010
1000
0010
0001
0100
,
1000
0100
0001
1000
0010
1000
0200
0010
,
0310
0100
1000
0010
2000
0000
3001
0100
,
0010
1000
0001
0010
0200
0000
0310
0001
,
2000
0000
3010
1000
0200
0000
1300
0001
,
0020
0000
0031
0100
0020
0000
0130
0010
,
2000
0000
0000
3001
0100
0010
0200
0000
,
0000
0301
0010
0100
1000
0010
0100
0010
,
2000
0000
0000
3001
1000
0001
0200
0000
,
0000
0310
0100
0001
0010
0100
1000
0000
,
1010
0000
0001
1000
0010
1000
0200
0000
,
0310
0100
0010
0100
1000
0010
0100
0001
,
0020
0000
0031
0100
0010
0100
0020
0000
,
1030
0100
1000
0001
0010
0100
1000
0000
,
0002
0000
0100
0000
0013
0000
1000
0100
,
2000
0000
0001
0000
3010
0000
1000
0010
,
0200
0000
0001
0000
0310
0000
1000
0001
,
0020
0100
0031
1000
,
1001
0020
0130
0002
,
0013
0000
2000
0000
3100
0000
1000
0010
,
2000
3001
0002
0103
,
0001
0010
0100
1000
0020
0000
1030
0000
,
0001
1000
0010
1000
0001
1000
0010
1000
,
0001
1000
0010
0100
0002
0000
0103
0000
,
1000
0100
0001
0100
1000
0100
0001
0100
,
1000
0100
0001
0100
2000
0000
3100
0000
,
0100
0000
1000
0010
0200
0000
0010
0000
,
0301
0000
1000
0010
1000
0001
0010
0100
,
0020
0130
0200
0310
,
0001
0010
1000
0010
0001
1000
0100
1000
,
0200
0000
0000
0000
,
0000
0000
0000
0000
,
2300
0000
0000
0000
,
0000
0000
0000
0000
,
3002
0000
0000
0000
,
0000
0000
0000
0000
,
0023
0000
0000
0000
,
0032
0000
0000
0003
,
1001
0000
0010
0100
0001
0010
0200
0000
,
1300
0010
0001
0010
1000
0001
0100
0001
,
0010
0000
0001
0100
0010
0100
0002
0000
,
1003
0100
0001
0100
1000
0001
0010
0100
,
0010
0000
0001
1000
0010
0100
0020
0000
,
1030
0001
0010
0000
1001
0000
0010
1000
,
1100
0000
0001
0100
0101
0000
0010
1000
,
0002
0000
0000
0000
,
0003
0000
0000
0000
;

//---------------dance-single - ----------------
#NOTES:
     dance-single:
     :
     Medium:
     7:
     0.326951,0.433203,0.059336,0.372967,0.000000,270.000000,263.000000,7.000000,44.000000,0.000000,0.000000,0.326951,0.433203,0.059336,0.372967,0.000000,270.000000,263.000000,7.000000,44.000000,0.000000,0.000000:
0000
0000
0000
0000
,
0000
0000
0000
0000
,
0000
0000
0000
0000
,
0000
0000
0000
0000
,
0001
0100
0001
0100
0020
0000
0000
0030
,
1000
0100
1000
0100
0020
0000
0000
0030
,
0001
0100
0010
0100
0002
0000
1003
0000
,
1000
0100
0010
0100
2000
0000
3010
0100
,
0010
0000
0100
0000
0002
0000
0013
0100
,
0010
0000
0001
0000
2000
0000
3010
0100
,
0002
0000
0000
0023
,
0030
0000
0000
1001
,
1000
0100
1000
0001
0100
0001
0010
0001
,
1000
0100
1000
0010
0100
0010
1000
0100
,
0001
0100
1000
0001
0100
0010
0100
0000
,
0100
0001
0010
0001
2000
0000
3010
0000
,
1000
0001
0100
0001
0020
0000
0031
0000
,
1000
0100
0010
0100
2000
0000
3010
0000
,
0200
0000
0301
0010
0002
0000
1003
0000
,
2000
0000
3010
0100
0002
0000
0000
0000
,
1003
0000
0000
0001
1000
0010
0200
0000
,
0300
0001
0100
0001
0010
0100
1000
0010
,
0100
0000
0000
0100
0010
1000
0100
0000
,
0000
1000
0010
1000
0001
0100
0010
0000
,
0101
0000
0001
0010
0100
0010
0001
0000
,
1000
0100
0010
0100
1000
0010
0100
0001
,
0100
0000
0100
0001
1000
0001
1000
0000
,
0010
1000
0100
0010
0001
0010
0100
0000
,
2000
0000
3001
0000
0100
0000
0010
0100
,
0002
0000
0010
0000
0103
0000
1000
0010
,
0200
0000
0010
0000
1300
0000
0001
1000
,
0020
0100
0031
1000
,
0200
1000
2300
0010
,
3002
0100
0023
0000
,
0031
0000
0100
0000
0010
1000
0010
0000
,
0200
0301
0020
0130
,
0001
1000
0002
0000
1003
0001
2000
0000
,
3010
1000
0020
0000
0230
0000
0310
0000
,
1000
0010
2000
0000
3100
1000
0200
0000
,
1300
0100
0020
0000
0032
0000
0103
0000
,
0010
0000
1000
0010
0200
0000
0001
0000
,
0310
0000
1000
0010
0100
0000
0001
0010
,
0200
1300
2000
3010
,
0100
0010
0100
0010
2000
0000
3001
0000
,
0002
0000
0000
0000
,
0000
0000
0000
0000
,
2003
0000
0000
0000
,
0000
0000
0000
0000
,
3200
0000
0000
0000
,
0000
0000
0000
0000
,
2300
0000
0000
0000
,
3001
0000
0001
0000
,
1001
0000
1000
0000
0010
0100
0010
0000
,
1000
0100
0010
0000
0011
0000
1000
0001
,
0001
0000
1001
1000
0010
0100
0010
0000
,
1000
0100
0010
0000
1001
0000
1000
0010
,
0010
0000
1000
0001
0010
0100
1000
0000
,
0001
0100
0010
0000
0110
0000
1000
0100
,
0010
0000
0100
0010
0001
0000
0100
0010
,
2000
0000
3002
0000
,
0000
0003
0000
0000
0000
0000
0000
0000
;

//---------------dance-single - ----------------
#NOTES:
     dance-single:
     :
     Easy:
     4:
     0.199804,0.279725,0.000000,0.339061,0.000000,165.000000,165.000000,0.000000,40.000000,0.000000,0.000000,0.199804,0.279725,0.000000,0.339061,0.000000,165.000000,165.000000,0.000000,40.000000,0.000000,0.000000:
0000
0000
0000
0000
,
0000
0000
0000
0000
,
0000
0000
0000
0000
,
0000
0000
0000
0000
,
0100
0001
0200
0000
,
0301
0100
0002
0000
,
0013
0100
0020
0000
,
0031
1000
0020
0000
,
0230
0000
0302
0000
,
1003
0010
0200
0000
,
0302
0000
0000
0003
,
0000
0000
0000
1000
,
0010
1000
0010
0100
,
0001
0010
0001
0100
,
0010
1000
0100
1000
,
0001
0001
0100
0100
,
0010
1000
0200
0310
,
0001
0100
0020
1030
,
0002
0103
0020
1030
,
0200
1300
2000
3001
,
0002
0000
1003
2000
,
0000
3010
1000
0100
,
0020
0000
0031
0002
,
0000
0103
0010
1000
,
0001
0000
0100
0000
0001
0010
0001
0000
,
1000
0010
1000
0100
,
0010
0000
0001
0000
1000
0100
1000
0000
,
0010
0100
0001
0001
,
2000
0000
3010
0000
,
0200
0000
0301
0000
,
0002
0000
0013
0000
,
0002
0000
0013
0000
,
0100
0100
2000
0000
,
3010
0010
0200
0000
,
0302
0000
2003
0000
,
3020
0000
1030
0000
,
0001
1000
0001
0010
,
0001
0100
0001
0000
2000
0000
0000
0000
,
3010
1000
0010
0100
,
0001
1000
0001
0000
0200
0000
0310
0000
,
0010
0100
0002
0000
,
1003
0100
0010
0100
,
2000
0000
3002
0000
,
0103
0100
0010
0010
,
2000
0000
0000
0000
,
0000
0000
0000
0000
,
3200
0000
0000
0000
,
0000
0000
0000
0000
,
2300
0000
0000
0000
,
0000
0000
0000
0000
,
3002
0000
0000
0000
,
0203
0000
0000
0000
,
0310
0001
0100
0010
,
1000
0100
1000
0000
0001
0100
0001
0000
,
1000
0010
0100
0001
,
1000
0010
1000
0000
0001
0100
0001
0000
,
0010
0010
0001
0001
,
1000
0100
0010
0001
,
2000
0000
3020
0000
,
0230
0000
0000
0000
,
0300
0000
0000
0000
;

//---------------dance-single - ----------------
#NOTES:
     dance-single:
     :
     Beginner:
     1:
     0.112617,0.152577,0.000000,0.169530,0.000000,93.000000,93.000000,0.000000,20.000000,0.000000,0.000000,0.112617,0.152577,0.000000,0.169530,0.000000,93.000000,93.000000,0.000000,20.000000,0.000000,0.000000:
// measure 0
0000
0000
0000
0000
,  // measure 1
0000
0000
0000
0000
,  // measure 2
0000
0000
0000
0000
,  // measure 3
0000
0000
0000
0000
,  // measure 4
1000
0000
0000
0000
,  // measure 5
0001
0000
0000
0000
,  // measure 6
0100
0000
0000
0000
,  // measure 7
0010
0000
0000
0000
,  // measure 8
2000
0000
0000
0000
,  // measure 9
3001
0000
0000
0000
,  // measure 10
0200
0000
0000
0000
,  // measure 11
0301
0000
0000
0000
,  // measure 12
0010
0000
0010
0000
,  // measure 13
1000
0000
0100
0000
,  // measure 14
1000
0000
1000
0000
,  // measure 15
0001
0000
0100
0000
,  // measure 16
0010
0000
0010
0000
,  // measure 17
0100
0000
0100
0000
,  // measure 18
0002
0000
1003
0000
,  // measure 19
2000
0000
3001
0000
,  // measure 20
0001
0000
0001
0000
,  // measure 21
0000
0000
0001
0000
,  // measure 22
0100
0000
0100
0000
,  // measure 23
0000
0000
0010
0000
,  // measure 24
0010
0000
1000
0000
,  // measure 25
0010
0000
0100
0000
,  // measure 26
0001
0000
0001
0000
,  // measure 27
0100
0000
0100
0000
,  // measure 28
0020
0000
0000
0000
,  // measure 29
1030
0000
1000
0000
,  // measure 30
2000
0000
0000
0000
,  // measure 31
3100
0000
0100
0000
,  // measure 32
2000
0000
3001
0000
,  // measure 33
0002
0000
1003
0000
,  // measure 34
1000
0000
0010
0000
,  // measure 35
0200
0000
0000
0000
,  // measure 36
0310
0000
0010
0000
,  // measure 37
0100
0010
0100
0000
,  // measure 38
0001
0000
0001
0000
,  // measure 39
1000
0001
1000
0000
,  // measure 40
0020
0000
1030
0000
,  // measure 41
1000
0100
0010
0000
,  // measure 42
0002
0000
0103
0000
,  // measure 43
0200
0000
0310
0000
,  // measure 44
2000
0000
0000
0000
,  // measure 45
0000
0000
0000
0000
,  // measure 46
3200
0000
0000
0000
,  // measure 47
0000
0000
0000
0000
,  // measure 48
2300
0000
0000
0000
,  // measure 49
0000
0000
0000
0000
,  // measure 50
3002
0000
0000
0000
,  // measure 51
0203
0000
0000
0000
,  // measure 52
0310
0000
0010
0000
,  // measure 53
1000
0100
1000
0000
,  // measure 54
0001
0000
0001
0000
,  // measure 55
0100
0001
0100
0000
,  // measure 56
0010
0000
0010
0000
,  // measure 57
1000
0010
1000
0000
,  // measure 58
0002
0000
2003
0000
,  // measure 59
3020
0000
0000
0000
,  // measure 60
0030
0000
0000
0000
;
