#TITLE:Taste;
#SUBTITLE:;
#ARTIST:Sabrina Carpenter;
#TITLETRANSLIT:;
#SUBTITLETRANSLIT:;
#ARTISTTRANSLIT:;
#GENRE:;
#CREDIT:Musey;
#BANNER:AV.avi;
#BACKGROUND:bg.png;
#LYRICSPATH:;
#CDTITLE:;
#MUSIC:audio.ogg;
#OFFSET:-0.330000;
#SAMPLESTART:25.419891;
#SAMPLELENGTH:14.999999;
#SELECTABLE:YES;
#BPMS:0.000000=113.000000
;
#STOPS:
;
#BGCHANGES:0.000=MV.avi=1.000=1=0=1===CrossFade==,
99999=-nosongbg-=1.000=0=0=0 // don't automatically add -songbackground-
;
#KEYSOUNDS:;
#ATTACKS:;

//---------------dance-single - ----------------
#NOTES:
     dance-single:
     :
     Challenge:
     10:
     0.459775,0.567858,0.262175,0.560513,0.031642,356.000000,327.000000,29.000000,62.000000,0.000000,0.000000,0.459775,0.567858,0.262175,0.560513,0.031642,356.000000,327.000000,29.000000,62.000000,0.000000,0.000000:
0000
1000
0010
0100
0001
1000
0100
1000
,
0002
0000
1003
0000
0001
0010
0001
0200
,
0000
0000
0301
2000
0000
3010
0100
0002
,
0010
0000
0103
0001
1000
0010
1000
0200
,
0000
0310
0001
0100
0010
0100
0001
2000
,
0000
3100
0000
1000
0001
0010
0100
0020
,
0000
0000
0031
0200
0000
0301
1000
0010
,
0200
0000
0301
2000
0000
3100
1000
0002
,
0000
0103
1000
0100
0001
0010
0001
2000
,
0100
0000
3001
0000
0010
1000
0010
0002
,
0000
1003
0010
0200
0000
0301
0100
0010
,
2000
0000
3001
0020
0000
0031
1001
2000
,
0000
3010
1000
0010
0100
0002
0000
0203
,
0000
1300
0100
0001
0020
0000
0031
2000
,
0000
3100
0001
0100
2000
0000
3020
0000
,
0130
0001
1000
0010
0100
1000
0100
0020
,
0000
1030
0100
0010
0001
2000
0000
3020
,
0000
1030
0100
1000
0002
0000
0103
1000
,
0100
0020
0000
1030
0001
0200
0000
0301
,
0020
0000
0130
0010
0100
1000
0011
1010
,
1001
0001
0100
0002
0000
1003
0100
2000
,
0000
3010
0010
0100
0100
0001
0001
0100
,
0001
1000
0010
0200
0000
0301
0010
0100
,
1100
0000
1001
0000
0010
1000
1001
0110
,
1001
0000
0100
0000
0010
0000
0001
0000
1000
0000
0010
0200
0000
0000
0301
0000
,
0010
0000
0001
0000
0100
0000
0010
0000
1000
0000
0010
0200
0000
0000
0301
0000
,
0010
0000
0001
0000
1000
0000
0010
0000
1000
0000
0100
0020
0000
0000
0031
0000
,
1000
0000
0010
0000
1000
0000
0001
0000
0100
0000
0010
2000
0000
0000
3000
0000
,
1001
0000
0001
0000
0100
0000
0010
0000
1000
0000
0100
1000
0010
0000
0100
0000
,
0110
0000
0001
0000
1000
0000
0010
0000
0100
0000
0001
0010
0100
0000
0010
0000
,
0011
0000
0100
0000
1000
0000
0010
0000
0100
0000
0001
0100
0010
0000
1000
0000
,
0110
0100
0101
0001
0110
0110
1001
1001
,
0002
0000
0000
0023
0000
0000
0000
0230
,
0000
0000
0000
0000
0000
1300
0100
0020
,
0000
0031
1000
0010
0100
0002
0003
2000
,
0000
3002
0003
0001
0020
0000
0030
0200
,
0000
1300
0001
0100
0020
0000
0230
0000
,
0300
0001
0010
0100
1000
1100
1001
0110
,
0110
0100
0001
0010
0100
2000
3000
0002
,
0000
0103
0010
1000
0100
1000
0001
0020
,
0000
0031
0100
0020
0000
1030
0001
0200
,
0001
0000
0301
0000
1100
1100
0110
0110
,
0001
1000
0001
0200
0000
0301
1000
0001
,
0010
0001
0001
0100
0100
0010
0010
1000
,
0001
0100
0001
0010
0200
0000
2300
0000
,
3001
0010
0001
0100
0010
1000
0001
0010
,
0001
1000
0100
2000
0000
3001
0010
0002
,
0000
0013
0010
0001
0001
0100
0001
2000
,
0000
3010
1000
0100
0020
0000
0032
0000
,
1003
0001
0100
0010
1000
0110
1001
2010
,
0000
3000
0000
0000
;

//---------------dance-single - ----------------
#NOTES:
     dance-single:
     :
     Hard:
     9:
     0.418447,0.407841,0.144648,0.361621,0.013561,324.000000,308.000000,16.000000,40.000000,0.000000,0.000000,0.418447,0.407841,0.144648,0.361621,0.013561,324.000000,308.000000,16.000000,40.000000,0.000000,0.000000:
// measure 0
0000
0001
0010
0001
1000
0010
0100
0010
,  // measure 1
2000
0000
3000
0000
0000
0010
1000
0200
,  // measure 2
0000
0000
0310
0002
0000
1003
0001
0200
,  // measure 3
0000
0300
0000
0100
,  // measure 4
0000
1000
0100
0010
0001
0100
0010
0200
,  // measure 5
0000
0301
0000
0001
0100
0010
1000
0200
,  // measure 6
0000
0000
0310
0002
0000
1003
0010
0200
,  // measure 7
0000
0301
0000
0001
,  // measure 8
0001
0100
0010
0100
0001
0010
0001
2000
,  // measure 9
0100
0000
3001
0000
0010
1000
0010
0200
,  // measure 10
0000
0310
1000
0002
0000
0013
0100
1000
,  // measure 11
0020
0000
0130
0000
0000
0001
1001
0000
,  // measure 12
1002
0000
1003
0010
0100
0001
0010
0000
,  // measure 13
0001
0010
0001
0100
1000
0100
0010
0000
,  // measure 14
1000
0100
0001
0100
2000
0000
3001
0010
,  // measure 15
0100
0000
1001
0000
0100
0100
0001
0010
,  // measure 16
0002
0000
0103
0010
0001
0010
0100
0000
,  // measure 17
1000
0100
1000
0100
0010
0001
0100
0000
,  // measure 18
0100
0010
1000
0000
0001
0100
0010
0000
,  // measure 19
1001
0000
1001
0000
1000
0100
0010
0001
,  // measure 20
2001
0000
3001
0010
0100
1000
0100
0010
,  // measure 21
0002
0000
0010
0000
0103
0001
0001
0000
,  // measure 22
1002
0000
0013
0100
1000
0100
0010
0001
,  // measure 23
1100
0000
1001
0000
0010
1000
0010
1000
,  // measure 24
0001
0010
0100
0010
0002
0000
1003
0000
,  // measure 25
0100
0010
0100
0010
0002
0000
1003
0000
,  // measure 26
0010
0100
1000
0100
0020
0000
1030
0000
,  // measure 27
1000
0100
1000
0001
0010
0001
1000
0000
,  // measure 28
1002
0000
0000
0000
0103
0000
0010
0000
1000
0000
0100
1000
0001
0000
0000
0000
,  // measure 29
0102
0000
0000
0000
1003
0000
0010
0000
0100
0000
0001
1000
0010
0000
0000
0000
,  // measure 30
0120
0000
0000
0000
0130
0000
0010
0000
1000
0000
0001
0100
0001
0000
0000
0000
,  // measure 31
0001
0010
0001
0100
0010
0100
1001
1001
,  // measure 32
0000
0000
0000
0000
0020
0000
0000
0230
,  // measure 33
0000
0000
0000
0000
0000
0301
0100
0010
,  // measure 34
0200
0000
0310
1000
0010
0100
0001
2000
,  // measure 35
0000
3001
0010
0100
1000
0100
0010
0001
,  // measure 36
0200
0000
0301
1000
0100
1000
0001
0100
,  // measure 37
0000
0000
0000
0000
0000
1000
0001
1000
,  // measure 38
0120
0000
1030
0100
0010
0001
1000
0020
,  // measure 39
1000
0130
0010
0200
0010
0310
1000
0200
,  // measure 40
1000
1300
0010
0200
0001
0301
1000
0020
,  // measure 41
1000
0000
1030
0001
1000
0001
1000
0010
,  // measure 42
1001
0001
1000
0010
0100
0010
1000
0010
,  // measure 43
0200
0000
0001
0000
0301
0010
0100
1000
,  // measure 44
0001
0100
0001
0010
0200
0000
1300
0001
,  // measure 45
0100
0010
1000
0010
0100
0001
1000
0010
,  // measure 46
1000
0100
1000
0001
0010
1000
0010
0001
,  // measure 47
0200
0000
0001
0000
0301
1000
0001
0100
,  // measure 48
0010
1000
0001
0010
0200
0000
1300
0100
,  // measure 49
0010
0100
1000
0010
0100
0020
0100
0100
,  // measure 50
0000
0030
0000
0000
0000
0000
0000
0000
;

//---------------dance-single - ----------------
#NOTES:
     dance-single:
     :
     Medium:
     6:
     0.347415,0.338172,0.054243,0.361621,0.000000,269.000000,263.000000,6.000000,40.000000,0.000000,0.000000,0.347415,0.338172,0.054243,0.361621,0.000000,269.000000,263.000000,6.000000,40.000000,0.000000,0.000000:
0000
0000
1000
0000
0001
0100
0010
1000
,
0200
0000
0310
0000
0001
0100
0001
0000
,
2000
0000
3100
0000
0010
0001
1000
0000
,
0020
0000
0130
0000
0001
1000
0001
0000
,
1000
0100
0010
0000
0001
0100
0010
0000
,
2000
0000
3100
0000
1000
0001
1000
0000
,
0002
0103
0020
1030
,
0200
0000
1300
0000
0001
0100
0001
0000
,
0020
0000
0130
0010
0001
0000
1000
0000
,
0020
0000
0130
0000
1000
0100
1000
0000
,
0002
0000
0013
0000
0100
1000
0010
1000
,
0002
0000
0103
0110
,
1000
0001
0100
0000
0020
0000
1030
0000
,
1000
0100
0010
0001
0200
0000
0301
0000
,
1000
0001
1000
0000
0020
0000
0130
0000
,
0001
0010
0100
0010
0001
1000
0010
0000
,
1000
0100
1000
0000
0020
0000
0130
0000
,
0001
0010
1000
0010
0002
0000
1003
0000
,
0100
1000
0100
0000
0010
0001
0010
0000
,
0001
0000
1000
0000
0001
1000
0010
0100
,
0002
0013
0200
1300
,
0010
1000
0010
0000
0100
0001
0100
0000
,
0020
1030
2000
3001
,
0100
0001
0100
0000
0010
0000
1010
0000
,
0001
0010
0100
1000
0020
0000
1030
0000
,
1000
0100
0010
0001
0200
0000
0301
0000
,
0100
0010
0100
0010
2000
0000
3001
0000
,
0001
0010
0001
0010
0200
0000
1300
0000
,
0001
1000
0001
1000
0020
0000
1030
0000
,
0010
1000
0100
1000
0020
0000
1030
0000
,
0001
0010
0100
0010
0002
0000
0103
0000
,
0010
0100
0010
1000
0001
0100
0010
0000
,
2000
0000
0000
0000
,
3002
0000
0000
0000
,
0103
0001
0100
0010
,
1000
0100
1000
0000
0020
0000
0130
0000
,
0001
0000
1000
0000
0100
0010
0001
0000
,
2000
0000
0000
0000
0000
3001
0100
0010
,
0100
0001
0010
0100
2000
0000
3010
0000
,
0100
0001
0100
0010
2000
0000
3010
0000
,
1000
0100
0010
0000
0001
0100
0010
0000
,
1010
1010
0101
0101
,
0001
1000
0020
0000
1030
0001
0200
0000
,
0301
0010
0100
1000
0010
0100
0001
0000
,
1000
0100
0010
0000
0002
0000
1003
0000
,
0010
1000
0100
1000
0002
0000
0103
0000
,
0010
1000
0010
0100
0002
0000
0013
0000
,
0100
0010
0001
0000
1000
0000
1000
0000
,
0100
1000
0100
1000
0200
0000
0310
0000
,
0001
0100
0010
0100
0002
0000
1000
1003
;

//---------------dance-single - ----------------
#NOTES:
     dance-single:
     :
     Easy:
     3:
     0.259592,0.269860,0.009041,0.262175,0.000000,201.000000,200.000000,1.000000,29.000000,0.000000,0.000000,0.259592,0.269860,0.009041,0.262175,0.000000,201.000000,200.000000,1.000000,29.000000,0.000000,0.000000:
0000
1000
0001
0100
,
0020
0000
0130
0100
,
0001
0001
0010
0100
,
2000
0000
3001
0001
,
0100
0010
1000
0100
,
2000
0000
3001
0001
,
0100
0010
1000
0001
,
0200
0000
0301
0001
,
1000
0001
1000
0000
0010
0000
0010
0000
,
0200
0000
0310
0010
,
1000
0001
1000
0000
0001
0000
0010
0000
,
0200
0000
0310
0010
,
0001
1000
0001
0000
0200
0000
0301
0000
,
0010
0001
0010
0000
0200
0000
1300
0000
,
0010
1000
0010
0000
0200
0000
0301
0000
,
1000
0001
1000
0000
0100
0000
0100
0000
,
0010
0001
1000
0000
0020
0000
1030
0000
,
0100
0001
0100
0000
0020
0000
1030
0000
,
0002
0013
0020
0130
,
0001
0001
1000
1000
,
0001
0000
0001
0000
1000
0100
0010
0000
,
0001
0001
1000
1000
,
0010
0000
0100
0000
0001
0100
0010
0000
,
1000
1000
1000
0001
,
0100
0100
0002
0000
,
0013
0010
0200
0000
,
0310
0010
0002
0000
,
1003
1000
0020
0000
,
1030
0100
0010
0010
,
0001
1000
0010
0010
,
0100
0001
0100
0100
,
0010
0000
1000
0000
0001
1000
0001
0000
,
0200
0000
0000
0000
,
0302
0000
0000
0000
,
1003
1000
0001
0001
,
0100
0010
0100
0000
0020
0000
1030
0000
,
1000
1000
0001
0001
,
0200
0000
0000
0301
,
1000
0001
1000
0000
0020
0000
1030
0000
,
0100
0010
0001
0000
2000
0000
3010
0000
,
1000
1000
0001
0001
,
0100
0100
0010
0110
,
1000
0100
2000
0000
0100
0000
3100
0000
,
0001
0100
0002
0000
0100
0000
0103
0000
,
0010
1000
0200
0310
,
0001
0000
1000
0000
0010
1000
0001
0000
,
0100
0010
2000
3010
,
0100
0001
0100
0000
0002
0000
0013
0000
,
0001
1000
0010
0000
1000
0000
1000
0000
,
0100
0010
0002
1003
;

//---------------dance-single - ----------------
#NOTES:
     dance-single:
     :
     Beginner:
     2:
     0.120110,0.111877,0.000000,0.090405,0.000000,93.000000,93.000000,0.000000,10.000000,0.000000,0.000000,0.120110,0.111877,0.000000,0.090405,0.000000,93.000000,93.000000,0.000000,10.000000,0.000000,0.000000:
0000
0000
1000
0000
,
0002
0000
0103
0000
,
0010
0000
0010
0000
,
2000
0000
3001
0000
,
0100
0000
0100
0000
,
0010
0000
0010
0000
,
1000
0000
1000
0000
,
0002
0000
0103
0000
,
0010
0000
0010
0000
,
0020
0000
0030
0000
,
0100
0000
0100
0000
,
0200
0000
0300
0000
,
1000
0000
1000
0000
,
0001
0000
0001
0000
,
0100
0000
0100
0000
,
0010
0000
0010
0000
,
1000
0000
1000
0000
,
0001
0000
0001
0000
,
0100
0000
0001
0000
,
0010
0000
0010
0000
,
0100
0000
0100
0000
,
1000
0000
1000
0000
,
0001
0000
0001
0000
,
0100
0000
0100
0000
,
0010
0000
0010
0000
,
1000
0000
1000
0000
,
0001
0000
0001
0000
,
0100
0000
0100
0000
,
0010
0000
0010
0000
,
1000
0000
1000
0000
,
0001
0000
0001
0000
,
0100
0000
0100
0000
,
0020
0000
0000
0000
,
0000
0000
0000
0000
,
0130
0000
0100
0000
,
0001
0000
0001
0000
,
1000
0000
1000
0000
,
0010
0000
0000
0000
,
0100
0000
0100
0000
,
0001
0000
1000
0000
,
0001
0000
0001
0000
,
0020
0000
0031
0000
,
0100
0000
0100
0000
,
0010
0000
0010
0000
,
1000
0000
0001
0000
,
0100
0000
0100
0000
,
0020
0000
1030
0000
,
2000
0000
3010
0000
,
0010
0000
0100
0000
,
0200
0000
0301
0000
;
