#VERSION:0.83;
#TITLE:Takedown;
#SUBTITLE:;
#ARTIST:HUNTR/X;
#TITLETRANSLIT:;
#SUBTITLETRANSLIT:;
#ARTISTTRANSLIT:;
#GENRE:;
#ORIGIN:;
#CREDIT:;
#BANNER:AV.avi;
#BACKGROUND:bg.png;
#PREVIEWVID:;
#JACKET:jacket.png;
#CDIMAGE:;
#DISCIMAGE:;
#LYRICSPATH:;
#CDTITLE:;
#MUSIC:Takedown.ogg;
#OFFSET:-0.162000;
#SAMPLESTART:50.639137;
#SAMPLELENGTH:14.999995;
#SELECTABLE:YES;
#BPMS:0.000=140.000,
82.000=70.000,
90.000=140.000;
#STOPS:;
#DELAYS:;
#WARPS:;
#TIMESIGNATURES:0.000=4=4;
#TICKCOUNTS:0.000=4;
#COMBOS:0.000=1;
#SPEEDS:0.000=1.000=0.000=0;
#SCROLLS:0.000=1.000,
78.000=2.000,
78.500=1.750,
79.000=1.500,
79.500=1.250,
80.000=1.000,
80.500=0.750,
81.000=0.500,
82.000=1.000;
#FAKES:;
#LABELS:0.000=Song Start;
#BGCHANGES:0.000=MV.avi=1.000=1=0=1===CrossFade==,
99999=-nosongbg-=1.000=0=0=0 // don't automatically add -songbackground-
;
#KEYSOUNDS:;
#ATTACKS:
;

//---------------dance-single - ----------------
#NOTEDATA:;
#CHARTNAME:;
#STEPSTYPE:dance-single;
#DESCRIPTION:;
#CHARTSTYLE:Rajes;
#DIFFICULTY:Challenge;
#METER:13;
#RADARVALUES:0.587370,0.772623,0.332555,0.219184,0.404356,544.000000,500.000000,44.000000,29.000000,2.000000,0.000000,0.000000,0.000000,0.000000,0.587370,0.772623,0.332555,0.219184,0.404356,544.000000,500.000000,44.000000,29.000000,2.000000,0.000000,0.000000,0.000000,0.000000;
#CREDIT:Rajes;
#OFFSET:-0.162000;
#BPMS:0.000000=140.000000
,82.000000=70.000000
,90.000000=140.000000
;
#STOPS:;
#DELAYS:;
#WARPS:;
#TIMESIGNATURES:0.000000=4=4
;
#TICKCOUNTS:0.000000=4
;
#COMBOS:0.000000=1
;
#SPEEDS:0.000000=1.000000=0.000000=0
;
#SCROLLS:0.000000=1.000000
,78.000000=2.000000
,78.500000=1.750000
,79.000000=1.500000
,79.500000=1.250000
,80.000000=1.000000
,80.500000=0.750000
,81.000000=0.500000
,82.000000=1.000000
,114.500000=1.500000
,114.750000=0.500000
,115.000000=1.500000
,115.500000=0.500000
,116.000000=1.000000
,117.000000=1.500000
,117.250000=0.500000
,117.500000=1.500000
,117.750000=0.500000
,118.000000=1.000000
,125.000000=1.500000
,125.500000=0.500000
,126.000000=1.500000
,126.500000=0.500000
,127.000000=1.000000
,131.000000=1.500000
,131.500000=0.500000
,132.000000=1.000000
,133.000000=1.500000
,133.250000=0.500000
,133.500000=1.500000
,133.750000=0.500000
,134.000000=1.000000
,139.000000=1.500000
,139.500000=0.500000
,140.000000=1.000000
,140.500000=1.500000
,140.750000=0.500000
,141.000000=1.500000
,141.500000=0.500000
,142.000000=1.000000
,250.000000=1.250000
,250.500000=0.250000
,250.750000=1.000000
,252.000000=1.250000
,252.500000=0.250000
,252.750000=1.000000
,254.000000=1.250000
,254.500000=0.250000
,254.750000=1.000000
,258.000000=1.250000
,258.500000=0.250000
,258.750000=1.000000
,260.000000=1.250000
,260.500000=0.250000
,260.750000=1.000000
,262.000000=1.250000
,262.500000=0.250000
,262.750000=1.000000
;
#FAKES:;
#LABELS:0.000000=Song Start
;
#NOTES:
0000
0000
0000
0000
,
0000
0000
0000
0000
,
0000
0000
0000
0000
,
0000
0000
0000
0000
,
0000
0000
0000
0000
1000
1000
0001
0100
,
0001
0010
0100
1000
0001
0000
0000
0000
1000
0000
0001
0000
0100
0010
1000
0000
,
0010
0100
0001
0000
1000
0000
0001
0000
0100
0000
0000
0000
1001
0000
0000
0000
,
0100
0010
1001
0000
1000
0001
0011
0010
,
0001
0000
0000
0000
1000
0000
0000
0000
1000
0001
1000
0000
0010
0000
0100
0000
,
1000
0000
0100
0000
0110
0000
0000
0000
0001
1000
0001
0000
0100
0000
1000
0000
,
0100
0000
0010
0000
1001
0000
0000
0000
0001
0100
0001
0000
1000
0000
0010
0100
,
0001
0000
0100
0000
1000
0000
0100
0000
0001
1000
0010
0000
1000
0000
0100
0010
,
0001
0000
0100
0000
0001
0000
1000
0100
0010
0000
0001
0000
1000
0000
0100
1000
,
0001
0010
0100
0000
0010
0000
0001
1000
0100
0000
0001
0000
0100
0000
1000
0000
,
0000
0000
0001
0000
1000
0000
0010
0100
0010
0000
1000
0000
0100
0000
0010
0001
,
1000
0010
0100
0000
0001
0000
0100
0010
0100
0000
0100
0000
0001
0000
0010
0000
,
0100
0000
0001
0000
1000
0000
0010
0100
1000
0000
0001
0000
0010
0000
0001
1000
,
0001
0000
0010
0000
0100
0000
0010
0001
1000
0000
0100
0000
0001
0000
0100
1000
,
0001
0000
0010
0000
0100
0000
1000
0001
1000
0000
0010
0000
1000
0000
0001
0100
,
0010
0100
0001
0000
1001
0000
0000
0000
,
0000
0000
0000
0000
1100
1100
1002
0013
,
0101
0101
2010
3001
0110
0110
0102
1003
,
0011
0000
0011
0000
2001
0000
3100
0000
1000
0000
0100
0000
0010
0000
0001
1000
,
0001
1000
0010
0000
0100
0000
0001
0010
0001
0000
0100
0000
0010
0000
1000
0001
,
0100
0001
1000
0000
0001
0000
1000
0100
0010
0000
0100
0000
1000
0000
0001
0010
,
0001
1000
0100
0000
0010
0000
0001
0010
0100
0000
1000
0000
0010
0000
1000
0001
,
0010
0100
0010
0000
0001
0000
1000
0100
0010
0000
0000
0000
0000
0000
0000
0000
,
0000
0000
0000
0000
0000
0000
0000
0000
1000
0100
0010
0000
0001
0000
1000
0000
,
0100
0010
0001
0000
1000
0000
0001
0010
0100
0000
1001
0000
0012
0000
0000
0000
,
1003
0100
0010
0000
0011
0000
1001
0000
0001
0010
0100
0000
1000
0000
0001
0000
,
0100
0010
0100
0000
0001
0000
1000
0010
0100
0000
0001
0000
1100
0000
0001
1000
,
0001
0100
0110
0000
1002
0000
1003
0001
,
1000
0100
0010
0000
0100
0000
1000
0001
0010
0000
0011
0000
2001
0000
0000
0000
,
3100
0010
0001
0000
0110
0000
1001
0000
0001
0010
0100
0000
1000
0000
0001
0000
,
0100
0001
1000
0000
0010
0000
1000
0100
1000
0000
0001
0000
0210
0000
0000
0000
,
0301
1100
1001
0000
0120
0000
0000
0000
,
0000
0000
2030
0000
,
0000
0000
3002
0000
,
0000
0000
2003
0000
,
0000
0000
3200
0000
,
0000
0000
2300
0000
,
0000
0000
3020
0000
,
0000
0000
2030
0000
,
0000
0000
3001
0001
,
0001
0000
0010
0000
0100
0000
1000
0000
0000
1000
0000
0000
,
1000
0000
0001
0000
1000
0000
0100
0000
0000
0100
0000
0000
,
0100
0000
0000
0100
0000
0000
1000
0000
0001
0000
0000
0001
0000
0000
0100
0000
,
0010
0000
0000
0010
0000
0000
1000
0000
0001
0000
1000
0000
0001
0000
1000
0000
,
0100
1000
0100
1000
0010
0100
0010
0100
,
0001
0100
0001
0100
1000
0100
1000
0100
,
0010
1000
0010
0100
0010
1000
0100
1000
,
0001
0000
0000
0000
0000
0000
0000
0000
0000
0000
0000
0000
0000
0000
0000
0000
0000
0000
0000
0000
0000
0000
0000
0000
0010
0000
0000
0000
0000
0000
0000
0000
0000
0000
0000
0000
0000
0000
0000
0000
0000
0000
0000
0000
0000
0000
0000
0000
0001
0000
0000
0000
0000
0000
0000
0000
0000
0000
0000
0000
0000
0000
0000
0000
0000
0000
0000
0000
0000
0000
0000
0000
0200
0000
0000
0000
0000
0000
0000
0000
0000
0000
0000
0000
0000
0000
0000
0000
0000
0000
0000
0000
0000
0000
0000
0000
0002
0000
0000
0000
0000
0000
0000
0000
0000
0000
0000
0000
0000
0000
0000
0000
0000
0000
0000
0000
0000
0000
0000
0000
0000
0000
0000
0000
0000
0000
0000
0000
0000
0000
0000
0000
0000
0000
0000
0000
0000
0000
0000
0000
0000
0000
0000
0000
0000
0000
0000
0000
0000
0000
0000
0000
0000
0000
0000
0000
0000
0000
0000
0000
0000
0000
0000
0000
0000
0000
0000
0300
0200
0000
0000
0000
0000
0000
0000
0000
0000
0000
0000
0000
0000
0000
0000
0000
0000
0000
0000
0000
0000
0000
0000
0003
,
0002
0000
0000
0000
0000
0000
0000
0000
0000
0000
0000
0000
0000
0000
0000
0000
0000
0000
0000
0000
0000
0000
0000
0000
0000
0000
0000
0000
0000
0000
0000
0000
0000
0000
0000
0000
0000
0000
0000
0000
0000
0000
0000
0000
0000
0000
0000
0000
0000
0000
0000
0000
0000
0000
0000
0000
0000
0000
0000
0000
0000
0000
0000
0000
0000
0000
0000
0000
0000
0000
0000
0300
0200
0000
0000
0000
0000
0000
0000
0000
0000
0000
0000
0000
0000
0000
0000
0000
0000
0000
0000
0000
0000
0000
0000
0003
0002
0000
0000
0000
0000
0000
0000
0000
0000
0000
0000
0000
0000
0000
0000
0000
0000
0000
0000
0000
0000
0000
0000
0000
0000
0000
0000
0000
0000
0000
0000
0000
0000
0000
0000
0000
0000
0000
0000
0000
0000
0000
0000
0000
0000
0000
0000
0000
0000
0000
0000
0000
0000
0000
0000
0000
0000
0000
0000
0000
0000
0000
0000
0000
0000
0000
0000
0000
0000
0000
0000
0000
0000
0000
0000
0000
0000
0000
0000
0000
0000
0000
0000
0000
0000
0000
0000
0000
0000
0000
0000
0000
0000
0000
0000
0000
,
0000
0000
0303
0000
,
0000
0000
0000
0000
0000
0000
0001
0010
0100
0000
1000
0100
0000
1000
0001
1000
,
0001
0000
0100
0010
1000
0000
0001
0000
1000
0000
0001
0010
0100
0000
1100
0000
,
1001
0000
0000
0000
1000
0000
0010
0100
0010
0000
1000
0001
0000
1000
0100
0010
,
0001
0000
0100
0010
0000
1000
0001
1000
0010
0000
1000
0000
0100
0000
0100
0010
,
0001
1000
0100
0000
1000
0000
0000
0000
0001
0010
0100
1000
0001
0000
1000
0000
,
0010
0100
0010
0100
0001
0000
1000
0000
0010
0000
0101
0000
1100
0000
0001
0000
,
2010
0000
0000
0000
3001
0000
0100
0000
0010
0100
0010
0100
0001
0000
1000
0000
,
0001
0100
0010
0100
0001
0000
1000
0000
0001
0010
0001
0010
0100
1000
0100
1000
,
0001
0100
0001
1000
0100
0010
0001
0000
2001
0000
0000
3100
1000
0000
0010
0000
,
0120
0000
0000
0130
0001
0000
1000
0000
2010
0000
0000
3001
0010
0000
0001
0000
,
1000
0100
M000
0100
0001
0000
0010
0000
1002
0000
0000
0103
0010
0000
1000
0000
,
2001
0000
0000
3010
0100
0000
0010
0000
0120
0000
0000
1030
0001
0000
0010
0000
,
0100
0000
1000
0000
0010
1000
0010
1000
0010
0000
1000
0100
1000
0000
0010
0000
,
0100
0000
0001
0010
0100
0000
1000
0000
0001
0000
1000
0100
0010
0000
0010
0000
,
0001
0010
000M
0010
1000
0000
0100
0000
1000
0000
0010
0100
0010
0000
1000
0000
,
0001
0000
0100
0010
0001
0000
0010
0000
1000
0000
0010
0100
1000
0000
0100
0000
,
0001
0000
1000
0000
0010
0100
0010
0100
0010
0000
0000
0000
0000
0000
0000
0000
;

//---------------dance-single - ----------------
#NOTEDATA:;
#CHARTNAME:;
#STEPSTYPE:dance-single;
#DESCRIPTION:;
#CHARTSTYLE:Rajes;
#DIFFICULTY:Hard;
#METER:11;
#RADARVALUES:0.531224,0.719339,0.219184,0.287206,0.260753,492.000000,463.000000,29.000000,38.000000,0.000000,0.000000,0.000000,0.000000,0.000000,0.531224,0.719339,0.219184,0.287206,0.260753,492.000000,463.000000,29.000000,38.000000,0.000000,0.000000,0.000000,0.000000,0.000000;
#CREDIT:Rajes;
#NOTES:
// measure 0
0000
0000
0000
0000
,  // measure 1
0000
0000
0000
0000
,  // measure 2
0000
0000
0000
0000
,  // measure 3
0000
0000
0000
0000
,  // measure 4
0000
0000
0000
0000
1000
0100
1000
0010
,  // measure 5
1000
0001
0100
0000
0002
0000
0000
0000
1003
0000
0001
0000
1000
0001
1000
0000
,  // measure 6
0010
0100
0010
0000
2000
0000
0000
0000
3001
0000
0010
0000
0100
0000
1000
0000
,  // measure 7
0101
0000
0100
1000
1010
0000
0100
0010
,  // measure 8
1001
0000
1100
0000
0010
1000
0010
1000
,  // measure 9
0100
0010
0011
0000
0001
1000
0100
1000
,  // measure 10
0010
0100
0101
0000
0100
0001
1000
0010
,  // measure 11
0100
0000
1000
0000
0001
0000
0010
0000
0100
0000
0001
0000
0010
0000
0001
1000
,  // measure 12
0001
0010
0100
1000
1000
0001
0010
0100
,  // measure 13
1000
0000
0000
0000
0010
0000
1000
0001
0010
0000
0001
0000
0100
0000
0001
0000
,  // measure 14
0000
0001
1000
0100
1000
0010
0100
1000
,  // measure 15
0100
0000
0000
0000
0001
0000
0010
0000
0100
0010
0001
0000
1000
0000
0001
0000
,  // measure 16
0000
0100
0001
0100
0100
0010
1000
0001
,  // measure 17
0001
0100
0010
1000
0001
0010
0100
1000
,  // measure 18
0010
0100
0001
0020
0100
0000
0001
0000
,  // measure 19
0031
1000
0010
0000
1001
0000
0000
0000
,  // measure 20
0000
0000
0000
0000
1000
0010
0100
0001
,  // measure 21
1000
0001
0010
0100
1000
0010
0100
0001
0100
0010
1000
0000
0001
0000
1000
0001
,  // measure 22
0010
0001
0100
0000
0010
1000
0100
0010
0001
0000
0100
0000
0010
0000
1000
0001
,  // measure 23
1000
0000
0100
0000
1000
0000
0010
0000
0001
0000
0010
0000
1000
0000
0010
0100
,  // measure 24
0010
0000
1000
0000
0001
0000
0010
0000
0100
0000
1000
0000
0001
0000
0100
0001
,  // measure 25
1000
0000
0001
0000
0010
0000
1000
0000
0010
0000
0001
0000
1000
0000
0010
1000
,  // measure 26
0010
0000
0100
0000
0001
0000
0000
0000
0010
1000
0000
0000
0002
0000
0000
0000
,  // measure 27
1003
0000
0100
0000
0010
0000
0001
0000
1000
0100
1000
0000
0010
0000
0000
0000
,  // measure 28
2002
0000
3003
0000
1000
0001
1000
0000
0010
0000
0100
0000
0101
0000
0000
0000
,  // measure 29
1000
0001
1000
0000
0010
0000
0100
0000
1100
0000
1000
0000
0001
0000
0000
0000
,  // measure 30
0220
0000
0330
0000
1000
0001
1000
0000
0001
0000
0010
0000
0100
0000
1000
0001
,  // measure 31
0010
0000
0001
0000
0101
0000
0000
0000
1000
0001
1000
0000
0010
0000
0100
0000
,  // measure 32
2002
3003
0011
0000
0100
0010
1010
0000
,  // measure 33
0001
1000
0100
0000
0010
0000
0100
0000
1000
0001
1000
0000
0010
0000
0100
0000
,  // measure 34
0220
0330
0101
0000
0100
0010
1001
0000
,  // measure 35
0011
0000
0001
0000
0100
0010
0100
0000
1001
0000
0000
0000
0000
0000
0000
0000
,  // measure 36
0001
0010
0100
1000
0020
0000
0030
1000
,  // measure 37
0002
0000
0000
0000
0003
0000
0010
0000
0200
0000
0300
0000
2000
0000
0000
3000
,  // measure 38
0000
0000
0001
1000
0002
0000
1003
0010
,  // measure 39
0200
0300
0002
0003
2000
0000
3000
0000
,  // measure 40
0010
0001
0010
0100
2000
0000
0000
3001
,  // measure 41
0200
0000
0000
0301
0020
0000
0031
0000
,  // measure 42
0000
0000
1000
0001
0020
0030
0100
1000
,  // measure 43
0002
0003
2000
3000
0202
0003
0301
0000
,  // measure 44
0010
0000
0001
0000
1000
0000
0010
0000
0000
0010
0000
0000
,  // measure 45
0100
0000
0000
0000
0001
0000
0000
0000
1000
0000
0000
0000
0010
0000
0000
0000
0000
0000
0010
0000
0000
1000
0000
0000
,  // measure 46
0001
0000
0000
1000
0000
0000
0010
0000
0100
0000
0000
1000
0000
0000
0100
0000
,  // measure 47
0010
0000
0000
0100
0000
0000
0001
0000
0010
0000
0000
0000
0000
0000
1000
0000
,  // measure 48
0200
0000
0300
1000
0002
0000
0003
0100
,  // measure 49
0020
0000
0000
0000
0030
0000
1000
0000
0002
0000
0000
0003
0000
0000
0000
0000
,  // measure 50
0002
0000
0000
0013
0200
0000
0000
1300
,  // measure 51
0200
0000
0000
0310
0002
0000
0000
1003
,  // measure 52
0200
0000
0000
0310
0001
0010
0002
0000
,  // measure 53
0000
0000
0003
0000
,  // measure 54
0000
0000
0000
0000
0000
0000
0010
1000
0001
0000
1000
0010
0000
0000
0100
0001
,  // measure 55
0100
0000
0001
1000
0000
0000
0010
0000
1000
0000
0010
0000
0100
0000
0001
0000
,  // measure 56
1001
0000
0000
0000
0000
0000
0001
1000
0001
0000
0100
0010
0000
0000
1000
0010
,  // measure 57
1000
0000
0001
0010
0000
0000
1000
0100
0010
0000
0001
0000
0100
0000
0001
0000
,  // measure 58
1001
0000
1000
0000
0001
0000
1000
0010
1000
0000
0001
0000
0010
0000
0001
1000
,  // measure 59
0001
0000
0001
0100
0000
0000
0001
0000
0010
0000
0100
1000
0001
0000
1000
0000
,  // measure 60
0110
0000
0000
0000
1000
0000
0001
0000
0010
0100
1000
0000
0010
0000
1000
0000
,  // measure 61
0001
0100
0010
0000
1000
0000
0100
0000
1000
0010
1000
0000
0001
0000
0010
0000
,  // measure 62
0001
0000
1000
0000
0010
0100
0010
0000
0010
0000
0000
1000
0010
0000
1000
0000
,  // measure 63
0001
0000
0000
0001
0100
0000
0010
0000
0100
0000
0000
1000
0001
0000
0010
0000
,  // measure 64
0100
1000
0100
0000
0010
0000
0001
0000
1000
0000
0000
1000
0100
0000
1000
0000
,  // measure 65
0010
0000
0000
0001
0100
0000
0010
0000
0100
0000
0000
1000
0100
0000
1000
0000
,  // measure 66
0010
1000
0010
0000
0100
0000
0001
0000
0010
0000
0000
0001
0100
0000
0010
0000
,  // measure 67
0110
0000
0000
1000
0100
0000
0010
0000
0011
0000
0000
0001
1000
0000
0100
0000
,  // measure 68
1000
0001
0010
0000
0100
0000
0001
0000
1001
0000
0000
1000
0010
0000
0100
0000
,  // measure 69
0110
0000
0000
0001
0100
0000
0001
0000
1001
0000
0000
1000
0010
0000
0100
0000
,  // measure 70
0010
0000
0100
0000
0001
1000
0001
0000
0010
0000
0000
0000
0000
0000
0000
0000
;

//---------------dance-single - ----------------
#NOTEDATA:;
#CHARTNAME:;
#STEPSTYPE:dance-single;
#DESCRIPTION:;
#CHARTSTYLE:Rajes;
#DIFFICULTY:Medium;
#METER:9;
#RADARVALUES:0.411375,0.452917,0.090697,0.037790,0.000000,381.000000,369.000000,12.000000,5.000000,0.000000,0.000000,0.000000,0.000000,0.000000,0.411375,0.452917,0.090697,0.037790,0.000000,381.000000,369.000000,12.000000,5.000000,0.000000,0.000000,0.000000,0.000000,0.000000;
#CREDIT:Rajes;
#NOTES:
0000
0000
0000
0000
,
0000
0000
0000
0000
,
0000
0000
0000
0000
,
0000
0000
0000
0000
,
0000
0000
0000
0000
1000
0010
0100
0001
,
1000
0010
1000
0000
0001
1000
0010
0000
,
0100
0001
1000
0001
0010
0000
0001
0000
,
1000
0100
1000
0000
0001
0100
0001
1000
,
0010
0000
1100
0000
0010
0100
0001
1000
,
0100
0010
0001
0000
1000
0001
1000
0001
,
0100
0010
0100
0000
0010
0100
0010
0000
,
1000
0001
1000
0000
0100
1000
0100
1000
,
0001
0100
0001
0000
1000
0001
0010
0100
,
0010
0000
1000
0001
1000
0001
0010
0001
,
0000
0000
1000
0001
1000
0010
0100
0000
,
0010
0000
1000
0001
1000
0001
0010
0001
,
0000
0000
0100
1000
0010
0000
1010
0000
,
0001
0010
0001
0010
0100
0000
1010
0000
,
0001
1000
0001
0010
0200
0000
1000
0000
,
1300
0001
0100
0000
1001
0000
0000
0000
,
0000
0000
0000
0000
1000
0001
2000
3010
,
0100
0010
2000
3001
0100
0010
0200
0301
,
0010
0100
2000
3001
1000
0000
0100
0000
,
0010
0001
0010
0001
1000
0000
0001
0000
,
0100
0010
1000
0001
0010
0000
0001
0000
,
1000
0010
0100
0010
1000
0000
0001
0000
,
1000
0010
1000
0001
0010
0000
0000
0000
,
0000
0000
0000
0000
1000
0100
0010
0000
,
1001
0000
0010
0100
0001
1000
0001
0000
,
0110
0000
1000
0010
1000
0001
0010
0000
,
1001
0000
0001
1000
0010
1000
0001
0100
,
0001
0010
0100
0000
1000
0010
0100
0000
,
0101
0000
0100
0001
1000
0010
1000
0000
,
0110
0000
0001
1000
0001
0100
0010
0000
,
0101
0000
0100
0000
0010
1000
0100
1000
,
0010
1000
0001
0000
1000
0000
0000
0000
,
0001
0010
0100
1000
0001
0000
0000
1000
,
0001
0000
0000
0010
0100
0000
0001
0000
,
0000
0000
0100
0010
0100
0000
0001
1000
,
0001
0100
0010
0000
,
1000
0010
0100
0010
1000
0000
0000
0001
,
1000
0000
0000
0001
0010
0000
0001
0000
,
0000
0000
0100
0010
0100
0000
0001
1000
,
0001
0001
1000
1000
,
0100
0010
0100
0000
0010
0000
0010
0000
,
0001
1000
0001
0000
1000
0000
1000
0000
,
0001
0100
0001
0000
0100
0001
0100
0000
,
0010
1000
0010
0000
1000
0000
1000
0000
,
0100
0010
0100
0000
1000
0000
1000
0000
,
0100
0010
0100
0000
0010
0000
0010
0000
,
0001
1000
0001
0000
0010
0000
0010
0000
,
0001
1000
0001
0000
1000
0000
0000
0010
,
1000
0000
0000
0010
1000
0000
0000
0000
,
0000
0000
0000
0000
,
0000
0000
0000
0000
1000
0001
1000
0000
,
0001
1000
0100
0000
1000
0010
1000
0001
,
0100
0000
0000
0000
1000
0010
1000
0000
,
0001
1000
0001
0000
0100
0010
0100
0001
,
1000
0000
0001
0000
0010
0001
0010
0000
,
0001
1000
0001
0000
0100
0010
1000
0001
,
0010
0000
0001
1000
0100
1000
0001
0100
,
0010
0100
0001
0000
1000
0100
1000
0100
,
0010
0001
1000
0001
1000
0000
0001
0010
,
0100
0000
1000
0100
0010
0000
0001
0100
,
0001
0010
0100
1000
0001
0000
0001
0010
,
0001
0000
1000
0010
1000
0000
0110
0000
,
1000
0001
0010
0001
0100
0000
0001
0010
,
0001
0000
1000
0100
1000
0000
0100
1000
,
0001
1000
0100
0010
0001
0000
0001
0010
,
0001
0000
1000
0100
1000
0000
1010
0000
,
0001
0010
0100
1000
0100
0000
0000
0000
;

//---------------dance-single - ----------------
#NOTEDATA:;
#CHARTNAME:;
#STEPSTYPE:dance-single;
#DESCRIPTION:;
#CHARTSTYLE:Rajes;
#DIFFICULTY:Easy;
#METER:5;
#RADARVALUES:0.250496,0.346348,0.060465,0.000000,0.000000,232.000000,224.000000,8.000000,0.000000,0.000000,0.000000,0.000000,0.000000,0.000000,0.250496,0.346348,0.060465,0.000000,0.000000,232.000000,224.000000,8.000000,0.000000,0.000000,0.000000,0.000000,0.000000,0.000000;
#CREDIT:Rajes;
#NOTES:
0000
0000
0000
0000
,
0000
0000
0000
0000
,
0000
0000
0000
0000
,
0000
0000
0000
0000
,
0000
0000
1000
1000
,
0001
0100
0000
0010
,
0010
1000
0000
1000
,
0100
0010
0001
1000
,
0010
1000
0001
0001
,
0010
0100
1000
1000
,
0010
0100
0000
0001
,
0010
0100
1000
0001
,
1000
0010
1000
0100
,
0010
0001
1000
0010
,
0000
1000
0100
0010
,
0001
1000
0010
1000
,
0000
0100
1000
0100
,
0010
0001
1000
0001
,
1000
0100
1000
0000
,
0010
0000
1000
0000
,
0000
0000
0000
0000
1000
1000
0100
0000
,
0001
0001
0010
0000
1000
1000
0001
0000
,
0010
0010
0100
0000
1000
0000
1000
0000
,
0010
0000
1000
1000
,
0001
0000
0010
0001
,
0010
0100
1000
0010
,
1000
0000
0001
0000
,
0000
0000
1000
0100
,
0010
0001
1000
0010
,
1010
0000
0001
0010
,
0100
1000
0010
1000
,
0001
1000
0100
0010
,
0001
1000
0010
1000
,
1010
0000
0001
1000
,
0100
0010
0001
1000
,
1010
0000
1000
0000
,
0100
0010
0001
0000
,
1000
0000
0010
0000
,
1000
0100
0010
0000
,
0001
1000
0001
0000
,
1000
1000
0100
0000
,
1000
0000
0010
0010
,
1000
0000
0001
0010
,
0100
1000
0010
0000
,
1000
0100
0010
0000
,
0001
0010
0100
0000
,
1000
0001
1000
0100
,
1000
0100
0010
0000
,
0001
0001
1000
0000
,
0100
0100
1000
0000
,
0001
1000
0001
1000
,
0100
1000
1000
0010
,
1000
0010
1000
0000
,
0000
0000
0000
0000
,
0000
0000
1000
0100
,
0010
0001
1000
0010
,
1010
0000
0001
0010
,
0100
1000
0010
1000
,
1010
0000
0001
0010
,
0001
1000
0100
1000
,
0010
0100
0001
0010
,
0001
1000
0100
0100
,
1000
1000
0010
1000
,
0001
0010
0100
1000
,
0110
0000
1000
0001
,
0010
0100
1000
0010
,
1000
1000
0100
0010
,
0001
1000
0010
1000
,
0110
0000
1000
0001
,
0010
0100
1000
1000
,
0010
1000
1001
0000
;

//---------------dance-single - ----------------
#NOTEDATA:;
#CHARTNAME:;
#STEPSTYPE:dance-single;
#DESCRIPTION:;
#CHARTSTYLE:;
#DIFFICULTY:Beginner;
#METER:2;
#RADARVALUES:0.092856,0.133211,0.000000,0.068023,0.000000,86.000000,86.000000,0.000000,9.000000,0.000000,0.000000,0.000000,0.000000,0.000000,0.092856,0.133211,0.000000,0.068023,0.000000,86.000000,86.000000,0.000000,9.000000,0.000000,0.000000,0.000000,0.000000,0.000000;
#CREDIT:;
#NOTES:
0000
0000
0000
0000
,
0000
0000
0000
0000
,
0000
0000
0000
0000
,
0000
0000
0000
0000
,
0000
0000
1000
0000
,
1000
0000
0001
0000
,
0001
0000
0010
0000
,
0010
0000
0001
0000
,
0001
0000
0100
0000
,
0100
0000
0001
0000
,
0001
0000
1000
0000
,
1000
0000
1000
0000
,
1000
0000
0001
0000
,
0000
0000
0001
0000
,
0001
0000
1000
0000
,
0000
0000
0010
0000
,
0010
0000
1000
0000
,
0000
0000
0001
0000
,
0001
0000
0100
0000
,
0000
0000
0000
0000
,
0000
0000
1000
0000
,
1000
0000
1000
0000
,
0001
0000
0001
0000
,
0000
0000
1000
0000
,
0000
0000
1000
0000
,
0000
0000
0001
0000
,
0000
0000
0100
0000
,
0000
0000
0002
0000
,
0000
0000
1003
0000
,
0000
0000
2000
0000
,
0000
0000
3001
0000
,
0000
0000
0020
0000
,
0000
0000
0031
0000
,
0000
0000
0200
0000
,
0000
0000
0301
0000
,
0000
0000
2000
0000
,
0000
0000
0000
0000
,
0000
0000
3002
0000
,
0000
0000
0000
0000
,
0000
0000
0023
0000
,
0000
0000
0000
0000
,
0000
0000
0032
0000
,
0000
0000
0000
0000
,
0000
0000
1003
0000
,
1000
0000
0001
0000
,
0001
0000
0010
0000
,
0010
0000
0001
0000
,
0001
0000
1000
0000
,
1000
0000
0001
0000
,
0001
0000
0100
0000
,
0100
0000
0200
0000
,
0000
0000
0000
0000
,
0000
0000
0000
0000
,
0000
0000
0300
0000
,
0000
0000
0000
0000
,
0000
0000
1000
0000
,
0000
0000
0001
0000
,
0000
0000
0100
0000
,
0000
0000
0001
0000
,
0000
0000
1000
0000
,
0000
0000
0001
0000
,
0000
0000
1000
0000
,
0000
0000
0010
0000
,
0010
0000
0010
0000
,
0010
0000
1000
0000
,
1000
0000
1000
0000
,
1000
0000
0001
0000
,
0001
0000
0001
0000
,
0001
0000
0100
0000
,
0100
0000
0001
0000
,
0001
0000
1000
0000
;
