#TITLE:Strawberry Rush;
#SUBTITLE:;
#ARTIST:Chuu;
#TITLETRANSLIT:;
#SUBTITLETRANSLIT:;
#ARTISTTRANSLIT:;
#GENRE:;
#CREDIT:;
#BANNER:AV.avi;
#BACKGROUND:bg.png;
#LYRICSPATH:;
#CDTITLE:;
#MUSIC:audio.ogg;
#OFFSET:-0.052000;
#SAMPLESTART:38.688015;
#SAMPLELENGTH:14.999999;
#SELECTABLE:YES;
#BPMS:0.000000=158.000000
;
#STOPS:
;
#BGCHANGES:0.000=MV.avi=0.800=1=0=1===CrossFade==,
5.000=MV.avi=1.000=0=0=1=====,
99999=-nosongbg-=1.000=0=0=0 // don't automatically add -songbackground-
;
#KEYSOUNDS:;
#ATTACKS:;

//---------------dance-single - ----------------
#NOTES:
     dance-single:
     :
     Challenge:
     10:
     0.493515,0.702393,0.216454,0.554122,0.082253,399.000000,374.000000,25.000000,64.000000,0.000000,0.000000,0.493515,0.702393,0.216454,0.554122,0.082253,399.000000,374.000000,25.000000,64.000000,0.000000,0.000000:
0000
0000
0000
0000
,
0000
0000
0000
0000
,
0000
0000
0000
0000
,
0000
0000
0000
0000
,
0000
0000
0000
0000
,
0000
0000
0000
0000
,
0000
0000
0000
0000
,
0000
0000
0000
0000
,
0000
0000
0000
0000
,
0000
0000
0000
0000
,
1000
0000
1000
0000
1000
0001
0100
0001
,
0020
0032
0103
1001
,
0010
0000
1100
0000
0010
0100
0001
0010
,
0100
1000
0010
0100
0002
0103
0020
0130
,
0002
0003
1001
0000
0010
0100
1000
0100
,
0001
0010
0200
0000
0010
0000
1300
0000
,
0001
0000
0000
0000
1000
0000
0100
0000
0010
0000
0000
0100
0000
0000
0010
0000
,
0001
0000
0000
1000
0000
0000
0010
0000
0100
0000
0010
0000
0010
0000
0010
0000
,
0100
0000
0000
0000
1001
0000
0000
0000
0010
1000
0010
0000
0100
0000
0000
0100
,
0001
0000
0100
0000
0010
0000
1000
0000
0001
1000
0001
0010
0100
0000
0000
0000
,
0001
1000
0001
0010
0100
0000
0000
0000
0001
1000
0001
0010
0100
0000
0000
0000
,
0001
1000
0001
0010
0100
0000
0100
0000
0100
0000
0100
0000
0010
0000
0000
0000
,
1001
0000
0000
0000
1000
0100
0010
0100
1000
0000
0000
0000
1000
0100
0010
0100
,
1000
0000
0000
0000
1000
0100
0010
0100
1000
0000
1000
0000
1000
0000
0000
0000
,
0001
0000
1000
0000
0010
0100
0001
0000
,
0101
0000
0101
0000
1000
0010
1000
0200
,
0010
0000
0310
0001
0100
0010
0100
2000
,
0100
0000
3100
0000
0001
0010
0100
0010
,
0002
0000
2003
0000
3020
0000
1030
0001
,
0200
0000
0301
1000
0010
0100
0001
1000
,
0001
0010
1000
0010
0001
0100
0001
0010
,
1000
0010
0001
1000
0200
0000
2300
0000
,
3020
0000
0230
0000
0302
0000
0103
0020
,
1000
0000
1030
0001
0000
1001
0000
1001
,
2000
0000
3100
0010
0100
0001
0100
2000
,
0010
0000
3010
0100
1000
0100
0010
1000
,
0002
0000
0023
0000
0230
0000
1300
0010
,
2000
0000
3010
1000
0001
0010
0001
1000
,
0010
0100
1000
0100
0010
1000
0010
0100
,
1000
0100
0010
1000
0002
0000
0013
0000
,
1100
0000
1100
0000
1000
0000
0001
1000
,
0020
0000
1030
0000
0001
0100
0010
1000
,
0002
0000
0023
0000
0230
0000
0310
0001
,
2000
0000
3020
0000
0230
0000
0301
1000
,
0002
0000
0023
0000
0230
0000
0310
0100
,
2000
0000
3001
1000
0020
0000
1030
0001
,
0200
0000
0301
0010
0200
0000
0310
0001
,
2000
0000
3010
1000
0002
0000
0103
0001
,
2000
3020
2030
3020
,
2030
0000
0000
0000
,
3002
0000
0000
0000
0103
0010
0200
0000
,
0320
0000
1030
1000
,
0002
0000
0023
0000
0230
0000
1300
0200
,
0000
0300
1000
1000
,
0001
1000
0010
1000
0100
0010
0001
1000
,
0010
1000
0100
0010
0002
0000
2003
0000
,
3020
0000
0000
0000
,
0130
0000
0000
0000
0000
0000
0000
0000
0010
0000
0000
0100
0010
0000
0100
0000
,
1002
0000
0103
0010
1000
0001
0010
0002
,
1000
0000
1003
0010
0100
1000
0100
0001
,
0020
0000
0032
0000
2003
0000
3010
1000
,
0200
0000
1300
0001
0100
0010
1000
0100
,
0010
1000
0010
0100
1000
0010
1000
0100
,
0010
0001
0100
0010
0200
0000
0301
0000
,
1001
0000
0110
0000
,
1001
0000
0110
0000
1000
0001
1000
0001
,
1000
0000
0110
0000
0001
0010
1000
0010
,
0001
0000
0011
0000
1000
1000
0001
0000
,
0100
0000
0110
0000
1000
0100
0001
0100
,
1000
0000
1001
0000
0010
0010
0100
0000
,
0001
0000
1100
0000
0001
1000
0010
0100
,
0010
0000
1001
0000
0010
1000
0100
0000
,
0110
0000
0110
0000
0010
0000
0100
1000
,
0020
1030
0100
1001
;

//---------------dance-single - ----------------
#NOTES:
     dance-single:
     :
     Hard:
     8:
     0.442803,0.574685,0.164505,0.510831,0.000000,358.000000,339.000000,19.000000,59.000000,0.000000,0.000000,0.442803,0.574685,0.164505,0.510831,0.000000,358.000000,339.000000,19.000000,59.000000,0.000000,0.000000:
// measure 0
0000
0000
0000
0000
,  // measure 1
0000
0000
0000
0000
,  // measure 2
0000
0000
0000
0000
,  // measure 3
0000
0000
0000
0000
,  // measure 4
0000
0000
0000
0000
,  // measure 5
0000
0000
0000
0000
,  // measure 6
0000
0000
0000
0000
,  // measure 7
0000
0000
0000
0000
,  // measure 8
0000
0000
0000
0000
,  // measure 9
0000
0000
0000
0000
,  // measure 10
1000
0000
1000
0000
1000
0000
0001
1000
,  // measure 11
0010
0100
0002
0000
0013
0000
0110
0000
,  // measure 12
0100
0000
1000
0000
0010
1000
0001
0000
,  // measure 13
0010
0001
0100
0000
0010
0000
0010
0000
,  // measure 14
1000
0000
0001
0000
1000
0001
0010
0100
,  // measure 15
1000
0002
0103
0101
,  // measure 16
1000
0000
0010
0000
1000
0100
0010
0100
,  // measure 17
1000
0001
0100
0001
1000
0010
0100
0010
,  // measure 18
1000
0000
1100
0000
1000
0100
0010
0000
,  // measure 19
0001
1000
0001
0100
0010
0010
0110
0000
,  // measure 20
0100
0100
0110
0000
0010
0010
0110
0000
,  // measure 21
1000
0100
0010
0100
0010
0100
0110
0000
,  // measure 22
0001
0000
1000
1000
1001
0000
0001
0001
,  // measure 23
1001
0000
0001
0010
0100
0010
0100
0000
,  // measure 24
0110
0002
2003
3010
,  // measure 25
1001
0000
0110
0000
0001
0010
0100
1000
,  // measure 26
0020
0000
1030
0001
0010
0001
0100
0010
,  // measure 27
2000
0000
3010
0000
1000
0100
0010
0001
,  // measure 28
2000
0000
3002
0000
0023
0000
0031
0010
,  // measure 29
0200
0000
1300
0010
0100
1000
0100
0010
,  // measure 30
1000
0001
0010
0001
1000
0010
1000
0001
,  // measure 31
0010
0001
1000
0100
2000
0000
3020
0000
,  // measure 32
0230
0000
0302
0000
2003
0000
3001
0010
,  // measure 33
0200
0000
0310
0001
0000
1000
0000
1000
,  // measure 34
0002
0000
0103
0010
1000
0100
0010
0002
,  // measure 35
1000
0000
1003
0010
1000
0100
0001
0100
,  // measure 36
2000
0000
3020
0000
0230
0000
0301
0100
,  // measure 37
0020
0000
1030
0100
0010
0001
1000
0010
,  // measure 38
1000
0100
0010
0100
1000
0010
1000
0100
,  // measure 39
0010
0100
1000
0010
0200
0000
0301
0000
,  // measure 40
0100
0000
0200
0000
0302
0000
0013
0001
,  // measure 41
2000
0000
3010
0000
0100
0001
0010
0001
,  // measure 42
2000
0000
3020
0000
0230
0000
0310
0100
,  // measure 43
0020
0000
2030
0000
3002
0000
1003
0001
,  // measure 44
2000
0000
3020
0000
0230
0000
0310
0100
,  // measure 45
0002
0000
0023
0000
0032
0000
0103
0010
,  // measure 46
0200
0000
0320
0000
2030
0000
3100
0010
,  // measure 47
0002
2003
3020
2030
,  // measure 48
3002
0000
0000
0000
,  // measure 49
0203
0000
0000
0000
,  // measure 50
0301
0001
0001
0001
,  // measure 51
1000
1000
1000
1000
,  // measure 52
0010
0100
0010
0100
,  // measure 53
0002
0000
0103
0100
,  // measure 54
0001
0010
0001
0000
1000
0100
1000
0000
,  // measure 55
0010
0100
0010
0000
1000
0000
0100
0000
,  // measure 56
0020
0000
0000
0000
,  // measure 57
0130
0000
0000
0000
,  // measure 58
1001
0000
0010
1000
0001
0010
0100
1000
,  // measure 59
0002
0000
1003
0010
0100
0001
0100
1000
,  // measure 60
0200
0000
0310
0000
1000
0000
0001
1000
,  // measure 61
0020
0000
0130
0000
0001
1000
0100
1000
,  // measure 62
0001
0010
0100
1000
0010
1000
0001
0010
,  // measure 63
0001
1000
0010
0100
0002
0000
1003
0000
,  // measure 64
1001
0000
0110
0000
,  // measure 65
1001
0000
0110
0000
1000
0100
1000
0100
,  // measure 66
0010
0000
0110
0000
0001
1000
0010
0100
,  // measure 67
0002
0000
0013
0000
0001
0100
0001
0000
,  // measure 68
2000
0000
3010
0000
1000
0100
0010
0001
,  // measure 69
2000
0000
3001
0000
1000
0100
0001
0100
,  // measure 70
0020
0000
0031
0000
0100
0001
0100
0000
,  // measure 71
0020
0000
1030
0000
0100
0010
0100
0000
,  // measure 72
1000
0000
1000
0000
0001
0000
0100
0010
,  // measure 73
0200
0301
0010
1001
;

//---------------dance-single - ----------------
#NOTES:
     dance-single:
     :
     Medium:
     6:
     0.342616,0.446977,0.103898,0.294377,0.000000,277.000000,265.000000,12.000000,34.000000,0.000000,0.000000,0.342616,0.446977,0.103898,0.294377,0.000000,277.000000,265.000000,12.000000,34.000000,0.000000,0.000000:
0000
0000
0000
0000
,
0000
0000
0000
0000
,
0000
0000
0000
0000
,
0000
0000
0000
0000
,
0000
0000
0000
0000
,
0000
0000
0000
0000
,
0000
0000
0000
0000
,
0000
0000
0000
0000
,
0000
0000
0000
0000
,
0000
0000
0000
0000
,
1000
1000
1000
0001
,
0100
0020
0000
0130
,
0001
0000
0010
0000
0001
1000
0001
0000
,
0100
0010
0100
0100
,
0100
0000
0110
0000
0001
1000
0001
0000
,
0010
0200
0000
0310
,
0001
0000
1000
0000
0010
1000
0010
0000
,
0100
0001
0100
0000
0001
0000
1001
0000
,
0010
0000
0010
0000
1000
0010
1000
0000
,
0001
0100
0010
0100
0001
0010
0100
0000
,
0010
0100
1000
0000
0010
0100
0001
0000
,
0010
0100
1000
0100
1000
0100
0010
0000
,
0001
0001
1001
0001
,
1001
0000
0010
0000
1000
0010
1000
0000
,
0010
0100
0001
0010
,
0110
1001
0010
0100
,
0002
0000
1003
0010
0100
0001
0010
0100
,
2000
0000
3010
0000
1000
0001
1000
0000
,
0010
0010
0100
0001
,
0020
0000
0031
0000
1000
0001
1000
0000
,
0010
0100
0010
0000
1000
0001
1000
0000
,
0010
0100
0010
0000
1000
0000
0100
0000
,
0020
0000
0032
0000
,
0103
0000
0100
0000
0010
0100
0010
0000
,
2000
0000
3100
0000
1000
0100
0010
0000
,
0002
0000
0103
0000
0010
0100
0001
0000
,
1000
1000
0001
0001
,
0020
0000
0130
0000
0010
0100
0010
0000
,
0001
1000
0010
0000
1000
0001
0010
0000
,
0001
1000
0010
0000
1000
0000
0001
0000
,
0200
0000
0320
0000
,
1030
0000
1000
0000
0001
1000
0001
0000
,
0100
0010
2000
0000
,
3010
0100
0002
0000
,
0013
0100
0020
0000
,
0031
1000
0020
0000
,
1030
0100
2000
0000
,
3010
0100
0002
0000
,
0023
0000
0000
0000
,
0000
0000
0000
0000
,
0032
0000
1003
1000
,
2000
0000
3010
0010
,
0020
0000
0230
0000
,
0302
0000
0013
0010
,
0100
0010
0100
0000
1000
0100
1000
0000
,
0001
0100
0001
0000
1000
0000
0010
0000
,
2000
0000
0000
0000
,
3100
0000
0001
0000
,
1010
0000
0001
0000
0100
0010
0100
0000
,
0002
0000
0013
0000
0100
0010
0100
0000
,
1000
0000
0001
0000
0100
0000
0010
1000
,
0002
0000
0013
0000
0100
0010
0100
0000
,
1000
0001
1000
0000
0010
0100
0001
0000
,
0010
0100
0010
0000
0001
0000
1000
0000
,
1010
0000
0101
0000
,
1010
0000
1010
0000
0001
0100
0001
0000
,
0020
0000
0000
0000
0130
0000
0100
0010
,
0200
0000
0000
0000
1300
0001
1000
0000
,
0020
0000
0000
0000
1030
0000
1000
0001
,
0200
0000
0000
0000
0301
0010
0001
0000
,
0200
0000
0000
0000
0310
0000
1000
0001
,
2000
0000
3010
0100
,
0001
0000
0001
0000
0010
0000
0001
0010
,
0200
0000
0310
1001
;

//---------------dance-single - ----------------
#NOTES:
     dance-single:
     :
     Easy:
     4:
     0.204085,0.286369,0.025974,0.242428,0.000000,165.000000,162.000000,3.000000,28.000000,0.000000,0.000000,0.204085,0.286369,0.025974,0.242428,0.000000,165.000000,162.000000,3.000000,28.000000,0.000000,0.000000:
0000
0000
0000
0000
,
0000
0000
0000
0000
,
0000
0000
0000
0000
,
0000
0000
0000
0000
,
0000
0000
0000
0000
,
0000
0000
0000
0000
,
0000
0000
0000
0000
,
0000
0000
0000
0000
,
0000
0000
0000
0000
,
0000
0000
0000
0000
,
1000
0000
0000
0000
,
1000
0000
0000
0000
,
0001
0000
0100
0000
,
0001
0010
0001
1000
,
0010
0000
1000
0000
,
0001
0100
0010
0000
,
1000
0000
0001
0000
,
0100
0001
0010
0000
,
0100
0100
0010
0000
,
0001
1000
0010
0000
,
1000
0001
0010
0000
,
0001
1000
0010
0010
,
0200
0000
0301
0000
,
0002
0000
0103
0001
,
0100
0000
0100
0000
,
0010
0000
0010
1000
,
0020
0000
1030
0001
,
0200
0000
0301
0010
,
0001
1000
0010
1000
,
0200
0000
0310
0000
,
0001
0010
0001
0010
,
0001
1000
0100
1000
,
0020
0000
0130
0000
,
0200
0000
0310
1000
,
0002
0000
0013
0100
,
2000
0000
3010
0100
,
0002
0000
2003
0000
,
3020
0000
0130
0010
,
1000
0001
1000
0001
,
0100
0010
1000
0001
,
0020
0000
0230
0000
,
0320
0000
0130
1000
,
0001
0000
0002
0000
,
0103
0000
0200
0000
,
0310
0000
0020
0000
,
1030
0000
2000
0000
,
3001
0000
0002
0000
,
0103
0000
0100
0000
,
0020
0000
0000
0000
,
0230
0000
0000
0000
,
0301
0000
0001
0000
,
0001
0000
0001
0000
,
1000
0000
1000
0000
,
1000
0000
1000
0000
,
0010
0100
0010
0000
,
0100
0010
0100
0000
,
0002
0000
0000
0000
,
1003
0000
0000
0000
,
1001
0000
0001
1000
,
0002
0000
0013
0100
,
0010
0000
0010
0000
,
0200
0000
1300
0000
,
0001
1000
0010
0000
,
1000
0001
0010
0000
,
0001
0000
0001
0000
,
1000
0000
1001
0000
,
0010
0100
0010
0100
,
0020
0000
1030
0000
,
1000
0001
1000
0001
,
2000
0000
3001
0000
,
0100
0010
0100
0010
,
0200
0000
0310
0000
,
1000
0000
1000
0000
,
0001
0000
1001
0000
;

//---------------dance-single - ----------------
#NOTES:
     dance-single:
     :
     Beginner:
     1:
     0.129872,0.190912,0.017316,0.199138,0.000000,105.000000,103.000000,2.000000,23.000000,0.000000,0.000000,0.129872,0.190912,0.017316,0.199138,0.000000,105.000000,103.000000,2.000000,23.000000,0.000000,0.000000:
0000
0000
0000
0000
,
0000
0000
0000
0000
,
0000
0000
0000
0000
,
0000
0000
0000
0000
,
0000
0000
0000
0000
,
0000
0000
0000
0000
,
0000
0000
0000
0000
,
0000
0000
0000
0000
,
0000
0000
0000
0000
,
0000
0000
0000
0000
,
1000
0000
0000
0000
,
0001
0000
0000
0000
,
0100
0000
0100
0000
,
0010
0000
0000
0000
,
1000
0000
0001
0000
,
1000
0000
0000
0000
,
0010
0000
0100
0000
,
0010
0000
0000
0000
,
1000
0000
1000
0000
,
0001
0000
0001
0000
,
1000
0000
1000
0000
,
0001
0000
0001
0000
,
0100
0000
0100
0000
,
0010
0000
0010
0000
,
0100
0000
0001
0000
,
0010
0000
0000
0000
,
0002
0000
1003
0000
,
2000
0000
3001
0000
,
0100
0000
0100
0000
,
0002
0000
0013
0000
,
0001
0000
0001
0000
,
1000
0000
1000
0000
,
0020
0000
0000
0000
,
0130
0000
0000
0000
,
0200
0000
0310
0000
,
0020
0000
0130
0000
,
1000
0000
1000
0000
,
0002
0000
0103
0000
,
0001
0000
0001
0000
,
1000
0000
1000
0000
,
0010
0000
0010
0000
,
0200
0000
0301
0000
,
0001
0000
0002
0000
,
0013
0000
0020
0000
,
0130
0000
0200
0000
,
1300
0000
2000
0000
,
3010
0000
0020
0000
,
0130
0000
0100
0000
,
0002
0000
0000
0000
,
0000
0000
0000
0000
,
2003
0000
0000
0000
,
0000
0000
0000
0000
,
3020
0000
0000
0000
,
0000
0000
0000
0000
,
0230
0000
0000
0000
,
0000
0000
0000
0000
,
0302
0000
0000
0000
,
0003
0000
0000
0000
,
1001
0000
0001
0000
,
0200
0000
0301
0000
,
0010
0000
0010
0000
,
0200
0000
0310
0000
,
0001
0000
1000
0000
,
0001
1000
0001
0000
,
0001
0000
0001
0000
,
0100
0000
0100
0000
,
0020
0000
0000
0000
,
1030
0000
1000
0000
,
2000
0000
0000
0000
,
3010
0000
0010
0000
,
0200
0000
0000
0000
,
0301
0000
0001
0000
,
1000
0000
1000
0000
,
0001
0000
1001
0000
;
