#TITLE:Strategy;
#SUBTITLE:;
#ARTIST:TWICE feat. Megan Thee Stallion;
#TITLETRANSLIT:;
#SUBTITLETRANSLIT:;
#ARTISTTRANSLIT:;
#GENRE:;
#CREDIT:;
#BANNER:AV.avi;
#BACKGROUND:BG.png;
#LYRICSPATH:;
#CDTITLE:;
#MUSIC:audio.ogg;
#OFFSET:-0.327000;
#SAMPLESTART:46.612415;
#SAMPLELENGTH:14.999995;
#SELECTABLE:YES;
#BPMS:0.000000=110.000000
;
#STOPS:
;
#BGCHANGES:0.000=MV.avi=1.200=1=0=1===CrossFade==,
2.000=MV.avi=1.000=0=0=1=====,
99999=-nosongbg-=1.000=0=0=0 // don't automatically add -songbackground-
;
#KEYSOUNDS:;
#ATTACKS:;

//---------------dance-single - ----------------
#NOTES:
     dance-single:
     :
     Challenge:
     15:
     0.693614,0.637569,0.426527,0.575812,0.586475,683.000000,623.000000,60.000000,81.000000,0.000000,0.000000,0.693614,0.637569,0.426527,0.575812,0.586475,683.000000,623.000000,60.000000,81.000000,0.000000,0.000000:
// measure 0
0000
0000
0000
0000
,  // measure 1
0000
0000
0000
0000
,  // measure 2
0000
0000
0000
0000
,  // measure 3
0000
0000
0000
0000
,  // measure 4
0000
0000
1001
0010
1001
0010
1001
0010
,  // measure 5
1000
0000
0000
0000
0000
0000
0000
0000
0000
0000
0000
0000
0000
0000
0000
0000
0000
0000
0000
0000
0000
0000
0000
0000
0100
0000
0000
0000
0000
0000
0000
0000
0000
0000
0000
0000
0000
0000
0000
0000
0000
0000
0000
0000
0000
0000
0000
0000
2000
0000
0000
0000
0000
0000
0000
0000
0000
0000
0000
0000
0000
0000
0000
0000
0000
0000
0000
0000
0000
0000
0000
0000
0010
0000
0000
0000
0000
0000
0000
0000
0000
0000
0000
0000
0000
0000
0000
0000
0000
0000
0000
0000
0000
0000
0000
3000
1010
0000
0000
0000
0000
0000
0000
0000
0000
0000
0000
0000
0000
0000
0000
0000
0000
0000
0000
0000
0000
0000
0000
0000
1000
0000
0000
0000
0000
0000
0000
0000
0000
0000
0000
0000
0001
0000
0000
0000
0000
0000
0000
0000
0000
0000
0000
0000
1000
0000
0000
0000
0000
0000
0000
0000
0000
0000
0000
0000
0100
0000
0000
0000
0000
0000
0000
0000
0000
0000
0000
0000
0001
0000
0000
0000
0000
0000
0000
0000
0000
0000
0000
0000
0100
0000
0000
0000
0000
0000
0000
0000
0000
0000
0000
0000
,  // measure 6
1000
0000
0001
1000
0010
1000
0002
0000
0203
0000
0310
0100
1000
0100
0001
0000
,  // measure 7
1000
0000
0000
0000
0000
0000
0000
0000
0000
0000
0000
0000
0100
0000
0000
0000
0000
0000
0000
0000
0000
0000
0000
0000
1000
0000
0000
0000
0000
0000
0000
0000
0000
0000
0000
0000
0000
0000
0000
0000
0000
0000
0000
0000
0000
0000
0000
0000
0002
0000
0000
0000
0000
0000
0000
0000
0000
0000
0000
0000
0000
0000
0000
0000
0000
0000
0000
0000
0000
0000
0000
0000
0100
0000
0000
0000
0000
0000
0000
0000
0000
0000
0000
0000
0000
0000
0000
0000
0000
0000
0000
0000
0000
0000
0000
0003
1001
0000
0000
0000
0000
0000
0000
0000
0000
0000
0000
0000
0000
0000
0000
0000
0000
0000
0000
0000
0000
0000
0000
0000
0001
0000
0000
0000
0000
0000
0000
0000
0000
0000
0000
0000
0010
0000
0000
0000
0000
0000
0000
0000
0000
0000
0000
0000
0100
0000
0000
0000
0000
0000
0000
0000
0000
0000
0000
0000
0010
0000
0000
0000
0000
0000
0000
0000
0000
0000
0000
0000
0001
0000
0000
0000
0000
0000
0000
0000
0000
0000
0000
0000
1000
0000
0000
0000
0000
0000
0000
0000
0000
0000
0000
0000
,  // measure 8
0001
0000
1000
0001
0010
0100
2000
0000
3010
0100
0020
0000
2030
0000
3001
0100
,  // measure 9
0001
0000
0000
0000
0000
0000
0000
0000
0000
0000
0000
0000
0010
0000
0000
0000
0000
0000
0000
0000
0000
0000
0000
0000
0100
0000
0000
0000
0000
0000
0000
0000
0000
0000
0000
0000
0000
0000
0000
0000
0000
0000
0000
0000
0000
0000
0000
0000
2000
0000
0000
0000
0000
0000
0000
0000
0000
0000
0000
0000
0000
0000
0000
0000
0000
0000
0000
0000
0000
0000
0000
0000
0010
0000
0000
0000
0000
0000
0000
0000
0000
0000
0000
0000
0000
0000
0000
0000
0000
0000
0000
0000
0000
0000
3000
0000
1001
0000
0000
0000
0000
0000
0000
0000
0000
0000
0000
0000
0000
0000
0000
0000
0000
0000
0000
0000
0000
0000
0000
0000
0100
0000
0000
0000
0000
0000
0000
0000
0000
0000
0000
0000
0010
0000
0000
0000
0000
0000
0000
0000
0000
0000
0000
0000
1000
0000
0000
0000
0000
0000
0000
0000
0000
0000
0000
0000
0001
0000
0000
0000
0000
0000
0000
0000
0000
0000
0000
0000
0100
0000
0000
0000
0000
0000
0000
0000
0000
0000
0000
0000
0001
0000
0000
0000
0000
0000
0000
0000
0000
0000
0000
0000
,  // measure 10
0010
0000
0001
1000
0002
0003
2000
3000
1100
0000
0001
0100
0002
0003
0200
0300
,  // measure 11
0110
0000
0001
0000
0020
0000
0001
0000
0130
1000
0100
0010
0002
0000
1003
0000
,  // measure 12
0001
0100
0010
0000
1001
0000
0100
0000
1001
0000
0100
0000
1001
0000
0100
0000
,  // measure 13
0001
0000
0000
0000
0000
0000
0000
0000
0000
0000
0000
0000
1000
0000
0000
0000
0000
0000
0000
0000
0000
0000
0000
0000
0002
0000
0000
0000
0000
0000
0000
0000
0000
0000
0000
0000
0000
0000
0000
0000
0000
0000
0000
0000
0000
0000
0000
0000
0003
0000
0000
0000
0000
0000
0000
0000
0000
0000
0000
0000
0000
0000
0000
0000
0000
0000
0000
0000
0000
0000
0000
0000
1000
0000
0000
0000
0000
0000
0000
0000
0000
0000
0000
0000
0100
0000
0000
0000
0000
0000
0000
0000
0000
0000
0000
0000
0020
0000
0000
0000
0000
0000
0000
0000
0000
0000
0000
0000
0000
0000
0000
0000
0000
0000
0000
0000
0000
0000
0000
0000
0000
0000
0000
0000
0000
0000
0000
0000
0000
0000
0000
0000
0000
0000
0000
0000
0000
0000
0000
0000
0000
0000
0000
0030
0010
0000
0000
0000
0000
0000
0000
0000
0000
0000
0000
0000
0100
0000
0000
0000
0000
0000
0000
0000
0000
0000
0000
0000
1000
0000
0000
0000
0000
0000
0000
0000
0000
0000
0000
0000
0000
0000
0000
0000
0000
0000
0000
0000
0000
0000
0000
0000
,  // measure 14
1001
0000
0010
0100
0010
0000
1000
0000
0200
0000
1000
0000
0310
0001
1000
0001
,  // measure 15
0010
0000
0000
0000
0000
0000
0000
0000
0000
0000
0000
0000
0100
0000
0000
0000
0000
0000
0000
0000
0000
0000
0000
0000
1000
0000
0000
0000
0000
0000
0000
0000
0000
0000
0000
0000
0000
0000
0000
0000
0000
0000
0000
0000
0000
0000
0000
0000
0001
0000
0000
0000
0000
0000
0000
0000
0000
0000
0000
0000
0000
0000
0000
0000
0000
0000
0000
0000
0000
0000
0000
0000
0001
0000
0000
0000
0000
0000
0000
0000
0000
0000
0000
0000
0010
0000
0000
0000
0000
0000
0000
0000
0000
0000
0000
0000
0200
0000
0000
0000
0000
0000
0000
0000
0000
0000
0000
0000
0000
0000
0000
0000
0000
0000
0000
0000
0000
0000
0000
0000
1000
0000
0000
0000
0000
0000
0000
0000
0000
0000
0000
0000
0000
0000
0000
0000
0000
0000
0000
0000
0000
0000
0000
0300
0100
0000
0000
0000
0000
0000
0000
0000
0000
0000
0000
0000
0010
0000
0000
0000
0000
0000
0000
0000
0000
0000
0000
0000
0001
0000
0000
0000
0000
0000
0000
0000
0000
0000
0000
0000
1000
0000
0000
0000
0000
0000
0000
0000
0000
0000
0000
0000
,  // measure 16
0001
0000
0100
0010
1000
0000
0001
0000
0010
0000
1000
0000
0020
0000
0001
0000
,  // measure 17
0130
0010
0001
0000
1000
0100
1000
0010
1000
0100
0010
0001
1000
0000
0010
0000
,  // measure 18
0200
0000
0000
0301
0010
0100
1000
0001
1000
0100
0010
0001
0010
0000
0001
0000
,  // measure 19
2000
0000
0000
0000
0000
0000
0000
0000
0000
0000
0000
0000
0000
0000
0000
0000
0000
0000
0000
0000
0000
0000
0000
0000
0000
0000
0000
0000
0000
0000
0000
0000
0000
0000
0000
0000
0000
0000
0000
0000
0000
0000
0000
0000
0000
0000
0000
0000
3001
0000
0000
0000
0000
0000
0000
0000
0000
0000
0000
0000
0000
0000
0000
0000
0000
0000
0000
0000
0000
0000
0000
0000
0100
0000
0000
0000
0000
0000
0000
0000
0000
0000
0000
0000
0010
0000
0000
0000
0000
0000
0000
0000
0000
0000
0000
0000
0002
0000
0000
0000
0000
0000
0000
0000
0000
0000
0000
0000
0000
0000
0000
0000
0000
0000
0000
0000
0000
0000
0000
0000
0000
0000
0000
0000
0000
0000
0000
0000
0000
0000
0000
0000
0000
0000
0000
0000
0000
0000
0000
0000
0000
0000
0000
0003
0001
0000
0000
0000
0000
0000
0000
0000
0000
0000
0000
0000
0010
0000
0000
0000
0000
0000
0000
0000
0000
0000
0000
0000
0100
0000
0000
0000
0000
0000
0000
0000
0000
0000
0000
0000
0000
0000
0000
0000
0000
0000
0000
0000
0000
0000
0000
0000
,  // measure 20
0001
1000
1100
0100
0011
0010
1100
0100
,  // measure 21
2000
0000
3000
0000
1001
0000
0100
1000
0001
0000
0010
0000
0001
0010
1000
0010
,  // measure 22
0001
0000
0100
0010
1000
0000
2000
0000
3001
0010
1000
0000
0120
0000
0031
1000
,  // measure 23
0001
0000
0000
0000
0000
0000
0000
0000
0000
0000
0000
0000
0100
0000
0000
0000
0000
0000
0000
0000
0000
0000
0000
0000
0010
0000
0000
0000
0000
0000
0000
0000
0000
0000
0000
0000
0000
0000
0000
0000
0000
0000
0000
0000
0000
0000
0000
0000
1000
0000
0000
0000
0000
0000
0000
0000
0000
0000
0000
0000
0100
0000
0000
0000
0000
0000
0000
0000
0000
0000
0000
0000
0020
0000
0000
0000
0000
0000
0000
0000
0000
0000
0000
0000
0000
0000
0000
0000
0000
0000
0000
0000
0000
0000
0000
0030
0011
0000
0000
0000
0000
0000
0000
0000
0000
0000
0000
0000
0000
0000
0000
0000
0000
0000
0000
0000
0000
0000
0000
0000
1000
0000
0000
0000
0000
0000
0000
0000
0000
0000
0000
0000
0100
0000
0000
0000
0000
0000
0000
0000
0000
0000
0000
0000
0020
0000
0000
0000
0000
0000
0000
0000
0000
0000
0000
0000
0000
0000
0000
0000
0000
0000
0000
0000
0000
0000
0000
0000
0031
0000
0000
0000
0000
0000
0000
0000
0000
0000
0000
0000
1000
0000
0000
0000
0000
0000
0000
0000
0000
0000
0000
0000
,  // measure 24
0010
1000
1100
0100
0110
0010
0012
1000
,  // measure 25
0103
0010
1000
0010
0100
0000
0100
0001
1000
0000
0011
0000
1000
0010
0100
1000
,  // measure 26
0100
0000
0001
1000
0010
0000
0200
0000
0301
0100
1000
0000
0120
0000
1030
0100
,  // measure 27
0010
0000
0000
0000
0000
0000
0000
0000
0000
0000
0000
0000
0100
0000
0000
0000
0000
0000
0000
0000
0000
0000
0000
0000
2000
0000
0000
0000
0000
0000
0000
0000
0000
0000
0000
0000
0000
0000
0000
0000
0000
0000
0000
0000
0000
0000
0000
0000
3001
0000
0000
0000
0000
0000
0000
0000
0000
0000
0000
0000
0010
0000
0000
0000
0000
0000
0000
0000
0000
0000
0000
0000
0200
0000
0000
0000
0000
0000
0000
0000
0000
0000
0000
0000
0000
0000
0000
0000
0000
0000
0000
0000
0000
0000
0300
0000
1100
0000
0000
0000
0000
0000
0000
0000
0000
0000
0000
0000
0000
0000
0000
0000
0000
0000
0000
0000
0000
0000
0000
0000
0001
0000
0000
0000
0000
0000
0000
0000
0000
0000
0000
0000
0010
0000
0000
0000
0000
0000
0000
0000
0000
0000
0000
0000
0200
0000
0000
0000
0000
0000
0000
0000
0000
0000
0000
0000
0000
0000
0000
0000
0000
0000
0000
0000
0000
0000
0000
0000
1300
0000
0000
0000
0000
0000
0000
0000
0000
0000
0000
0000
0100
0000
0000
0000
0000
0000
0000
0000
0000
0000
0000
0000
,  // measure 28
1000
0010
0101
0100
1010
0010
1000
0001
,  // measure 29
1000
0000
0001
0100
0010
0000
0200
0000
0301
0000
1000
0100
0010
0100
0010
0001
,  // measure 30
1000
0001
0010
0100
1000
0000
0002
0000
0013
0100
0010
0001
1000
0010
0100
1000
,  // measure 31
0100
0010
1000
0001
1000
0000
0200
0000
0310
0000
0001
0010
0200
0000
0310
0100
,  // measure 32
1000
0001
1000
0001
0100
0000
0200
0000
0310
1000
0100
1000
0001
0000
0100
0010
,  // measure 33
0001
0010
1000
0001
0100
0000
1001
0000
2100
0000
3001
0010
0200
0300
1000
0100
,  // measure 34
0002
0003
1000
0010
0200
0300
0001
0100
2000
3000
0100
0010
0100
0001
1000
0100
,  // measure 35
0010
0001
0100
0010
2000
3000
0001
0010
0002
0003
2000
0000
3010
0100
0010
0100
,  // measure 36
0001
1000
0100
0000
1001
0000
0010
0000
1001
0000
0010
0000
1001
0000
0010
0000
,  // measure 37
0001
0000
0000
0000
1000
0000
0001
0000
1000
0000
0001
0000
1000
0100
0010
0100
,  // measure 38
1000
0010
1000
0001
0010
0000
0001
0010
0100
0010
0001
0000
1100
0000
0001
0010
,  // measure 39
0100
0000
1000
0000
0001
0100
0010
0000
1001
0000
1000
0001
0010
0001
0010
0100
,  // measure 40
1000
0000
0001
0000
0200
0000
0320
0000
0230
0000
0301
0000
1001
0000
1000
0100
,  // measure 41
0010
0000
0100
0000
1000
0000
0001
0000
1000
0000
0001
0000
0100
0010
1000
0010
,  // measure 42
1000
0000
0001
0000
0100
0000
0001
0100
1000
0100
0001
0000
0010
0000
0001
0010
,  // measure 43
0001
0000
1000
0000
0010
0100
0001
0000
1000
0000
0010
0100
0001
0010
0100
0010
,  // measure 44
0001
0100
1001
0010
1001
0010
1001
0010
,  // measure 45
0002
0000
0003
0000
1000
0001
0200
0000
0310
0000
1000
0001
0200
0000
0300
0000
,  // measure 46
2000
0000
3000
0000
0001
1000
0020
0000
0130
0000
0001
1000
0020
0000
0030
0000
,  // measure 47
0002
0000
0003
0000
0100
0010
2000
0000
3001
0000
0100
0010
2000
0000
3000
0000
,  // measure 48
0002
0003
0110
0100
0101
0001
1001
1000
,  // measure 49
0020
0000
0030
0000
1000
0100
0010
0100
1000
0000
0001
0010
0001
0010
0100
0000
,  // measure 50
1000
0001
1000
0000
0100
0000
0100
0010
0001
0000
0001
0000
0010
0100
1000
0000
,  // measure 51
0002
0000
0003
0000
1000
0100
0010
0100
1000
0000
0001
0010
0001
1000
0001
0000
,  // measure 52
0100
0010
0100
0001
0100
1000
0100
0001
,  // measure 53
0020
0030
1001
0100
1001
0010
1001
0100
,  // measure 54
0010
0000
0000
0000
0000
0000
0000
0000
0000
0000
0000
0000
0000
0000
0000
0000
0000
0000
0000
0000
0000
0000
0000
0000
0200
0000
0000
0000
0000
0000
0000
0000
0000
0000
0000
0000
0000
0000
0000
0000
0000
0000
0000
0000
0000
0000
0000
0000
0302
0000
0000
0000
0000
0000
0000
0000
0000
0000
0000
0000
0000
0000
0000
0000
0000
0000
0000
0000
0000
0000
0000
0000
0100
0000
0000
0000
0000
0000
0000
0000
0000
0000
0000
0000
0000
0000
0000
0000
0000
0000
0000
0000
0000
0000
0000
0003
1001
0000
0000
0000
0000
0000
0000
0000
0000
0000
0000
0000
0000
0000
0000
0000
0000
0000
0000
0000
0000
0000
0000
0000
1000
0000
0000
0000
0000
0000
0000
0000
0000
0000
0000
0000
0010
0000
0000
0000
0000
0000
0000
0000
0000
0000
0000
0000
0001
0000
0000
0000
0000
0000
0000
0000
0000
0000
0000
0000
0010
0000
0000
0000
0000
0000
0000
0000
0000
0000
0000
0000
0100
0000
0000
0000
0000
0000
0000
0000
0000
0000
0000
0000
0000
0000
0000
0000
0000
0000
0000
0000
0000
0000
0000
0000
,  // measure 55
0101
0000
0001
0010
0100
1000
0010
0100
0001
0100
0001
1000
0001
0000
0200
0000
,  // measure 56
0310
0000
0000
0000
0000
0000
0000
0000
0000
0000
0000
0000
0100
0000
0000
0000
0000
0000
0000
0000
0000
0000
0000
0000
0002
0000
0000
0000
0000
0000
0000
0000
0000
0000
0000
0000
0000
0000
0000
0000
0000
0000
0000
0000
0000
0000
0000
0000
2003
0000
0000
0000
0000
0000
0000
0000
0000
0000
0000
0000
0000
0000
0000
0000
0000
0000
0000
0000
0000
0000
0000
0000
0010
0000
0000
0000
0000
0000
0000
0000
0000
0000
0000
0000
0000
0000
0000
0000
0000
0000
0000
0000
0000
0000
0000
3000
1001
0000
0000
0000
0000
0000
0000
0000
0000
0000
0000
0000
0000
0000
0000
0000
0000
0000
0000
0000
0000
0000
0000
0000
0100
0000
0000
0000
0000
0000
0000
0000
0000
0000
0000
0000
0010
0000
0000
0000
0000
0000
0000
0000
0000
0000
0000
0000
0200
0000
0000
0000
0000
0000
0000
0000
0000
0000
0000
0000
0000
0000
0000
0000
0000
0000
0000
0000
0000
0000
0000
0000
0301
0000
0000
0000
0000
0000
0000
0000
0000
0000
0000
0000
0000
0000
0000
0000
0000
0000
0000
0000
0000
0000
0000
0000
,  // measure 57
1002
0000
1003
0100
0010
0000
0011
0000
1001
0000
0001
0010
0100
0000
1100
0000
,  // measure 58
1001
0000
0000
0000
0000
0000
0000
0000
0000
0000
0000
0000
0000
0000
0000
0000
0000
0000
0000
0000
0000
0000
0000
0000
0020
0000
0000
0000
0000
0000
0000
0000
0000
0000
0000
0000
0000
0000
0000
0000
0000
0000
0000
0000
0000
0000
0000
0000
2030
0000
0000
0000
0000
0000
0000
0000
0000
0000
0000
0000
0000
0000
0000
0000
0000
0000
0000
0000
0000
0000
0000
0000
0001
0000
0000
0000
0000
0000
0000
0000
0000
0000
0000
0000
0000
0000
0000
0000
0000
0000
0000
0000
0000
0000
3000
0000
1010
0000
0000
0000
0000
0000
0000
0000
0000
0000
0000
0000
0000
0000
0000
0000
0000
0000
0000
0000
0000
0000
0000
0000
0001
0000
0000
0000
0000
0000
0000
0000
0000
0000
0000
0000
0010
0000
0000
0000
0000
0000
0000
0000
0000
0000
0000
0000
0100
0000
0000
0000
0000
0000
0000
0000
0000
0000
0000
0000
0000
0000
0000
0000
0000
0000
0000
0000
0000
0000
0000
0000
0011
0000
0000
0000
0000
0000
0000
0000
0000
0000
0000
0000
0000
0000
0000
0000
0000
0000
0000
0000
0000
0000
0000
0000
,  // measure 59
2001
0000
3100
0010
0001
0010
0200
0000
2300
0000
3001
0010
0002
0000
0103
0010
,  // measure 60
1000
0000
0000
0000
0000
0000
0000
0000
0000
0000
0000
0000
0000
0000
0000
0000
0000
0000
0000
0000
0000
0000
0000
0000
0020
0000
0000
0000
0000
0000
0000
0000
0000
0000
0000
0000
0000
0000
0000
0000
0000
0000
0000
0000
0000
0000
0000
0000
2030
0000
0000
0000
0000
0000
0000
0000
0000
0000
0000
0000
0000
0000
0000
0000
0000
0000
0000
0000
0000
0000
0000
0000
0001
0000
0000
0000
0000
0000
0000
0000
0000
0000
0000
0000
0000
0000
0000
0000
0000
0000
0000
0000
0000
0000
0000
3000
1100
0000
0000
0000
0000
0000
0000
0000
0000
0000
0000
0000
0000
0000
0000
0000
0000
0000
0000
0000
0000
0000
0000
0000
0010
0000
0000
0000
0000
0000
0000
0000
0000
0000
0000
0000
0100
0000
0000
0000
0000
0000
0000
0000
0000
0000
0000
0000
0001
0000
0000
0000
0000
0000
0000
0000
0000
0000
0000
0000
0010
0000
0000
0000
0000
0000
0000
0000
0000
0000
0000
0000
0100
0000
0000
0000
0000
0000
0000
0000
0000
0000
0000
0000
0000
0000
0000
0000
0000
0000
0000
0000
0000
0000
0000
0000
,  // measure 61
1100
0000
0001
0010
0001
0000
1100
0000
0011
0000
1000
0100
1000
0000
0011
0000
,  // measure 62
1100
0000
0001
0000
0020
0000
0000
0000
0030
0000
0001
1000
0100
0000
2000
0000
,  // measure 63
3000
0000
0010
0100
0010
1000
0001
0000
0020
0000
0031
0010
0100
0000
2000
0000
,  // measure 64
0000
3000
0000
0000
0000
0000
0000
0000
0000
0000
0000
0000
0000
0000
0000
0000
;

//---------------dance-single - ----------------
#NOTES:
     dance-single:
     :
     Hard:
     12:
     0.567687,0.592029,0.248807,0.334113,0.366102,559.000000,524.000000,35.000000,47.000000,0.000000,0.000000,0.567687,0.592029,0.248807,0.334113,0.366102,559.000000,524.000000,35.000000,47.000000,0.000000,0.000000:
// measure 0
0000
0000
0000
0000
,  // measure 1
0000
0000
0000
0000
,  // measure 2
0000
0000
0000
0000
,  // measure 3
0000
0000
0000
0000
,  // measure 4
0000
1001
1001
1001
,  // measure 5
0001
0000
1000
0000
0200
0000
0010
0000
1300
0000
1000
0100
1000
0000
0010
0000
,  // measure 6
0100
0000
0001
0010
0001
0000
1000
0000
0100
0000
1000
0010
0100
0000
0001
0000
,  // measure 7
0010
0000
0001
0000
0200
0000
1000
0000
0310
0000
0100
0001
1000
0000
1000
0000
,  // measure 8
0100
0000
0010
0001
0010
0001
0100
0000
0001
1000
0010
0000
0010
0000
1000
0001
,  // measure 9
1000
0000
0010
0000
0200
0000
1000
0000
0310
0000
1000
0100
0010
0000
0100
0000
,  // measure 10
1000
0000
0001
0010
0001
0000
0100
0000
0011
0000
0100
1000
0100
0000
1000
0000
,  // measure 11
0110
0000
0001
0000
0100
0000
0010
0000
1000
0100
1000
0100
1000
0000
0010
0000
,  // measure 12
0100
0001
0100
0000
1001
0000
0000
0000
1001
0000
0000
0000
1001
0000
0000
0000
,  // measure 13
1000
0000
0000
0000
0000
0000
1000
0100
1000
0000
0000
0000
0100
0010
0100
0000
,  // measure 14
1000
0000
0001
0010
0100
0000
1000
0000
0020
0000
1000
0000
0130
0000
0100
0000
,  // measure 15
0010
1000
0001
0000
0010
0000
0100
1000
0100
0000
0010
0000
0001
0010
0001
0000
,  // measure 16
1000
0000
0001
1000
0001
0000
0100
0000
0100
0000
0001
0000
0020
0000
0001
0000
,  // measure 17
0130
0000
0010
0000
0001
0010
0100
0000
0100
0010
0001
0000
1000
0010
1000
0000
,  // measure 18
0002
0000
0000
0000
1003
0001
0010
0000
0001
0010
0001
0000
1000
0010
1000
0000
,  // measure 19
0020
0000
0000
0000
0030
0000
0001
0010
0200
0000
0000
0000
1300
0100
0020
0000
,  // measure 20
0030
0001
1001
0000
1001
0000
1001
0000
,  // measure 21
0002
0000
0000
0000
1003
0000
0100
0000
0010
0000
0001
0100
0010
0000
1000
0000
,  // measure 22
0100
0000
0010
0000
0001
0000
0010
0000
0100
1000
0001
0000
0200
0000
0001
0000
,  // measure 23
0301
1000
0001
0000
1000
0001
0020
0000
0031
0000
1000
0001
0020
0000
0031
0000
,  // measure 24
0010
0100
1000
1000
0100
0100
1000
0011
,  // measure 25
1000
0001
1000
0001
0100
0000
0010
0000
1000
0000
0100
0000
0010
0001
0010
0000
,  // measure 26
0100
0000
1000
0000
0001
0000
0001
0000
1000
0010
1000
0000
0002
0000
0100
0000
,  // measure 27
0103
0010
1000
0000
0001
1000
0020
0000
1030
0000
0001
1000
0020
0000
1030
0000
,  // measure 28
0010
1000
0110
0000
0110
0000
0100
0001
,  // measure 29
2000
0000
0000
0000
3001
0000
0010
0000
0110
0000
1000
0001
0010
0000
0001
0010
,  // measure 30
0001
0000
0100
0010
1000
0000
0100
0000
0110
0000
0001
1000
0001
0000
0100
0010
,  // measure 31
0100
0000
0001
1000
0001
0000
0100
0000
0110
0000
0010
0100
0001
0000
1000
0000
,  // measure 32
0100
0000
1000
0010
1000
0000
0001
0000
0101
0000
1000
0100
0010
0000
0001
0000
,  // measure 33
1000
0100
1000
0000
0010
0000
0100
0000
0102
0000
1003
0010
1000
0000
0100
0010
,  // measure 34
0001
0000
0010
0001
0100
0000
0010
1000
0100
0000
0010
0000
0001
1000
0100
1000
,  // measure 35
0010
0000
1000
0000
1000
0000
0001
0010
1000
0000
0010
0000
1000
0010
0001
0000
,  // measure 36
1000
0001
0101
0000
0101
0000
0101
0000
,  // measure 37
0001
0000
0000
0000
1000
0000
0001
0000
1000
0000
0001
0000
0100
0010
0100
0010
,  // measure 38
1000
0000
0000
0000
0001
0000
0100
0001
0100
0001
0010
0000
0011
0000
1000
0100
,  // measure 39
0010
0000
0100
0000
1001
0000
0001
0100
0010
0000
1000
0000
0010
0100
0010
1000
,  // measure 40
0001
0000
0010
0000
0100
1000
0100
0000
0010
0000
0001
0000
1001
0000
1000
0010
,  // measure 41
0100
0000
0010
0000
1000
0000
0001
0000
1000
0000
0001
0000
0010
0000
0010
0001
,  // measure 42
0100
0000
0010
0000
1000
0000
0010
1000
0010
0100
0001
0000
0001
0000
0100
0010
,  // measure 43
0100
0000
0001
0000
1000
0100
1000
0000
0001
0000
0010
0001
0010
0000
0010
0000
,  // measure 44
0100
1000
1100
0000
1100
0000
1100
0000
,  // measure 45
0001
0000
0010
0001
0000
0100
0001
0000
,  // measure 46
1000
0000
0100
0010
0000
0001
0010
0000
,  // measure 47
0100
0000
1000
0001
0000
0010
0001
0000
,  // measure 48
0100
1001
1001
1001
,  // measure 49
1001
0000
0000
0000
0001
1000
0001
0000
0000
0000
1000
0001
1000
0000
0000
0000
,  // measure 50
0001
0010
0100
0000
1000
0000
0100
0010
0001
0000
0010
0000
0001
0000
0000
0000
,  // measure 51
0020
0000
0030
0000
1000
0001
0100
0000
0000
0000
1000
0001
0100
0000
0000
0000
,  // measure 52
2000
3000
0010
0100
0010
0100
0010
0100
,  // measure 53
0002
0003
1001
0000
1001
0000
1001
0000
,  // measure 54
0010
0000
2000
0000
3020
0000
1000
0000
0130
0000
0001
1000
0002
0000
0023
0000
,  // measure 55
0130
0000
1000
0001
1000
0100
0010
0000
0100
0000
0100
0010
0002
0000
2003
0000
,  // measure 56
3100
0010
0002
0000
2003
0000
0010
0000
3010
0000
1000
0100
2000
0000
3020
0000
,  // measure 57
0130
0000
0001
0100
1000
0000
0100
0000
0100
0000
1000
0100
0002
0000
0023
0000
,  // measure 58
0130
1000
0002
0000
2003
0000
0010
0000
3010
0000
1000
0001
0200
0000
0302
0000
,  // measure 59
1003
0000
0010
0100
0010
0100
0002
0000
0023
0000
0130
1000
0200
0000
2300
0000
,  // measure 60
3001
0010
0002
0000
0203
0000
0001
0000
0310
0000
0010
1000
0200
0000
2300
0000
,  // measure 61
3001
0000
0001
0010
0100
0000
0010
0000
0010
0000
0100
0010
0001
0000
1000
0000
,  // measure 62
0001
0010
0100
0000
2000
0000
3000
0000
0000
0000
0001
1000
0001
0000
0100
0000
,  // measure 63
0000
0000
0001
0010
0100
1000
0001
0000
0001
0000
1000
0100
1000
0000
0020
0000
,  // measure 64
0000
0030
0000
0000
0000
0000
0000
0000
0000
0000
0000
0000
0000
0000
0000
0000
;

//---------------dance-single - ----------------
#NOTES:
     dance-single:
     :
     Medium:
     9:
     0.398092,0.363259,0.277243,0.042653,0.000000,392.000000,353.000000,39.000000,6.000000,0.000000,0.000000,0.398092,0.363259,0.277243,0.042653,0.000000,392.000000,353.000000,39.000000,6.000000,0.000000,0.000000:
0000
0000
0000
0000
,
0000
0000
0000
0000
,
0000
0000
0000
0000
,
0000
0000
0000
0000
,
0000
1010
1010
1010
,
1010
0000
0001
0010
0100
1000
0020
0000
,
0130
0001
1000
0100
0010
0001
1000
0010
,
0100
0001
0020
0000
0130
1000
0010
0100
,
0001
1000
0100
1000
1000
0010
0100
0001
,
0010
0100
2000
0000
3001
0010
0100
1000
,
0010
1000
0100
0010
0001
1000
0100
1000
,
0010
1000
0001
0000
1000
0100
0010
0000
,
1000
0011
0011
0011
,
0001
0000
0000
0100
0000
0000
1000
0000
,
0010
0000
1000
0000
0100
0010
0001
1000
,
0010
0100
0001
0000
2000
0000
3100
1000
,
0010
0100
0001
0010
0100
1000
0020
0000
,
2030
0000
3001
0000
1000
0000
0001
1000
,
0100
0000
1000
0000
0010
0000
1000
0100
,
0010
0000
0001
1000
0100
0000
1000
0010
,
0100
0101
0101
0101
,
1000
0000
0100
0000
1010
0000
0001
0010
,
0100
1000
0010
0000
0101
0000
0100
1000
,
0100
0000
0010
0001
0010
0100
1000
0000
,
0110
0000
1000
0001
1000
0001
0100
0000
,
1010
0000
1000
0001
0010
0100
1000
0000
,
0110
0000
1000
0100
0010
0001
1000
0000
,
0110
0000
1000
0001
0010
0100
1000
0000
,
0101
1010
1010
1010
,
0001
0000
1000
0100
0010
0000
0001
0010
,
0100
1000
0010
0100
0001
0000
1000
0100
,
0010
0001
1000
0010
0100
0000
0001
1000
,
0100
0010
0001
1000
0010
0000
0010
0100
,
0010
1000
0001
0010
0100
0000
1000
0100
,
0010
0000
0001
1000
0010
0000
1001
0000
,
1100
0000
0001
0010
0100
0000
1000
0100
,
0010
1001
1001
1001
,
1001
0000
1000
0001
1000
0001
0100
0010
,
0100
0000
0001
1000
0100
0010
0001
1000
,
0010
0000
1000
0100
1000
0100
0010
0001
,
0100
0000
0001
1000
0001
0100
0001
0010
,
0100
0000
1000
0001
1000
0001
0100
0010
,
0100
0000
0001
0010
0100
1000
0100
1000
,
0010
0000
1000
0001
0100
0001
1000
0001
,
0010
1001
1001
1001
,
0001
1000
0010
1000
,
0010
0100
0001
0100
,
0001
1000
0001
1000
,
0010
0110
0110
0110
,
0001
0000
1000
0001
1000
0000
0010
0100
,
0010
0000
1000
0100
0010
0001
0100
0000
,
0010
0000
1000
0001
1000
0000
0010
0100
,
0010
0000
0001
0010
0001
0010
0001
1000
,
0010
0110
0110
0110
,
0010
0000
1000
0001
0010
0000
0100
1000
,
0001
0000
0001
0100
0010
1000
0100
0010
,
0001
0100
0010
1000
0001
0000
0010
0001
,
0100
0000
1000
0100
0011
0000
0100
0010
,
1001
0000
0010
0001
1000
0000
0100
0010
,
0001
0000
1000
0001
1000
0000
0010
0100
,
0001
0000
0001
0010
0100
0000
1000
0001
,
1000
0000
0001
0010
0101
0000
1000
0100
,
1010
0000
0001
0000
0000
1000
0100
0010
,
0000
0001
1000
0010
0100
0010
1000
0100
;

//---------------dance-single - ----------------
#NOTES:
     dance-single:
     :
     Easy:
     6:
     0.238652,0.294570,0.056870,0.000000,0.000000,235.000000,227.000000,8.000000,0.000000,0.000000,0.000000,0.238652,0.294570,0.056870,0.000000,0.000000,235.000000,227.000000,8.000000,0.000000,0.000000,0.000000:
0000
0000
0000
0000
,
0000
0000
0000
0000
,
0000
0000
0000
0000
,
0000
0000
0000
0000
,
0000
1000
1000
1000
,
1000
0001
0010
1000
,
0010
0000
0001
0000
0001
0000
0100
0100
,
0010
1000
0001
0010
,
0001
0000
1000
1000
0100
0000
0001
0001
,
0010
0001
0010
0001
,
0100
0000
0010
0000
1000
0000
0001
0001
,
0100
0001
0100
0001
,
1000
0010
0010
0010
,
0000
0000
0100
0000
,
0100
0001
1000
0100
,
1000
0010
0100
0001
,
0010
0001
1000
0100
,
1000
0010
0010
0010
,
0100
0001
0001
0001
,
0100
0010
0001
0010
,
0100
0010
0010
0010
,
0000
0000
0001
0000
1000
0000
0100
1000
,
0100
0000
0010
0000
0001
0000
1000
0100
,
1000
0010
0100
0001
,
0010
0001
1000
0001
,
0100
0000
0010
0000
1000
0000
0010
0100
,
0010
0000
1000
0000
0001
0000
0100
0010
,
0100
0001
1000
0010
,
0100
0100
0100
0100
,
0000
0001
1010
0100
,
0001
0010
0011
0100
,
0010
1000
1010
0001
,
0010
0001
0011
0100
,
0010
1000
1010
0001
,
0011
0100
0110
1000
,
0001
0010
1100
0001
,
0010
0001
0001
0001
,
0000
0000
0000
0000
,
0000
0010
0100
0001
,
0010
0100
1000
0100
,
0010
0001
1000
0010
,
0100
0001
1000
0001
,
0010
0001
0100
0010
,
1000
0001
0010
0001
,
0100
0100
0100
0100
,
0000
0001
0000
0001
,
0000
0100
0000
0100
,
0000
0001
0000
0001
,
0000
1000
1000
1000
,
0000
0010
0000
0100
,
0000
0001
0000
1000
,
0000
0010
0000
0100
,
0000
0001
0001
0001
,
0001
1000
1000
1000
,
1000
0000
0010
0000
0100
0000
0001
0010
,
0001
0000
0100
0000
0010
0000
1000
0100
,
1000
0000
0001
0000
0010
0000
0001
1000
,
0010
0100
0100
0001
,
0001
0000
1000
0000
0100
0000
0010
0001
,
0010
0000
0100
0000
1000
0000
0001
1000
,
0001
0000
0100
0000
0100
0000
0010
0100
,
0010
0000
1000
0000
0001
0000
0100
0010
,
0100
0001
0000
0001
,
0000
0100
0000
0010
;

//---------------dance-single - ----------------
#NOTES:
     dance-single:
     :
     Beginner:
     3:
     0.157409,0.181274,0.014218,0.056870,0.000000,155.000000,153.000000,2.000000,8.000000,0.000000,0.000000,0.157409,0.181274,0.014218,0.056870,0.000000,155.000000,153.000000,2.000000,8.000000,0.000000,0.000000:
0000
0000
0000
0000
,
0000
0000
0000
0000
,
0000
0000
0000
0000
,
0000
0000
0000
0000
,
0000
2000
0000
0000
,
3001
0000
0001
0000
,
1000
0000
0001
0100
,
0001
1000
1000
0000
,
0010
0000
1000
1000
,
1000
0001
0001
0000
,
0001
0000
0100
0100
,
0100
0001
0001
1000
,
1000
2000
0000
0000
,
3000
0000
1000
0000
,
1000
0000
0100
0000
,
0010
0000
0001
0000
,
1000
0010
0010
1000
,
1000
0100
0000
1000
,
0100
0001
0000
1000
,
1000
0100
0000
1000
,
1000
0020
0000
0000
,
0030
1000
0000
0100
,
1000
0100
0000
1000
,
0001
1000
1000
0001
,
1000
0001
0000
1000
,
0100
1000
0000
0010
,
0010
0100
0000
0001
,
0001
1000
0010
1000
,
1000
0020
0000
0030
,
0000
1000
0000
1000
,
1000
0010
0000
1000
,
1000
0001
0000
0010
,
0001
0001
0010
0001
,
0001
0100
0000
0010
,
0010
1000
0000
0001
,
0001
1000
0000
0100
,
0100
2000
0000
0000
,
3000
0000
0000
0000
,
0000
1000
0000
1000
,
1000
0010
0000
0100
,
0100
0010
0000
0001
,
0001
1000
0000
0000
,
0000
0010
0000
0000
,
0000
0100
0000
0000
,
0000
0002
0000
0000
,
0003
1000
0000
1000
,
0000
1010
0000
0010
,
0000
0110
0000
0100
,
0000
0002
0000
0000
,
0003
1000
0000
1000
,
0000
0010
0010
1000
,
0001
0001
0000
0001
,
0000
0100
0100
0100
,
0100
0020
0000
0000
,
0030
1000
0000
0001
,
0000
1000
0010
1000
,
0010
0010
0000
0100
,
0000
0001
1000
0001
,
0100
0010
0000
1000
,
0000
0001
0010
0001
,
0001
1000
0000
0010
,
0000
1000
1000
0100
,
0100
0010
0000
0001
,
0000
1000
1000
0100
;
