#VERSION:0.83;
#TITLE:Sonar;
#SUBTITLE:(Breaker);
#ARTIST:NMIXX;
#TITLETRANSLIT:;
#SUBTITLETRANSLIT:;
#ARTISTTRANSLIT:;
#GENRE:;
#ORIGIN:;
#TAGS:;
#CREDIT:;
#BANNER:AV.avi;
#BACKGROUND:bg.png;
#PREVIEWVID:;
#JACKET:jacket.png;
#CDIMAGE:;
#DISCIMAGE:;
#LYRICSPATH:;
#CDTITLE:;
#MUSIC:audio.ogg;
#OFFSET:-0.384000;
#SAMPLESTART:46.379955;
#SAMPLELENGTH:14.999995;
#SELECTABLE:YES;
#BPMS:0.000000=124.999992
;
#STOPS:;
#DELAYS:;
#WARPS:;
#TIMESIGNATURES:0.000000=4=4
;
#TICKCOUNTS:0.000000=4
;
#COMBOS:0.000000=1
;
#SPEEDS:0.000000=1.000000=0.000000=0
;
#SCROLLS:0.000000=1.000000
;
#FAKES:;
#LABELS:0.000000=Song Start
;
#BGCHANGES:0.000=MV.avi=1.000=1=0=1===CrossFade==,
99999=-nosongbg-=1.000=0=0=0 // don't automatically add -songbackground-
;
#KEYSOUNDS:;
#ATTACKS:
;

//---------------dance-single - ----------------
#NOTEDATA:;
#CHARTNAME:;
#CHARTHASH:1968652296;
#STEPSTYPE:dance-single;
#BANNER:;
#DESCRIPTION:;
#CHARTSTYLE:;
#DIFFICULTY:Beginner;
#METER:2;
#METERF:0.000000;
#LASTSECONDHINT:107.424004;
#RADARVALUES:0.000000,0.000000,0.000000,0.000000,0.000000,0.000000,0.000000,0.000000,0.000000,0.000000,0.000000,0.000000,0.000000,0.000000,0.000000,0.000000,0.000000,0.000000,0.000000,0.000000,0.000000,0.000000,0.000000,0.000000,0.000000,0.000000,0.000000,0.000000;
#CREDIT:Musey;
#NOTES:
0000
0000
0000
0000
,
0000
0000
0000
0000
,
0000
0000
0000
0000
,
0000
0000
0000
0000
,
0000
0000
0000
0000
,
0000
0000
0000
0000
,
0000
0000
0000
0000
,
0000
0000
0000
0000
,
1000
0001
1000
0000
,
0001
0100
0010
0000
,
1000
0001
0010
0000
,
0001
1000
0010
0000
,
1000
0001
0100
0100
,
0001
1000
0010
0000
,
1000
0001
0100
0100
,
0001
0001
0010
0000
,
0002
0000
1003
0000
,
2000
0000
3010
0000
,
0200
0000
0310
0000
,
2000
0000
3001
0000
,
0100
0001
1000
0000
,
0001
1000
0002
0000
,
0203
0000
0320
0000
,
1030
1000
0001
0000
,
0100
0001
0020
0000
,
0031
0100
0020
0000
,
0130
0001
2000
0000
,
3001
0100
0002
0000
,
1003
0001
0200
0000
,
0310
1000
0020
0000
,
1030
0001
0200
0000
,
0301
0001
0001
0000
,
2000
0000
3010
0000
,
0002
0000
0103
0000
,
2000
0000
0000
0000
,
3002
0000
0000
0000
,
0103
0000
0100
0000
,
0010
0000
0010
0000
,
1000
0000
1000
0000
,
0002
0000
1003
0000
,
0200
0000
0310
0000
,
0010
1000
0010
0000
,
2000
0000
3001
0000
,
0000
0000
0000
0000
,
1000
0001
2000
0000
,
3002
0000
0203
0000
,
0310
1000
0020
0000
,
1030
0001
0200
0000
,
0301
1000
0002
0000
,
2003
0000
3020
0000
,
1030
0001
0200
0000
,
0301
0000
0001
0000
,
2000
0000
3010
0100
,
0100
0000
0001
1000
,
0002
0000
1003
0010
,
0100
0100
0001
0001
;

//---------------dance-single - ----------------
#NOTEDATA:;
#CHARTNAME:;
#CHARTHASH:2110407601;
#STEPSTYPE:dance-single;
#BANNER:;
#DESCRIPTION:;
#CHARTSTYLE:;
#DIFFICULTY:Easy;
#METER:5;
#METERF:0.000000;
#LASTSECONDHINT:107.424004;
#RADARVALUES:0.000000,0.000000,0.000000,0.000000,0.000000,0.000000,0.000000,0.000000,0.000000,0.000000,0.000000,0.000000,0.000000,0.000000,0.000000,0.000000,0.000000,0.000000,0.000000,0.000000,0.000000,0.000000,0.000000,0.000000,0.000000,0.000000,0.000000,0.000000;
#CREDIT:Musey;
#NOTES:
0000
0000
0000
0000
,
0000
0000
0000
0000
,
0000
0000
0000
0000
,
0000
0000
0000
0000
,
0000
0000
0000
0000
,
0000
0000
0000
0000
,
0000
0000
0000
0000
,
0000
0000
0000
0000
,
1000
0000
0001
0000
0100
0001
0100
0000
,
0001
0000
0010
0000
0001
0010
0001
0000
,
1000
0000
0010
0000
1000
0010
1000
0000
,
0001
0001
0100
0100
,
0001
1000
0010
0010
,
1000
0000
0001
0000
1000
0001
0100
0000
,
0010
0010
1000
1000
,
0001
1000
1001
0000
,
0010
0010
0020
0000
,
0130
0100
0200
0000
,
0301
0001
0002
0000
,
2003
0000
3020
0000
,
0130
0000
0001
0000
0100
0000
0010
1000
,
0010
1000
0002
0103
,
0010
0010
2000
3001
,
0001
0000
0100
0000
0001
0100
0001
0000
,
1000
0010
2000
0000
3020
0000
1030
0010
,
2000
0000
3010
1000
0020
0000
1030
0000
,
0001
1000
0001
0100
0002
0000
0103
0000
,
0001
0001
2000
3010
,
1000
0001
0100
0001
2000
0000
3001
1000
,
0002
0000
1003
0001
2000
0000
3002
0000
,
0103
0001
0100
0001
0200
0000
0301
0000
,
1000
1000
0010
0010
,
2000
0000
3010
0000
,
0200
0000
0301
0000
,
0002
0000
1003
0000
,
1000
1000
0010
0010
,
0200
0000
0310
0000
,
2000
0000
3001
0000
,
0002
0000
0103
0000
,
0010
0100
0020
0000
,
2030
0000
3001
0001
,
0100
0100
0001
1000
,
0020
0000
1030
1000
,
0000
0000
0000
1000
,
0001
0000
0100
0001
0200
0000
0301
0100
,
0002
0000
0103
0001
0100
0000
0100
0000
,
0010
1000
0010
1000
0020
0000
1030
0000
,
0001
0001
0200
0301
,
0001
1000
0100
1000
0002
0000
1003
0100
,
2000
0000
3001
1000
0020
0000
0130
0000
,
0001
0000
1000
0001
2000
0000
3010
0000
,
0100
0100
0001
0001
,
2000
0000
3010
0010
,
0100
0100
0001
1000
,
0002
0000
1003
1000
,
0010
0010
1000
1010
;

//---------------dance-single - ----------------
#NOTEDATA:;
#CHARTNAME:;
#CHARTHASH:3138829047;
#STEPSTYPE:dance-single;
#BANNER:;
#DESCRIPTION:;
#CHARTSTYLE:;
#DIFFICULTY:Medium;
#METER:8;
#METERF:0.000000;
#LASTSECONDHINT:107.424004;
#RADARVALUES:0.000000,0.000000,0.000000,0.000000,0.000000,0.000000,0.000000,0.000000,0.000000,0.000000,0.000000,0.000000,0.000000,0.000000,0.000000,0.000000,0.000000,0.000000,0.000000,0.000000,0.000000,0.000000,0.000000,0.000000,0.000000,0.000000,0.000000,0.000000;
#CREDIT:Musey;
#NOTES:
0000
0000
0000
0000
,
0000
0000
0000
0000
,
0000
0000
0000
0000
,
0000
0000
0000
0000
,
0000
0000
0000
0000
,
0000
0000
0000
0000
,
0000
0000
0000
0000
,
0000
0000
0000
0000
,
1000
0000
0100
0000
0010
0000
0001
0000
0100
0000
0000
0010
0000
0000
0100
0000
,
0001
0000
0010
0000
0100
0000
1000
0000
0100
0000
0000
0010
0000
0000
0001
0000
,
0100
0000
0010
0000
1000
0000
0001
0000
0100
0000
0000
0100
0000
0000
0010
0000
,
1000
0001
1000
0010
0100
0100
0010
1000
,
0010
1000
0001
0100
0010
0100
0001
0010
,
0100
0010
0001
1000
0010
1000
0002
0000
,
0103
0010
0100
0001
1000
0100
1000
0001
,
0010
0000
0010
0000
0001
0100
0001
0000
,
1000
0000
0000
1000
0000
0000
1000
0000
0000
0002
0000
0000
0103
0000
0000
0000
,
0010
0000
0000
0010
0000
0000
0010
0000
0200
0000
0000
0000
0310
0000
0000
0000
,
1000
0000
0000
0001
0000
0000
1000
0000
0010
0000
0000
0100
0000
0000
0001
0000
,
2000
0000
0000
0000
0000
3000
0010
0000
0100
0000
0010
0000
0200
0000
0000
0000
,
0301
0000
0000
1000
0000
0000
0100
0000
0010
0000
0000
0010
0000
0000
0001
0000
,
0100
0000
0000
0100
0000
0000
0010
0000
1000
0000
0000
2000
0000
0000
0000
0000
,
3001
0000
0000
0001
0000
0000
0001
0000
0200
0000
0000
0000
0310
0000
0000
0000
,
0100
0001
0100
0010
1000
0100
2000
0000
,
3001
0000
0100
0000
0010
0000
0100
0000
0002
0000
0000
0003
0010
0000
0001
0000
,
0200
0000
0000
0000
0310
0000
1000
0000
0200
0000
0000
0300
1100
0000
0000
0000
,
0001
0100
0010
0100
0002
0000
0013
0000
,
0001
0100
0010
0100
0010
0010
2000
0000
,
3100
1000
0100
0010
0200
0000
1300
0010
,
0200
0000
0310
1000
0200
0300
0110
0000
,
0001
0100
0010
0100
0002
0003
0011
0000
,
0100
0000
0100
0000
0001
1000
0001
0000
,
0100
0000
0100
0010
0200
0000
0310
0000
,
1000
0001
1000
0001
0020
0000
0032
0000
,
0203
0000
0010
0010
,
0320
0000
0100
0100
,
2030
0000
3002
0203
,
0302
0000
2003
3020
,
0230
0000
0301
0001
,
1000
0000
0001
1000
0020
0000
0230
0000
,
0320
0000
1030
0000
0001
0100
0010
0100
,
0000
0001
1000
0010
1000
0001
0100
0001
,
0020
0000
0031
0000
0001
0100
0001
1000
,
0000
0000
0000
1020
,
1030
0010
0100
0010
2000
0000
3010
0100
,
0020
0000
1030
0100
2000
0000
3020
0000
,
1030
0001
0100
0001
0020
0000
0031
0100
,
0010
0100
0001
1000
0100
0010
0002
0000
,
0103
0001
0100
0010
0200
0000
0301
0010
,
0200
0000
0310
0001
0200
0300
0110
0000
,
0001
1000
0100
1000
0002
0000
0103
0000
,
0011
1100
0110
0110
,
2000
0000
3001
0000
0001
0100
0000
0100
,
0000
0001
0100
0001
1000
0010
1000
0001
,
0200
0000
0301
0000
0001
0010
0100
0000
,
0110
1001
0110
0110
;

//---------------dance-single - ----------------
#NOTEDATA:;
#CHARTNAME:;
#CHARTHASH:3099862152;
#STEPSTYPE:dance-single;
#BANNER:;
#DESCRIPTION:;
#CHARTSTYLE:;
#DIFFICULTY:Hard;
#METER:12;
#METERF:0.000000;
#LASTSECONDHINT:107.664009;
#RADARVALUES:0.000000,0.000000,0.000000,0.000000,0.000000,0.000000,0.000000,0.000000,0.000000,0.000000,0.000000,0.000000,0.000000,0.000000,0.000000,0.000000,0.000000,0.000000,0.000000,0.000000,0.000000,0.000000,0.000000,0.000000,0.000000,0.000000,0.000000,0.000000;
#CREDIT:Musey;
#NOTES:
0000
0000
0000
0000
,
0000
0000
0000
0000
,
0000
0000
0000
0000
,
0000
0000
0000
0000
,
0000
0000
0000
0000
,
0000
0000
0000
0000
,
0000
0000
0000
0000
,
0000
0000
0000
1001
,
0010
0000
0100
0000
0001
0000
1000
0000
0010
1000
0001
0000
0100
0000
0001
0000
,
0010
0000
1000
0000
0010
0000
0001
0000
1000
0001
1000
0000
0010
0000
0001
0000
,
0010
0000
1000
0000
0010
0000
0100
0000
0001
0100
0001
0000
1000
0000
0010
0000
,
1000
0000
1000
0000
0100
0000
0100
0000
1000
0001
1000
0000
0010
0000
0100
0000
,
0001
0000
0010
0000
0100
0000
1000
0000
0001
1000
0010
0000
0100
0000
0001
0000
,
0010
0000
0010
0000
0001
0000
1000
0000
0010
1000
0001
0100
0010
0000
1000
0000
,
1000
0000
0001
0000
0010
0000
0100
0000
0010
0001
0010
0000
0001
0000
1000
0000
,
0010
0000
0000
0000
0000
0000
0000
0000
0000
0010
0000
0000
0000
0000
0000
0000
0000
0000
0010
0000
0000
0000
0000
0000
1000
0000
0000
0000
0001
0000
0000
0000
1000
0000
0000
0000
0001
0000
0000
0000
0000
0000
0001
0000
0000
0000
0000
0000
,
2000
0000
0000
3020
0000
0030
0020
0000
0230
0000
0000
0000
0310
0000
0100
0000
,
0002
0000
0000
2003
0000
0000
3002
0000
0203
0000
0000
0000
0310
0000
0100
0000
,
0010
0000
0010
2000
0000
0000
3010
0000
0100
0000
0100
0002
0000
0000
0103
0000
,
0020
0000
0000
0000
1030
0000
0010
0000
0100
0000
0010
0000
2000
0000
0000
3000
,
0002
0000
0000
2003
0000
0000
3001
0000
0100
0000
0001
0000
1000
0000
0010
0000
,
0200
0000
0000
0320
0000
0000
2030
0000
3002
0000
0003
0200
0000
0000
0300
0000
,
0001
0000
0000
0001
0000
0000
0001
0000
1000
0000
0010
0000
0100
0000
0001
0000
,
1000
0000
1000
0000
0001
0000
0001
0000
0100
0000
0010
0000
2000
0000
0000
3000
,
1001
0000
0001
0000
0010
0000
0001
0010
0200
0000
0000
0300
0011
0000
0001
0010
,
0200
0000
0000
0300
0011
0000
0001
0010
0200
0000
0000
0300
0022
0000
0033
0000
,
1001
0000
1000
0000
0100
0000
1000
0100
0020
0000
0000
0030
1100
0000
1000
0100
,
0010
0000
0001
0100
0001
0000
1000
0000
0010
0000
0100
0000
0002
0000
0000
0003
,
0101
0000
0001
0000
1000
0000
0001
0100
0020
0000
0000
0030
0101
0000
0001
0100
,
0020
0000
0000
0030
0101
0000
0001
0100
0020
0000
0000
0030
2200
0000
3300
0000
,
0010
0000
0100
0000
0001
0000
1000
0001
0020
0000
0000
0030
0101
0000
1000
0001
,
0010
0000
0000
0100
0000
0000
0000
0000
0000
0000
0000
0000
0010
0000
0000
0100
0000
0000
0000
0000
0000
0000
0000
0000
1000
0000
0000
0000
0001
0000
0000
0000
1000
0000
0000
0000
0002
0000
0000
0000
0000
0000
0000
0000
0000
0000
0000
0000
,
0203
0000
0320
0000
,
1030
0010
0100
0001
,
2000
0000
0000
3001
,
1001
1001
0010
1010
,
0002
0000
0103
0010
,
0200
0000
0310
1000
,
0020
0000
0130
0001
,
0100
0000
0001
1000
0001
0000
0200
0000
,
0302
0000
0103
0001
0100
0100
0010
1000
,
0000
1000
0001
0100
0010
0010
0100
0100
,
0002
0000
0000
0000
1003
0000
0000
0000
0100
0000
1000
0000
0010
1000
0010
0000
,
0000
0000
0000
2001
,
3010
0000
1000
0000
0001
0000
0100
0010
2000
0000
0000
3000
0110
0000
0100
0010
,
2000
0000
0000
3000
0110
0000
0100
0010
2000
0000
0000
3000
0022
0000
0033
0000
,
1000
0000
0010
0000
1000
0000
0001
0010
0200
0000
0300
0000
2002
0000
3003
0000
,
0010
0000
0100
0001
0100
0000
0010
0000
1000
0000
0001
0000
0020
0000
0000
0030
,
0011
0000
1000
0100
0010
0000
0010
0000
0002
0000
0000
0003
0011
0000
1000
0100
,
0020
0000
0000
0030
0011
0000
1000
0100
0020
0000
0000
0030
2200
0000
3300
0000
,
1001
0000
0001
0000
0100
0000
0001
0100
0020
0000
0000
0030
0110
0000
0000
0000
,
1000
0000
0000
0001
0000
0000
0000
0000
0000
0000
0000
0000
1000
0000
0000
0001
0000
0000
0000
0000
0000
0000
0000
0000
0100
0000
0000
0000
0001
0000
0000
0000
0100
0000
0000
0000
0001
0000
0000
0000
0000
0000
0000
0000
0000
0000
0000
0000
,
0200
0000
0310
0000
0100
0001
1000
0010
,
0000
0000
1000
0001
0100
0000
0001
0000
0010
0000
0001
0000
0100
0000
0010
0000
,
0200
0000
0000
0000
0310
0000
0000
0000
0100
0000
0001
0000
1000
0010
1000
0000
,
0001
0000
0000
0100
0000
0000
0000
0000
0000
0000
0000
0000
1000
0000
0000
0010
0000
0000
0000
0000
0000
0000
0000
0000
0001
0000
0000
0000
0100
0000
0000
0000
0001
0000
0000
0000
0100
0000
0000
0000
0000
0000
0001
0000
0000
0000
0000
0000
;

//---------------dance-single - ----------------
#NOTEDATA:;
#CHARTNAME:;
#CHARTHASH:2355622499;
#STEPSTYPE:dance-single;
#BANNER:;
#DESCRIPTION:;
#CHARTSTYLE:;
#DIFFICULTY:Challenge;
#METER:14;
#METERF:0.000000;
#LASTSECONDHINT:107.664009;
#RADARVALUES:0.574095,0.738293,0.273378,0.355392,0.542201,441.000000,411.000000,30.000000,39.000000,0.000000,0.000000,0.000000,0.000000,0.000000,0.574095,0.738293,0.273378,0.355392,0.542201,441.000000,411.000000,30.000000,39.000000,0.000000,0.000000,0.000000,0.000000,0.000000;
#CREDIT:Musey;
#NOTES:
// measure 0
0000
0000
0000
0000
,  // measure 1
0000
0000
0000
0000
,  // measure 2
0000
0000
0000
0000
,  // measure 3
0000
0000
0000
0000
,  // measure 4
0000
0000
0000
0000
,  // measure 5
0000
0000
0000
0000
,  // measure 6
0000
0000
0000
0000
,  // measure 7
0000
0000
0000
0000
0000
0000
0000
0000
0000
0000
0000
0000
1001
0000
1000
0100
,  // measure 8
0010
0000
0001
0100
0010
0000
0100
0000
0001
0000
0100
0000
1000
0000
0100
0010
,  // measure 9
1000
0000
0001
1000
0010
0000
0100
0000
0001
1000
0010
1000
0001
0000
0100
0010
,  // measure 10
0001
0000
0010
0100
0001
0000
0010
0000
1000
0000
0010
0000
0001
0000
0100
0010
,  // measure 11
1000
0000
0001
0000
0010
0000
0001
0000
0100
0001
1000
0100
1000
0000
0001
0000
,  // measure 12
0011
0000
0001
0100
0010
0000
0001
0000
0010
1000
0100
1000
0001
0000
0100
0000
,  // measure 13
0110
0000
1000
0001
0010
0000
0001
0000
0100
0010
0001
0010
0100
0000
1001
0000
,  // measure 14
1001
0000
0010
0100
0001
0000
0100
0000
0010
1000
0001
1000
0010
0000
1000
0000
,  // measure 15
1100
0000
0000
0000
0000
0000
0000
0000
0000
0101
0000
0000
0000
0000
0000
0000
0000
0000
1100
0000
0000
0000
0000
0000
0010
0000
0000
0000
0100
0000
0000
0000
0010
0000
0000
0000
0100
0000
0000
0000
0000
0000
0001
0000
0000
0000
0000
0000
,  // measure 16
2001
0000
0000
0010
0000
0000
0010
0000
3001
0000
0000
0000
0101
0000
0010
0000
,  // measure 17
0012
0000
0000
1000
0000
0000
0100
0000
0013
0000
0000
0000
1100
0000
0010
0000
,  // measure 18
0110
0000
0100
0002
0000
0000
1003
0000
0010
0000
0100
0020
0000
0000
1030
0000
,  // measure 19
0022
0000
0000
0033
0000
0000
0010
0000
0001
0100
0010
0100
0001
0000
1000
0000
,  // measure 20
0210
0000
0000
0302
0000
0000
0203
0000
0320
0000
1030
0000
0100
0000
1000
0001
,  // measure 21
0200
0000
0000
0320
0000
0000
2030
0000
3001
0000
0100
0000
0100
0000
0001
1000
,  // measure 22
0020
0000
0000
0230
0000
0000
0302
0000
0203
0000
0310
0000
0010
0000
1000
0001
,  // measure 23
1000
0000
1000
0000
0010
0000
0001
0000
0010
0000
0100
0000
0002
0000
0000
0003
,  // measure 24
0101
0000
0001
0100
1000
0000
0100
0000
0001
0000
0001
0100
1000
0000
0100
0000
,  // measure 25
0001
0000
0001
0100
1000
0000
0100
0000
0010
0000
1000
0000
0010
0000
0100
0000
,  // measure 26
0001
0000
0010
1000
0010
0000
0001
0000
0010
0000
0001
0010
1000
0000
0010
0000
,  // measure 27
0001
0000
1000
0010
0000
0010
0000
0200
0000
0300
0100
0000
0020
0000
1030
0000
,  // measure 28
1010
0000
0001
0010
0100
0000
0010
0000
0001
0000
0001
0010
0100
0000
0010
0000
,  // measure 29
0001
0000
0001
0010
0100
0000
0010
0000
0001
0000
0100
0000
1100
0000
0010
0000
,  // measure 30
1010
0000
1000
0100
0010
0000
0100
0000
1000
0000
1000
0100
0010
0000
0100
0000
,  // measure 31
1000
0000
0000
0010
0000
0000
0000
0000
0000
0000
0000
0000
1000
0000
0000
0010
0000
0000
0000
0000
0000
0000
0000
0000
1000
0000
0000
0000
0010
0000
0000
0000
0100
0000
0000
0000
0010
0000
0000
0000
0000
0000
0000
0000
0000
0000
0000
0000
,  // measure 32
0110
0000
0001
1000
0020
0000
0230
0000
,  // measure 33
0301
0001
0100
0010
2000
0000
3020
0000
,  // measure 34
0230
0000
0000
0301
,  // measure 35
1100
0110
1000
1010
,  // measure 36
0002
0000
0000
0003
0000
0000
0010
0000
0001
0000
0000
0100
0000
0000
0010
0000
,  // measure 37
2000
0000
0000
3000
0000
0000
1000
0000
0010
0000
0000
0100
0000
0000
0001
0000
,  // measure 38
0020
0000
0000
0030
0000
0000
0000
0000
0001
0000
0000
1000
0000
0000
0010
0000
,  // measure 39
0100
0000
0100
0001
2000
0000
3002
0000
,  // measure 40
0023
0000
0000
0031
0100
0000
0010
0000
0000
0000
0000
0100
0001
0000
1000
0000
,  // measure 41
0010
0000
0100
0010
0100
0000
0001
0000
0100
0001
0100
0010
1000
0000
0100
0000
,  // measure 42
0020
0000
0000
0031
0010
0000
0100
0000
0000
0000
0000
0000
0001
1000
0002
0000
,  // measure 43
0003
0000
0000
0102
,  // measure 44
1003
0000
0001
0010
1000
0010
0001
0100
0010
0000
0001
0010
1000
0010
0001
0100
,  // measure 45
0010
0000
0001
0010
1000
0010
0001
0100
0010
0000
1000
0000
0002
0000
0013
0100
,  // measure 46
0010
0000
1000
0010
0001
0010
1000
0010
0100
0000
1000
0010
0001
0010
1000
0010
,  // measure 47
0100
0000
0100
0010
0000
0010
0000
0002
0000
0003
0100
0000
0020
0000
0031
0000
,  // measure 48
0011
0000
1000
0010
0100
0010
1000
0001
0010
0000
1000
0010
0100
0010
1000
0001
,  // measure 49
0010
0000
1000
0010
0100
0010
1000
0001
0010
0000
0100
0000
1100
0000
0001
1000
,  // measure 50
0100
0000
0100
1000
0010
0100
0010
1000
0100
0000
0100
1000
0010
0100
0010
1000
,  // measure 51
0010
0000
0000
0100
0000
0000
0000
0000
0000
0000
0000
0000
0010
0000
0000
0100
0000
0000
0000
0000
0000
0000
0000
0000
0001
0000
0000
0000
0010
0000
0000
0000
0100
0000
0000
0000
1000
0000
0000
0000
0000
0000
0000
0000
0000
0000
0000
0000
,  // measure 52
2001
0000
0000
3001
0100
0000
0001
0000
0000
0000
0000
0001
0100
0000
0001
0000
,  // measure 53
0010
0000
0001
1000
0100
0000
0010
0000
0100
0010
0100
1000
0100
0000
0010
0000
,  // measure 54
0102
0000
0000
0103
0001
0000
0100
0000
0000
0000
0000
0001
0100
0000
0010
0000
,  // measure 55
1000
0000
0000
0001
0000
0000
0000
0000
0000
0000
0000
0000
1000
0000
0000
0001
0000
0000
0000
0000
0000
0000
0000
0000
0100
0000
0000
0000
0010
0000
0000
0000
0100
0000
0000
0000
0110
0000
0000
0000
0000
0000
1001
0000
0000
0000
0000
0000
;
